#TITLE:Hardcore Overdose;
#SUBTITLE:;
#ARTIST:Euphoria;
#TITLETRANSLIT:;
#SUBTITLETRANSLIT:;
#ARTISTTRANSLIT:;
#GENRE:;
#CREDIT:;
#MUSIC:Hardcore Overdose.ogg;
#BANNER:;
#BACKGROUND:;
#CDTITLE:;
#SAMPLESTART:58.177;
#SAMPLELENGTH:22.000;
#SELECTABLE:YES;
#OFFSET:-5.310;
#BPMS:0.000=181.600
,16.000=363.200
,48.000=181.600
,339.000=363.200
,355.000=181.600
;
#STOPS:304.000=0.314;
#BGCHANGES:;
#FGCHANGES:;

//--------------- dance-single - ----------------
#NOTES:
     dance-single:
     :
     Beginner:
     2:
     0,0,0,0,0:
0000
0000
1001
0000
,
0000
0000
1001
0000
,
1000
0000
0001
0000
,
0100
0000
0010
0000
,
2002
0000
0000
0000
,
0000
0000
0000
0000
,
0000
0000
0000
0000
,
0000
0000
0000
0000
,
0000
0000
0000
0000
,
0000
0000
0000
0000
,
0000
0000
0000
0000
,
0000
0000
3003
0000
,
1001
0000
0000
0000
,
0100
0000
0000
0000
,
0010
0000
0000
0000
,
1000
0000
0000
0000
,
1001
0000
0000
0000
,
0100
0000
0000
0000
,
0010
0000
0000
0000
,
1000
0000
0000
0000
,
1001
0000
0000
0000
,
0100
0000
0000
0000
,
0010
0000
0000
0000
,
1000
0000
0000
0000
,
1001
0000
0000
0000
,
0001
0000
0000
0000
,
0100
0000
0000
0000
,
0200
0000
0300
0000
,
0010
0000
1000
0000
,
0100
0000
0010
0000
,
0100
0000
1000
0000
,
0001
0000
0100
0000
,
0010
0000
1000
0000
,
0001
0000
0100
0000
,
0010
0000
1000
0000
,
0100
0000
0010
0000
,
0100
0000
0010
0000
,
0001
0000
0100
0000
,
0010
0000
1000
0000
,
0001
0000
1000
0000
,
0100
0000
0010
0000
,
0100
0000
1000
0000
,
0001
0000
0100
0000
,
0010
0000
1000
0000
,
1001
0000
0000
0000
,
0010
0000
0000
0000
,
0100
0000
0000
0000
,
0001
0000
0000
0000
,
1000
0000
0000
0000
,
0010
0000
0000
0000
,
0100
0000
0000
0000
,
0001
0000
0000
0000
,
0110
0000
0000
0000
,
0001
0000
0000
0000
,
0010
0000
0000
0000
,
0100
0000
0000
0000
,
1000
0000
0000
0000
,
0001
0000
0000
0000
,
1000
0000
0000
0000
,
0100
0000
0000
0000
,
1001
0000
0001
0000
,
0100
0000
0010
0010
,
0010
0000
1000
0000
,
0001
0000
0100
0100
,
0100
0000
0010
0000
,
1000
0000
0001
0001
,
0001
0000
0100
0000
,
0010
0000
1000
0000
,
1001
0000
0001
0000
,
0100
0000
0010
0010
,
0010
0000
1000
0000
,
0001
0000
0100
0100
,
0100
0000
0010
0000
,
0010
0000
1000
1000
,
1000
0000
0001
0000
,
1000
0000
0000
0000
,
0001
0000
0000
1000
,
0000
0001
0000
0100
,
0000
0010
0000
1000
,
0000
0100
0000
0001
,
0000
0100
0000
1000
,
0000
0001
0000
1000
,
0000
0001
0000
0100
,
0100
0100
0100
0100
,
0000
0000
0000
2002
,
0000
0000
0000
0000
,
0000
0000
0000
0000
,
0000
0000
0000
3003
,
0000
0000
0000
1001
,
0000
0000
0000
0100
,
0000
0000
0000
0010
,
0000
0000
0000
1000
,
0000
0000
0000
0001
,
0000
0000
0000
0100
,
0000
0000
0000
0001
,
0000
0000
0000
1000
,
0000
0000
0000
1001
;

//--------------- dance-single - ----------------
#NOTES:
     dance-single:
     :
     Easy:
     4:
     0.266,0.414,0.106,0.319,0:
1000
0001
1001
1001
,
0100
0010
0110
0000
,
0001
0010
0100
1000
,
0100
1000
0010
1000
,
2020
0000
0000
0000
,
0000
0000
0000
0000
,
0000
0000
0000
0000
,
0000
0000
0000
0000
,
0000
0000
0000
0000
,
0000
0000
0000
0000
,
0000
0000
0000
0000
,
0000
0000
3030
0000
,
2002
0000
0000
3003
,
0002
0000
0000
0003
,
0200
0000
0000
0300
,
0020
0000
0000
0030
,
2000
0000
0000
3000
,
0002
0000
0000
0003
,
2000
0000
0000
3000
,
0020
0000
0000
0030
,
2002
0000
0000
3003
,
0002
0000
0000
0003
,
0020
0000
0000
0030
,
0200
0000
0000
0300
,
2002
0000
0000
3003
,
0020
0000
0000
0030
,
0200
0000
0000
0300
,
2000
0000
0000
3000
,
0001
0000
0010
0000
,
0100
1000
0010
0100
,
0001
0000
1000
0000
,
0010
0100
0001
0010
,
0001
0000
0010
0000
,
0100
1000
0100
0010
,
0001
0000
1000
0000
,
0100
0010
0001
0100
,
0010
0000
1000
0000
,
0100
0010
0001
0100
,
0001
0000
0010
0000
,
0001
0100
0001
1000
,
0100
0000
0010
0000
,
0001
0100
0010
1000
,
0001
0000
0010
0000
,
0100
1000
1000
0100
,
0200
0000
0000
0000
,
0320
0000
0000
0000
,
0032
0000
0000
0000
,
2003
0000
0000
0000
,
3020
0000
0000
0000
,
2030
0000
0000
0000
,
3002
0000
0000
0000
,
0023
0000
0000
0030
,
2002
0000
0000
3003
,
2000
0000
0000
0000
,
3020
0000
0000
0000
,
0230
0000
0000
0000
,
0302
0000
0000
0000
,
2003
0000
0000
0000
,
3001
0000
1000
0000
,
1001
0000
0000
0110
0000
0110
0000
0000
,
0001
0000
0010
0000
,
0100
0000
1000
0010
,
0100
0000
0001
0000
,
0010
0000
0100
1000
,
0001
0000
1000
0000
,
0100
0000
0010
0001
,
0100
0000
0010
0000
,
1000
0000
1000
0001
,
1001
0000
0100
0000
,
0010
0000
0001
0010
,
0100
0000
1000
0000
,
0010
0000
0001
0010
,
0100
0000
1000
0000
,
0010
0000
0100
0001
,
0100
0000
0010
0000
,
1000
0000
1001
0000
,
2000
0000
0000
0000
0000
0000
0000
3001
,
0000
0100
0000
0010
0000
1000
0000
0010
,
0000
1000
0000
0001
0000
0100
0000
0010
,
0000
1000
0000
0010
0000
0100
0000
0001
,
0000
0010
0000
0000
0000
0000
0100
0000
,
0100
1000
1000
0010
,
0010
0100
0001
0002
,
0000
0000
0000
2003
,
0000
0000
0000
0002
,
0000
0000
0000
0000
,
0000
0000
0000
0000
,
0000
0000
0000
0000
,
0000
0000
3003
1000
,
0000
0100
0000
0010
0000
0000
0001
0000
,
0000
0010
0000
0100
0000
0000
1000
0000
,
0000
0010
0000
0100
0000
0000
0001
0000
,
0000
0010
0000
0100
0000
0000
1000
0000
,
0000
0100
0000
0010
0000
0000
0001
0000
,
0000
0100
0000
0010
0000
0000
1000
0000
,
0000
0010
0000
0100
0000
0000
0001
0000
,
0000
1000
0000
0001
0000
0000
2002
0000
,
0000
0000
0000
0000
,
0000
0000
0000
0000
,
3003
0000
0000
0000
;

//--------------- dance-single - ----------------
#NOTES:
     dance-single:
     :
     Medium:
     7:
     0.431,0.527,0.129,0.198,0.114:
1000
0001
1000
0000
1001
0000
1001
0000
,
1000
0100
0010
0000
0110
0000
0000
0001
,
0010
0001
0010
0000
0100
1000
0100
0000
,
1000
0100
0010
0000
0010
0100
1000
0000
,
2020
0000
0000
0000
,
0000
0000
0000
0000
,
0000
0000
0000
0000
,
0000
0000
0000
0000
,
0000
0000
0000
0000
,
0000
0000
0000
0000
,
0000
0000
0000
0000
,
0000
0000
3030
0000
,
1001
0000
0000
1000
0000
0010
0000
0100
,
0001
0000
0000
0100
0000
0010
0000
1000
,
0100
0000
0000
0010
0000
0001
0000
0010
,
0100
0000
0000
1000
0000
0100
0000
0010
,
0001
0000
0000
0001
0000
0100
0100
0000
,
0010
0000
0000
1000
0000
0100
0000
0100
,
0100
0000
0000
0000
0000
0000
0010
0000
0001
0000
0000
1000
0000
0000
0010
0000
,
0020
0000
0000
0000
0130
0001
0000
0001
,
0100
0000
0000
0010
0000
1000
0000
0100
,
0010
0000
0000
0001
0000
0100
0000
0100
,
0010
0000
0000
0000
0000
0000
1000
0000
0100
0000
0000
0010
0000
0000
0001
0000
,
0010
0000
0000
0100
0000
1000
0000
0001
,
1000
0000
0000
0002
0000
0103
0000
0010
,
1000
0000
0000
0020
0000
0130
0000
0001
,
1000
0000
0000
0000
0000
0000
1000
0000
0001
0000
0000
0100
0000
0000
0001
0000
,
2000
0000
0002
3003
,
1001
0001
0100
1000
,
0100
0000
0001
0000
0010
0000
0100
1000
,
0100
0000
1000
0100
1000
0000
0010
0000
,
0100
0000
0001
0000
0010
0000
0100
1000
,
0100
0000
0010
0001
0010
0000
0100
0000
,
1000
0000
0010
0000
0100
0000
0001
0100
,
0001
0000
1000
0001
1000
0000
0100
0000
,
0010
0001
0010
0001
,
0011
0000
0100
1000
0100
0000
0010
0000
,
0001
0100
0010
1000
,
0100
0000
0010
0001
0010
0000
0100
0000
,
1000
0010
0100
0001
,
0010
0000
0001
0010
0001
0000
1000
0000
,
0010
0100
0001
0100
,
0010
0000
1000
0100
0010
0000
0001
0010
,
0100
0000
1000
1000
1000
0000
0001
0001
,
1002
0000
0000
1000
0000
1000
0000
1003
,
0200
0000
0000
0010
0000
0010
0000
0310
,
0002
0000
0000
0100
0000
0100
0000
0103
,
0020
0000
0000
0100
0000
0100
0000
0130
,
0002
0000
0000
0013
0000
0100
1000
0000
,
0020
0000
0000
0001
0000
0001
0000
0031
,
0010
0000
0000
0000
0000
0000
1000
0000
0100
0000
0000
0010
0000
0000
0001
0000
,
2000
0000
0000
0000
3001
1000
0000
0001
,
2000
0000
0000
0010
0000
0010
0000
0000
,
3020
0000
0000
1000
0000
1000
0000
0000
,
2030
0000
0000
0000
0000
0000
0000
0000
0010
0000
0000
0010
0000
0000
0010
0000
,
3020
0000
0000
1000
0000
1000
0000
0000
,
2030
0000
0000
0100
0000
0100
0000
0000
,
3200
0000
0000
0010
0000
0010
0000
0010
,
0310
0000
0000
0000
0000
0000
0001
0000
1000
0000
0000
0010
0000
0000
1000
0000
,
0001
0000
0000
0110
0000
0110
0000
0000
,
0001
0000
0000
0001
0000
0000
0000
0000
0010
0000
0000
0010
0000
0000
0000
0000
,
0100
0000
0000
0100
0000
0000
0000
0000
1000
0000
0100
0000
1000
0000
0000
0000
,
0100
0000
0000
0100
0000
0000
0000
0000
0010
0000
0000
0010
0000
0000
0000
0000
,
0001
0000
0000
0001
0000
0000
0000
0000
1000
0000
0100
0000
1000
0000
0000
0000
,
0001
0000
0000
0001
0000
0000
0000
0000
0100
0000
0000
0100
0000
0000
0000
0000
,
0010
0000
0000
0010
0000
0000
0000
0000
1000
0000
0100
0000
1000
0000
0000
0000
,
0001
0000
0000
0001
0000
0000
0000
0000
0100
0000
0000
0100
0000
0000
0000
0000
,
0010
0000
0000
0010
0000
0000
0000
0000
1000
0000
0001
0000
0100
0000
0000
0000
,
0001
0000
0000
0100
0000
0000
0000
0000
0010
0000
0000
1000
0000
0000
0000
0000
,
0100
0000
0000
0010
0000
0000
0000
0000
0001
0000
0100
0000
0010
0000
0000
0000
,
1000
0000
0000
0010
0000
0000
0000
0000
0100
0000
0000
0001
0000
0000
0000
0000
,
0100
0000
0000
0001
0000
0000
0000
0000
1000
0000
0010
0000
1000
0000
0000
0000
,
0001
0000
0000
0100
0000
0000
0000
0000
0010
0000
0000
1000
0000
0000
0000
0000
,
0100
0000
0000
0010
0000
0000
0000
0000
0001
0000
0100
0000
0010
0000
0000
0000
,
1000
0000
0000
0010
0000
0000
0000
0000
0100
0000
0000
0001
0000
0000
0000
0000
,
1000
0000
0000
0100
0000
0000
0000
0000
0010
0000
0001
0000
0000
0000
0000
0000
,
2000
0000
0000
0000
0000
0000
0000
3001
,
0000
0100
0000
0010
0000
1000
0000
0010
,
0000
1000
0000
0001
0000
0100
0000
0010
,
0000
1000
0000
0010
0000
0100
0000
0001
,
0000
0010
0000
0100
0000
1000
0001
0010
,
0001
0000
0010
0001
0010
0000
0100
0010
,
0100
0000
1000
0010
0100
0000
0020
0000
,
0000
0000
0000
2030
,
0000
0000
0000
0002
,
0000
0000
0000
0000
,
0000
0000
0000
0000
,
0000
0000
0000
0000
,
0000
0000
3003
1001
,
0000
1000
0000
0100
0000
0000
1100
0000
,
0000
0001
0000
1000
0000
0000
1001
0000
,
0000
1000
0000
0001
0000
0000
1001
0000
,
0000
0001
0000
0010
0000
0000
0011
0000
,
0000
0100
0000
0010
0000
0000
0110
0000
,
0000
0100
0000
1000
0000
0000
0100
0000
,
0000
0010
0000
0001
0000
0000
1000
0000
,
0000
1000
0000
0001
0000
0000
2002
0000
,
0000
0000
0000
0000
,
0000
0000
0000
0000
,
3003
0000
0000
0000
;

//--------------- dance-single - 1 ----------------
#NOTES:
     dance-single:
     1:
     Hard:
     10:
     0.659,0.866,0.183,0.35,0.236:
1000
0001
1000
0001
1001
0000
1001
0000
,
0100
0010
0100
0010
0110
0000
0000
0001
,
1000
0010
0001
0000
1000
0100
0001
0000
,
1000
0100
0010
0001
0100
0010
1000
0010
,
2020
0000
0000
0000
,
0000
0000
0000
0000
,
0000
0000
0000
0000
,
0000
0000
0000
0000
,
0000
0000
0000
0000
,
0000
0000
0000
0000
,
0000
0000
0000
0000
,
0000
0000
3030
0000
,
1001
0000
0000
1000
0000
1000
0000
1000
,
0010
0000
0000
0100
0000
0100
0000
0100
,
0001
0000
0000
0010
0000
0010
0000
0010
,
0100
0000
0000
1000
0000
0100
0000
0010
,
0110
0000
0000
0002
0000
0100
0100
0000
,
1003
0000
0000
0002
0000
0100
0000
0100
,
0103
0000
0000
0000
0000
0000
0100
0000
0010
0000
0000
1000
0000
0000
0010
0000
,
0020
0000
0000
0000
0130
0001
0100
0001
,
0101
0000
0000
0002
0000
0100
0000
0100
,
0103
0000
0000
0020
0000
1000
0000
1000
,
1030
0000
0000
0000
0000
0000
0100
0000
0010
0000
0000
0001
0000
0000
0100
0000
,
0010
0000
0000
1000
0000
0010
0000
0100
,
0101
0000
0000
0002
0000
0103
0000
0010
,
1000
0000
0000
0020
0000
0130
0000
0001
,
1000
0000
0000
0000
0000
0000
1000
0000
0001
0000
0000
0100
0000
0000
0001
0000
,
2000
0000
0002
3003
,
1001
0000
0001
0100
1000
0000
1000
0100
,
0001
0010
1000
0010
0001
0100
0010
1000
,
0001
0000
0100
0010
0100
0000
0100
1000
,
0001
0010
1000
0100
0010
0001
0100
1000
,
0100
0000
0001
0100
0100
0000
0001
0100
,
1000
1000
0100
0001
0100
0010
1000
0100
,
0010
0000
0001
0100
1000
0000
0100
0010
,
1000
0010
0100
0001
0100
0010
1000
0001
,
0101
0000
1000
0010
0002
0000
0013
1000
,
0100
0001
0001
0100
1000
0010
0001
0010
,
2000
0000
3100
0010
0002
0000
1003
0010
,
0100
1000
0100
0010
0100
1000
0100
0010
,
2000
0000
3100
0001
0200
0000
1300
0010
,
0100
1000
0100
0001
0100
0010
0100
1000
,
0200
0000
0310
0100
0002
0000
1003
0100
,
0010
0001
1000
1000
1000
0000
0001
0001
,
1001
0010
0100
0001
0100
0001
1000
0001
,
1000
0100
0010
0100
0010
0100
1000
0100
,
1000
0100
0010
0010
0100
0010
0001
0010
,
0100
1000
0100
0010
0001
0010
0001
0010
,
0100
1000
0010
1000
0001
1000
0100
0010
,
0001
0010
0100
0100
1000
0100
1000
0100
,
1000
0000
0010
0000
0100
0000
0001
0000
0100
0000
0000
0010
0000
0000
1000
0000
,
0002
0000
0000
0000
1003
0001
0000
0001
,
2001
0000
0000
0010
0000
0010
0000
0010
,
3020
0000
0000
0001
0000
0001
0000
0001
,
0032
0000
0000
0000
0000
0000
0010
0000
0010
0000
0000
0010
0000
0000
0010
0000
,
0023
0000
0000
1000
0000
1000
0000
1000
,
2030
0000
0000
0100
0000
0100
0000
0100
,
3200
0000
0000
0001
0000
0001
0000
0001
,
0301
0000
0000
0000
0000
0000
0001
0000
1000
0000
0000
0010
0000
0000
1000
0000
,
1001
0000
0000
0110
0000
0110
0000
0000
,
0010
0000
0001
0100
0000
0001
0100
0000
0010
0000
1000
0100
0000
1000
0100
0000
,
0010
0000
0001
0100
0000
0001
0100
0000
0010
0000
1000
0000
0010
0000
1000
0000
,
0001
0000
1000
0010
0000
1000
0001
0000
0010
0000
0100
1000
0000
0010
1000
0000
,
0100
0000
0010
0001
0000
0010
0001
0000
0100
0000
0001
0000
1000
0000
0001
0000
,
0010
0000
0100
1000
0000
0100
1000
0000
0001
0000
1000
0001
0000
1000
0001
0000
,
0010
0000
0100
0010
0000
0001
0010
0000
0100
0000
1000
0000
0100
0000
0010
0000
,
0001
0000
1000
0010
0000
0010
1000
0000
0100
0000
0010
0001
0000
0001
0010
0000
,
0100
0000
1000
0010
0000
1000
0010
0000
0100
0000
0001
0000
0100
0000
0001
0000
,
0001
0000
1000
0100
0000
1000
0100
0000
0010
0000
0001
0100
0000
0001
0010
0000
,
0100
0000
1000
0010
0000
0010
0100
0000
0010
0000
1000
0000
0001
0000
1000
0000
,
0001
0000
1000
0010
0000
1000
0010
0000
0100
0000
0001
0010
0000
0001
1000
0000
,
0100
0000
0010
0001
0000
0001
0010
0000
0100
0000
1000
0000
0100
0000
0010
0000
,
0001
0000
1000
0100
0000
0100
1000
0000
0001
0000
0100
0010
0000
0100
0010
0000
,
1000
0000
1000
0100
0000
0010
0001
0000
0100
0000
0010
0000
0100
0000
0010
0000
,
1000
0000
0010
0100
0000
0001
0100
0000
0010
0000
1000
0001
0000
0100
0010
0000
,
1000
0000
0001
0100
0000
0100
0001
0000
1000
0000
0100
0000
0000
0000
0000
0000
,
2000
0000
0000
0000
0000
0000
0000
3001
,
0010
0001
0100
0001
1000
0001
0100
0001
,
0010
0001
0100
0001
1000
0001
0100
0010
,
0001
0010
1000
0010
0001
0010
1000
0100
,
0010
0001
0010
0001
0010
0001
0010
0010
,
0100
0100
0010
0010
0001
0001
0010
0010
,
0100
0000
0100
0000
1000
0000
1000
0000
0010
0000
0010
0000
1000
0001
1000
0001
,
1000
0001
1000
0001
1000
0001
1000
0001
1000
0001
1000
0001
2000
0000
0000
0000
,
0000
0000
0000
0002
,
0000
0000
0000
0000
,
0000
0000
0000
0000
,
0000
0000
0000
0000
,
0000
0000
3003
1001
,
0000
2000
0000
0200
0000
3300
1100
0000
,
0000
0002
0000
2000
0000
3003
1001
0000
,
0000
2000
0000
0002
0000
3003
1001
0000
,
0000
0002
0000
0020
0000
0033
0011
0000
,
0000
0200
0000
0020
0000
0330
0110
0000
,
0000
2000
0000
0200
0000
3300
1100
0000
,
0000
2000
0000
0020
0000
3030
1010
0000
,
0000
2000
0000
0002
0000
3003
2002
0000
,
0000
0000
0000
0000
,
0000
0000
0000
0000
,
3003
0000
0000
0000
;

//--------------- dance-single - 1/1/1 SJ XO ----------------
#NOTES:
     dance-single:
     1/1/1 SJ XO:
     Challenge:
     11:
     0.729,1,0.152,0.487,0.327:
1000
0001
1000
0001
1001
1000
1100
0000
,
0100
0010
0100
0010
0110
0000
0000
0001
,
1000
0010
0001
0010
1000
0100
0001
0100
,
1000
0100
0010
0001
0100
0010
1000
0010
,
2020
0000
0000
0000
,
0000
0000
0000
0000
,
0M00
0000
0000
0000
,
000M
0000
0000
0000
,
0M00
0000
000M
0000
,
0M00
0M00
000M
000M
,
0M00
0M00
000M
000M
,
0M00
0M00
303M
0000
,
1001
0000
0010
1000
0000
1000
0000
1000
,
0010
0000
0100
1000
0000
0100
0000
0001
,
0100
0000
1000
0010
0000
0010
0000
0010
,
0100
0000
0000
1000
0000
0100
0000
0010
,
0110
0000
0100
0002
0000
0100
0100
0000
,
1003
0000
1000
0002
0000
0100
0000
0100
,
0103
0000
0000
0000
0000
0000
0100
0000
0010
0000
0000
1000
0000
0000
0010
0000
,
0020
0000
0130
0000
0100
0001
1000
0010
,
0110
0000
1000
0001
0010
0100
1000
0100
,
0100
0000
0001
0010
1000
0010
0001
1000
,
1000
0000
0000
0000
1000
0000
0100
0000
0010
0000
0000
0001
0000
0000
0100
0000
,
0020
0000
1030
1000
0100
0010
0001
0100
,
0101
0000
0001
0100
0010
1000
0100
0010
,
0001
1000
0010
1000
0100
0010
0001
1000
,
0001
0010
0100
1000
0100
0010
0001
0100
0010
0100
0010
1000
0010
0100
0001
1000
,
0002
0000
2000
3003
,
1001
0001
1000
0100
0001
1000
0001
0100
,
1000
0010
0001
0010
1000
0100
0010
0001
,
1000
0000
0100
0010
010M
0000
0100
0001
,
1000
0010
0001
0100
0010
1000
0100
0001
,
0100
1000
0100
0010
0010
0001
1000
0100
,
0001
0001
0100
1000
0100
0010
0001
0100
,
001M
0000
1000
0100
0001
0100
1000
0010
,
0001
0010
1000
0001
0100
0010
1000
0001
,
1001
1000
0001
0010
2000
0000
3010
0001
,
0100
1000
1000
0100
0001
0010
1000
0010
,
0002
0000
0103
0010
2000
0000
3001
0010
,
0100
0001
0100
0010
0100
0001
0100
0010
,
0002
0000
0103
1000
0200
0000
0301
0010
,
0100
0001
0100
1000
0100
0010
0100
0001
,
0200
0000
0310
0100
2000
0000
3001
0100
,
0010
1000
0001
0001
0001
0000
1000
1000
,
1002
0013
0100
2000
3100
2000
3001
2000
,
3002
0103
0010
0200
0310
0200
0301
0200
,
0302
0103
0010
0020
0130
0020
1030
0020
,
0130
0001
0100
0020
1030
0020
1030
0020
,
0230
0301
0010
0002
1003
0002
0203
0310
,
2000
3010
0100
0200
0301
0200
0301
0200
,
0301
0000
0010
0000
0100
0000
1000
0000
0100
0000
0000
0010
0000
0000
0001
0000
,
2000
0000
0000
0000
3001
1000
0000
1000
,
1001
0000
0001
0000
1000
0000
0001
0000
1000
0010
1000
0010
1000
0000
0000
0000
,
0001
0000
0010
0000
0100
0000
1000
0000
0100
0010
0001
0010
0100
0000
0000
0000
,
1000
0000
0100
0000
0010
0000
0001
0000
1000
0010
1000
0010
1000
0000
0000
0000
,
0100
0000
0010
0000
0001
0000
0010
0000
0100
1000
0100
0010
0001
0000
0000
0000
,
1000
0000
0010
0000
0100
0000
0001
0000
0100
0010
1000
0010
1000
0000
0000
0000
,
0001
0000
0010
0000
0100
0000
1000
0000
0001
0010
0100
1000
0001
0000
1000
0000
,
0010
0000
0000
0000
0000
0000
0100
0000
0001
0000
0000
0010
0000
0000
0001
0000
,
1001
0000
0000
0110
0000
0110
0000
0000
,
0010
0000
1000
0100
0000
1000
0100
0000
0010
0000
0001
0100
0000
0001
0100
0000
,
0010
0000
1000
0100
0000
1000
0100
0000
0010
0000
0010
0000
0001
0000
0001
0000
,
1000
0000
0001
0010
0000
0001
1000
0000
0010
0000
0100
0001
0000
0010
0001
0000
,
0100
0000
0010
1000
0000
0010
1000
0000
0100
0000
0100
0000
1000
0000
1000
0000
,
0010
0000
0100
0001
0000
0100
0001
0000
1000
0000
0001
1000
0000
0001
1000
0000
,
0010
0000
0100
0010
0000
1000
0010
0000
0001
0000
0001
0000
0010
0000
0010
0000
,
1000
0000
0001
0010
0000
0010
0001
0000
0100
0000
0010
1000
0000
1000
0010
0000
,
0100
0000
0001
0010
0000
0001
0010
0000
0100
0000
0100
0000
1000
0000
1000
0000
,
1001
0000
0001
0100
0000
0001
0100
0000
0010
0000
1000
0100
0000
1000
0010
0000
,
0100
0000
0001
0010
0000
0010
0100
0000
0010
0000
0010
0000
0001
0000
0001
0000
,
1000
0000
0001
0010
0000
0001
0010
0000
0100
0000
1000
0010
0000
1000
0001
0000
,
0100
0000
0010
0100
0000
0001
0010
0000
0100
0000
0100
0000
1000
0000
1000
0000
,
0010
0000
0100
0001
0000
0100
0001
0000
1000
0000
0100
0010
0000
0100
0010
0000
,
0001
0000
0001
0100
0000
0010
1000
0000
0100
0000
0100
0000
0010
0000
0010
0000
,
0001
0000
0010
0100
0000
1000
0100
0000
0010
0000
0001
1000
0000
0100
0010
0000
,
0001
0010
0100
1000
0001
0010
0100
1000
0001
0010
0100
1000
0001
0010
0100
1000
,
0002
0000
0000
0000
0000
0000
0000
1003
,
0010
1000
0100
1000
0001
1000
0100
1000
,
0010
1000
0100
1000
0001
1000
0100
0010
,
1000
0010
0001
0010
1000
0010
0001
0100
,
0010
1000
0010
1000
0010
1000
0010
0010
,
0100
0100
0010
0010
1000
1000
0010
0010
,
0100
0000
0100
0000
0001
0000
0001
0000
0010
0000
0010
0000
0001
0010
0100
1000
,
0001
0100
0010
0100
0001
1000
0010
0100
0001
0010
0100
0010
0002
0000
0000
0000
,
0000
0000
0000
2000
,
0000
0000
0000
0000
,
0000
0000
0000
0000
,
0000
0000
0000
0000
,
0000
0000
3003
1001
,
0000
0001
0000
0200
0000
0000
0010
0300
,
0000
1000
0000
0002
0000
0000
0010
0003
,
0000
0001
0000
0200
0000
0000
0010
0300
,
0000
1000
0000
0200
0000
0000
0010
0300
,
0000
0100
0000
0020
0000
0000
0001
0030
,
0000
0002
0000
0200
0000
0303
0101
0000
,
0000
0002
0000
0020
0000
0033
0011
0000
,
0000
0002
0000
2000
0000
3003
2002
0000
,
0000
0M00
0000
00M0
0000
0M00
00M0
0000
,
0000
0M00
0000
00M0
0000
0M00
0M00
0000
,
3003
0000
0000
0000
;

//--------------- dance-double - ----------------
#NOTES:
     dance-double:
     :
     Challenge:
     12:
     0,0,0,0,0:
00010000
00001000
00100000
00010000
00110000
00000000
10010000
00000000
,
10000000
00010000
01000000
00010000
00100000
00000000
00000000
00000000
00101000
00000000
00000000
00000000
00000000
00000000
00001000
00000000
,
00010000
00000100
00010000
00000100
00010000
00000000
00000100
00000000
00001000
00000001
00000010
00000001
00001000
00000000
00000001
00000000
,
00001000
00000100
00001000
00000010
00000100
00000000
00000010
00000000
00010000
00000000
00000100
00000000
00010100
00000000
00000000
00000000
,
00022000
00000000
00000000
00000000
,
00000000
00000000
00000000
00000000
,
00000000
M0M00000
00000000
00000000
,
00000MM0
00000000
00000000
00000000
,
M0M00000
00000000
00000M0M
00000000
,
00000M0M
00000000
00000000
00000000
,
00000000
00000000
00000000
00000000
,
00000000
00000000
00033000
00000000
,
00001000
00000000
01000000
00000000
00100000
00000000
10000000
01000000
00100000
00000000
00010000
00000000
01010000
00000000
01000000
00001000
,
00010000
00000000
00001000
00010000
00000100
00000000
00001000
00000000
00000010
00010000
00001000
00000000
00010000
00000000
00000100
00000010
,
00000001
00000000
00001000
00000000
00001010
00000000
00000010
00000000
00000000
00001000
00000100
00000000
00010000
00000000
00001000
00010000
,
00001000
00000000
01000000
00000000
01010000
00000000
00010000
00000000
10000000
01000000
00100000
00000000
00010000
00000000
10000000
00000000
,
10010000
00000000
00010000
00000000
10000000
00000000
00010000
00100000
01000000
10000000
00010000
00000000
02000000
00000000
00000000
00000000
,
03000100
00000000
00010000
00000000
00001000
00000000
00010000
00000100
00010000
00000000
00000100
00000000
00001000
00000000
00000010
00000100
,
00000010
00000000
00010000
00001000
00010000
00000000
00000010
00000100
00000001
00000100
00000010
00000000
00001000
00000000
00000001
00000000
,
00002000
00000000
00003001
00010000
00002000
00000000
00013000
00010000
,
00011000
00000000
00001000
01000000
00100000
00000000
10000000
01000000
00100000
00010000
10000000
00000000
00010000
00000000
01000000
00000000
,
00020000
00000000
00000000
00000000
10030000
00000000
00002000
00000000
00000000
00000000
00013000
00000100
00010000
00000000
00000010
00001000
,
00000010
00000000
00010000
00001000
00010000
00000000
00000010
00001000
00000010
00000100
00000001
00000010
00001000
00000000
00000100
00000000
,
00020000
00000000
00000000
00000000
00031000
00000000
01000000
00100000
01000000
00000000
00010000
10000000
00010000
00000000
10000000
00000000
,
00010000
00100000
01000000
10000000
00010000
10000000
00010000
00100000
01000000
10000000
00010000
01000000
00100000
10000000
00010000
01000000
,
00001000
00100000
00001000
00010000
00001000
00010000
00000100
00001000
00000010
00001000
00000001
00000010
00000100
00001000
00000010
00000100
,
00000001
00000010
00000100
00001000
00000001
00000100
00000010
00010000
00000100
00010000
00001000
00010000
00000100
00001000
00000010
00001000
,
00000020
00000000
00400030
00300000
,
00201000
00000000
00301000
01000000
20000000
00000000
31000000
00010000
,
00100000
01000000
00100000
00001000
00010000
00100000
00010000
00001000
,
00020000
00000000
00031000
00000100
00000002
00000000
00000103
00001000
,
00010000
00100000
10000000
00010000
01000000
10000000
00010000
01000000
,
00002000
00000000
00013000
00100000
00000020
00000000
01000030
00000010
,
01000000
00001000
00000100
00001000
01000000
00100000
00001000
00100000
,
02000000
00000000
03001000
00000010
00000002
00000000
00000013
00001000
,
00000100
00001000
00010000
00001000
00000100
00010000
01000000
00010000
,
00000100
01000000
00020000
00100000
10030000
00100000
02000000
00001000
,
03010000
00100000
00001000
00010000
00000010
00000100
00000001
00000010
,
00000001
00001000
00000020
00001000
00000130
00000010
00200000
00001000
,
00310000
01000000
00100000
10000000
01000000
00010000
01000000
10000000
,
00001000
00010000
00000200
00001000
00010300
00001000
02000000
00001000
,
03100000
01000000
00100000
10000000
01000000
00010000
00001000
00000010
,
00000001
00000100
00000010
00001000
00000010
00000100
00000010
00010000
00001000
00010000
00000100
00001000
00000010
00010000
00000100
00001000
,
00000010
00010000
00001000
00010000
00000100
00000000
00010000
00000000
00011000
00000000
00000000
00001000
00000000
00000000
01000000
00000000
,
00010000
00100000
00010000
01000000
00010000
00000000
01000000
00000000
10000000
00000000
01000000
00000000
00010000
00000000
00100000
00000000
,
00000100
00010000
00000100
00010000
00000100
00000000
00001000
00000000
00000100
00000000
00000001
00000000
00000100
00000000
00001000
00000000
,
00000010
00010000
00001000
00010000
00000010
00000000
00001000
00000000
00000001
00000000
00001000
00000000
00000100
00000000
00010000
00000000
,
00001000
01000000
00010000
01000000
00001000
00000000
01000000
00000000
00100000
00000000
10000000
00000000
00010000
00000000
10000000
00000000
,
00001000
00010000
00001000
00010000
00001000
00000000
00010000
00000000
00000010
00000000
00000100
00000000
00000001
00000000
00000100
00000000
,
00000010
00001000
00000001
00000100
00000010
00000000
00010000
00001000
00010000
00000000
00000100
00010000
00001000
00000000
00010000
00000000
,
00001000
01000000
00001000
01000000
00100000
00000000
01000000
00000000
00010000
00000000
10000000
00000000
01000000
00000000
00100000
00000000
,
00010000
10000000
00100000
01000000
00010000
00000000
01000000
00100000
01000000
00000000
00010000
10000000
00010000
00000000
10000000
00000000
,
10010000
00000000
00010000
01000000
00010000
00000000
10000000
01000000
00100000
00010000
01000000
00001000
00010000
00000000
00001000
00010000
,
00001000
00000000
00010000
00000100
00001000
00000000
00000001
00000010
00000100
00001000
00000010
00001000
00000001
00000000
00001000
00000100
,
00001000
00000000
00000001
00000010
00000100
00000000
00010000
00000100
00010000
00001000
00010000
00000100
00001000
00000000
00010000
00001000
,
00100000
00000000
00010000
10000000
00010000
00000000
10000000
01000000
00100000
00010000
00100000
01000000
10000000
00000000
00010000
10000000
,
00010000
01000000
00100000
10000000
00010000
00100000
01000000
10000000
00100000
01000000
00010000
10000000
01000000
00100000
00010000
01000000
,
00001000
00100000
00001000
00010000
00000100
00001000
00000100
00010000
00001000
00010000
00000010
00001000
00000100
00001000
00000001
00000010
,
00000100
00001000
00000010
00000100
00000001
00000010
00000100
00001000
00000001
00001000
00000100
00010000
00001000
00010000
00001000
00010000
,
00001000
01000000
00000100
01000100
00000000
00100010
00000000
00000000
,
00011000
00000000
00010000
00001000
00000000
0M001000
00000010
00000000
00000100
00000000
00000001
000M0010
00000000
00000010
00001000
00000000
,
00000100
00000000
00100000
00010000
00000000
0M010000
00001000
00000000
00010000
00000000
00001000
00000000
01000000
00000000
00010000
00000000
,
10000000
00000000
00010000
00100M00
00000000
00100000
10000000
00000000
00001000
00000000
0M100000
00001000
00000000
00001000
00000100
00000000
,
00010000
00000000
00000100
00010000
00000000
000100M0
00100000
00000000
00010000
00000000
10000000
00000000
00100000
00000000
01000000
00000000
,
00001000
00000000
01000000
00100000
00000000
M0100000
00001000
00000000
00100000
00000000
00001000
00010000
00000000
000100M0
01000000
00000000
,
00100000
00000000
10000000
01000000
00000000
01000000
00010000
00000000
0100M000
00000000
00010000
00000000
01000000
00000000
00000100
00000000
,
00010000
00000000
00010000
00001000
00000000
0M001000
00000010
00000000
00010000
00000000
00000100
00001000
00000000
0000100M
00010000
00000000
,
00001000
00000000
00100000
00010000
00000000
00010000
00M01000
00000000
00010000
00000000
00000100
00000000
00010000
00000000
00000100
00000000
,
00010100
00000000
00001000
00000100
00000000
00000001
00000100
00000000
00001000
00000000
00010000
00100000
00000000
10000000
00100000
00000000
,
00010000
00000000
10000000
01000000
00000000
00010000
01000000
00000000
10000000
00000000
00001000
00000000
00010000
00000000
00000100
00000000
,
00010000
00000000
00010000
00000100
00000000
00000001
00000100
00000000
00001000
00000000
00000010
00000100
00000000
00001000
00000100
00000000
,
00000010
00000000
00010000
00001000
00000000
00100000
00010000
00000000
10000000
00000000
00001000
00000000
00010000
00000000
00000100
00000000
,
00010000
00000000
00001000
00000100
00000000
00000001
00000100
00000000
00001000
00000000
00010000
01000000
00000000
10000000
01000000
00000000
,
00100000
00000000
10000000
00100000
00000000
00010000
10000000
00000000
01000000
00000000
00100000
00000000
01000000
00000000
00001000
00000000
,
00010000
00000000
00001000
00000100
00000000
00000001
00000100
00000000
00001000
00000000
00010000
00100000
00000000
10000000
00100000
00000000
,
00010000
01000000
00100000
10000000
00010000
00100000
01000000
10000000
00010000
01000000
00100000
10000000
00001000
00010000
00001000
01000000
,
00100000
00000000
00000000
00000000
00000000
00000000
01000000
00000100
,
00100000
00000000
00000010
00000000
00010000
00000100
00010000
00000000
00000001
00000000
00001000
00000000
00000100
00000000
01000000
00000000
,
00000010
00000000
00100000
00000000
00001000
01000000
00100000
00000000
10000000
00000000
00001000
10000000
00100000
00000000
01000000
00000000
,
00000100
00000000
00100000
00000000
00001000
00010000
00000100
00000000
00001000
00000000
00000001
00000000
00001000
00000000
00000100
00000000
,
01000000
00010000
00100000
00000000
00010000
10000000
01000000
00100000
00010000
00000000
10000000
00000000
10010000
00000000
00010000
00000000
,
01000000
00000000
01000000
00000000
00000100
00001000
00000100
00000000
00100000
00000000
00100000
00000000
00100010
00000000
00000010
00000000
,
00010000
00000000
00010000
00000000
00001000
00000000
00010000
00000000
00001000
01000000
00100000
00000000
10000000
01000000
00100000
00001000
,
00010000
00001000
00100000
00010000
00100000
00001000
00010000
00000100
00001000
00000010
00000100
00000001
00000010
00000100
00010000
00000100
,
00001000
00000100
00010000
00001000
00100000
00010000
00100000
00001000
00010000
00000100
00001000
00000100
00020000
00000000
00000000
00000000
,
00000000
00000000
00000000
00000000
,
00000000
00000000
00000000
00000000
,
00000000
00000000
00000000
00000000
,
00000000
00000000
00030000
00011000
,
00000000
00001000
00000000
10000000
00000000
00000000
00010000
00000000
,
00000000
01000000
00000000
00000100
00000000
00000000
00010000
00000000
,
00000000
00000010
00000000
00010000
00000000
00000000
00000002
00000000
,
00000003
00010000
00000000
00001000
00000000
00000000
00100000
00000000
,
00000000
00001000
00000000
10000000
00100000
00000000
02000000
00000000
,
03000000
00001000
00000000
01000000
00000000
00000100
00200000
00000000
,
00300000
00001000
02000000
00000000
03000000
00000000
01001000
00000000
,
00000000
00000000
00001000
00010000
00000000
00000000
20000200
00000000
,
00000000
00000000
00000000
00000000
,
00000000
00000000
00000000
00000000
,
30000300
00000000
00000000
00000000
;
