#TITLE:Happy Snowman;
#SUBTITLE:;
#ARTIST:Easy Pop;
#TITLETRANSLIT:;
#SUBTITLETRANSLIT:;
#ARTISTTRANSLIT:;
#GENRE:;
#CREDIT:;
#MUSIC:happy_snowman.ogg;
#BANNER:bann.png;
#BACKGROUND:bg.png;
#CDTITLE:;
#SAMPLESTART:11.980;
#SAMPLELENGTH:12.000;
#SELECTABLE:YES;
#OFFSET:-0.200;
#BPMS:0.000=180.000;
#STOPS:;
#BGCHANGES:;
#FGCHANGES:;

//--------------- dance-single - ----------------
#NOTES:
     dance-single:
     :
     Beginner:
     3:
     0,0,0,0,0:
0000
0000
0000
0000
,
1001
0000
0001
0000
,
0000
1000
1000
0000
,
0001
0000
0100
0000
,
0000
0010
0010
0000
,
1000
0000
0001
0000
,
0000
1000
1000
0000
,
0001
0000
0100
0000
,
0010
0010
0010
0000
,
1001
0000
0000
0000
,
1000
0000
0000
0000
,
0001
0000
0000
0000
,
0100
0000
0000
0000
,
0010
0000
0000
0000
,
1000
0000
0000
0000
,
0001
0000
0000
0000
,
1000
0000
0000
0000
,
1000
0000
0000
0000
,
0001
0000
0000
0000
,
1000
0000
0000
0000
,
0001
0000
0100
0000
,
0010
0000
0000
0000
,
1000
0000
0000
0000
,
0001
0000
0000
0000
,
1000
1000
1000
0000
,
0001
0000
0001
0000
,
1000
0000
1000
0000
,
0010
0000
0010
0000
,
0100
0000
0100
0000
,
1001
0000
0000
0000
,
1001
0000
0000
0000
,
1001
0000
0000
0000
,
1000
0000
0001
0000
,
0100
0000
0000
0000
,
0110
0000
0000
0000
,
0110
0000
0000
0000
,
0010
0000
1000
0000
,
0010
0000
0000
0000
,
1001
0000
0000
0000
,
1001
0000
0000
0000
,
1000
0000
0001
0000
,
0100
0000
0000
0000
,
0110
0000
0000
0000
,
1001
0000
0000
0000
,
1000
0000
0001
0000
,
0100
0000
0000
0000
,
0001
0000
0000
0000
,
1000
0000
0000
0000
,
0010
0000
0000
0000
,
1000
0000
0000
0000
,
0001
0000
0000
0000
,
0100
0000
0010
0000
,
1000
1000
1000
0000
,
0001
0000
1000
0000
,
0010
0000
0100
0000
,
0001
0000
1000
0000
,
0010
0000
1000
0000
,
0001
0000
0000
0000
,
1001
0000
0000
0000
,
1001
0000
0000
0000
,
1001
0000
0000
0000
,
0010
0000
0010
0000
,
0010
0000
0000
0000
,
0110
0000
0000
0000
,
1001
0000
0000
0000
,
1000
0000
0001
0000
,
1000
0000
0000
0000
,
1001
0000
0000
0000
,
1001
0000
0000
0000
,
0001
0000
0100
0000
,
0010
0000
0000
0000
,
1001
0000
0000
0000
,
1001
0000
0000
0000
,
1000
0000
0001
0000
,
0100
0000
0000
0000
,
0001
0000
0000
0000
,
1000
0000
0000
0000
,
0001
0000
0000
0000
,
1000
0000
0000
0000
,
0001
0000
0000
0000
;

//--------------- dance-single - ----------------
#NOTES:
     dance-single:
     :
     Easy:
     5:
     0,0,0,0,0:
0000
0000
0000
0000
,
1001
0000
1000
0000
,
0000
0001
1000
0001
,
0100
0010
0100
0000
,
0000
0001
1000
0001
,
0100
0010
0100
0000
,
0000
0001
0001
1000
,
0010
1000
0001
0000
,
1000
1000
1000
0000
,
1001
0000
0001
0000
,
0100
0000
0010
0000
,
1000
0000
0001
0000
,
1000
0001
1000
0000
,
0001
0000
0100
0000
,
0010
0000
1000
0000
,
0001
0000
1000
0000
,
0001
0100
0001
0000
,
1001
0000
0000
0000
,
1000
0001
1000
0000
,
0010
0100
0001
0000
,
1000
0000
0001
0100
,
0010
1000
0001
0000
,
0100
0100
0100
0000
,
0010
1000
0001
0000
,
0100
0100
0100
0000
,
0001
0000
0001
0000
,
1000
0000
1000
0000
,
0010
0000
0010
0000
,
0100
0100
0100
0000
,
0001
1000
0001
1000
,
0010
1000
0100
1000
,
0001
0010
0001
0100
,
0010
0000
1000
0000
,
0001
1000
0001
1000
,
0010
1000
0100
1000
,
0001
0010
0001
0100
,
0001
0000
0001
0000
,
0001
1000
0001
1000
,
0010
0100
0010
0100
,
0001
1000
0001
1000
,
0001
0000
0100
0000
,
0010
1000
0010
1000
,
0100
1000
0001
1000
,
0010
0100
0001
1000
,
0100
0000
1000
0000
,
1001
0000
0000
0000
,
0001
1000
0001
0000
,
0100
0100
0100
0000
,
0010
0000
1000
0000
,
0001
1000
0001
0000
,
0100
0010
0100
0000
,
0001
1000
0001
0000
,
1000
0001
1000
0000
,
0001
0000
1000
0000
,
0010
0000
1000
0000
,
0001
0000
1000
0000
,
0001
1000
0001
0000
,
1000
0100
1000
0000
,
0001
0100
0001
0100
,
0010
1000
0010
1000
,
0001
0010
0001
0010
,
0100
0000
1000
0000
,
0100
1000
0100
1000
,
0001
1000
0010
1000
,
0001
0010
0001
0100
,
0010
0000
1000
0000
,
0001
1000
0010
1000
,
0001
0100
0010
0100
,
0001
0010
0001
0010
,
0001
0000
0001
0000
,
0001
0010
0001
0010
,
0001
0100
0001
0100
,
0010
1000
0100
1000
,
0001
0000
1000
0000
,
0001
1000
0000
0000
,
0001
1000
0000
0000
,
0010
0100
0000
0000
,
0001
0000
1000
0000
,
0001
0000
0000
1000
0000
0000
0000
0000
,
0010
0000
0000
1000
0000
0000
0000
0000
;

//--------------- dance-single - ----------------
#NOTES:
     dance-single:
     :
     Medium:
     13:
     0,0,0,0,0:
0000
0000
0000
0000
,
0001
1000
0001
1000
0010
1000
0001
0100
,
0000
0010
1000
0001
0010
0001
0100
0010
,
1000
0100
0010
0001
0100
0010
1000
0001
,
0000
0100
0001
0010
0001
0100
0010
1000
,
0100
1000
0001
0100
0010
0100
0001
1000
,
0000
0001
0100
0001
0100
0010
1000
0100
,
1000
0001
0010
0001
0100
0010
1000
0001
,
1001
1010
1001
1000
,
0001
0000
0000
0100
0000
0010
0000
0100
0000
0000
0001
0000
1000
0000
0000
0000
,
0010
0000
0000
0100
0000
0001
0000
0100
0000
0000
0010
0000
1000
0000
0000
0000
,
0001
0000
0000
1000
0000
0010
0000
1000
0000
0000
0010
0000
0100
0000
0000
0000
,
0010
0000
0000
1000
0000
0001
0000
1000
0000
0010
0000
0000
0100
0000
0001
0000
,
1000
0000
0000
0010
0000
0100
0000
0001
0000
0000
1000
0000
0100
0000
0010
0000
,
0001
0000
0000
1000
0000
0010
0000
0100
0000
0000
0001
0000
1000
0000
0010
0000
,
1000
0000
0000
0001
0000
0100
0000
0010
0000
0000
0100
0000
0001
0000
1000
0000
,
1001
0000
1010
0000
1001
0000
0001
0100
,
0010
0000
1000
0000
0100
0000
0000
1000
0000
0000
0001
0000
0100
0000
0000
0000
,
0010
0000
1000
0000
0100
0000
0000
1000
0000
0000
0001
0000
0001
0000
0000
0000
,
0100
0000
0010
0000
1000
0000
0000
0001
0000
0000
0100
0000
0010
0000
1000
0000
,
0010
0000
0000
0010
0000
0000
0100
0000
0001
0000
0100
0000
0010
0000
1000
0000
,
0100
0000
1000
0000
0001
0000
0000
1000
0000
0000
0010
0000
1000
0000
0000
0000
,
0001
0000
0100
0000
0001
0000
0000
0010
0000
0000
0001
0000
0100
0000
0000
0000
,
0010
0000
1000
0000
0100
0000
0000
0100
0000
0000
0100
0000
0010
0000
0001
0000
,
0101
0110
0101
0100
,
0010
1000
0010
0000
0100
0001
0100
0000
,
0010
1000
0000
0010
1000
0000
0001
0000
1000
0001
0000
1000
0001
0000
0100
0000
,
0001
1000
0000
0001
1000
0000
0010
0000
0100
0000
0010
0000
1000
0000
0001
0000
,
1000
0010
2000
0000
3001
1000
0010
1000
,
0001
0000
0100
0000
0002
0000
0000
0000
1003
0000
0001
0000
0000
1000
0000
0001
,
0000
0000
0100
0000
0020
0000
0000
0000
1030
0000
0100
0000
0000
0010
0000
0001
,
0000
0000
0100
0000
0200
0000
0000
0000
0310
0000
0010
0000
0000
1000
0000
0001
,
0000
1000
0010
0000
0100
0001
0100
0010
,
1000
0000
0001
0000
2000
0000
0000
0000
3010
0000
0100
0000
0000
0001
0000
0001
,
0000
0000
1000
0000
0020
0000
0000
0000
0130
0000
0001
0000
0000
0100
0000
0010
,
0000
0000
0100
0000
0020
0000
0000
0000
0130
0000
0010
0000
0000
0100
0000
0000
,
0001
1000
0100
0000
1000
0001
0100
0010
,
1000
0000
0100
0000
2000
0000
0000
0000
3001
0000
0100
0000
0000
0010
0000
1000
,
0000
0000
0001
0000
0200
0000
0000
0000
0310
0000
1000
0000
0000
0010
0000
0100
,
0000
0000
0010
0000
2000
0000
0000
0000
3001
0000
0001
0000
0000
1000
0000
1000
,
0000
1000
0020
0000
0130
0001
0010
0100
,
1000
0000
0010
0000
0200
0000
0000
0000
0301
0000
1000
0000
0000
0010
0000
0010
,
0000
0000
0100
0000
0002
0000
0000
0000
1003
0000
0010
0000
0000
0100
0000
0000
,
0101
0100
0010
0000
1001
0000
1000
0000
,
0001
0100
0001
0100
0010
1000
0100
1000
,
0001
0000
0100
0000
0001
0000
0000
1000
0000
0000
0010
0000
0100
0000
0000
0000
,
0001
0000
1000
0000
0100
0000
0000
1000
0000
0000
0001
0000
0100
0000
0000
0000
,
0010
0000
1000
0000
0100
0000
0000
1000
0000
0000
0001
0000
0100
0000
0000
0000
,
0010
0000
0000
1000
0000
0000
0001
0000
1000
0000
0000
0000
0001
0000
0000
0000
,
0100
0000
0010
0000
0100
0000
0000
0001
0000
0000
0100
0000
0010
0000
0000
0000
,
1000
0000
0100
0000
1000
0000
0000
0001
0000
0000
0100
0000
0010
0000
0000
0000
,
1001
0000
1000
0000
0001
0100
0001
0100
,
0010
1000
0100
1000
0001
0100
0010
0100
,
0001
1000
0100
0000
1000
0001
1000
0000
,
0001
1000
0000
0001
1000
0000
0001
0000
1000
0001
0000
1000
0001
0000
0100
0000
,
0010
1000
0010
0000
0100
0001
0100
0000
,
0010
1000
0100
1000
0001
0100
0010
1000
,
0100
0010
0001
0100
0010
1000
0001
1000
,
0010
0000
1000
0000
0002
0000
0000
0000
1003
0010
1000
0000
0000
0001
0000
0001
,
0000
0000
1000
0000
0010
0000
0000
0000
0100
0001
0100
0000
0000
0001
0000
1000
,
0000
0000
0001
0000
0100
0000
0000
0000
0010
0100
0010
0000
0000
0100
0000
0000
,
1001
0001
0101
0100
,
0010
0000
1000
0000
0010
0000
0000
0000
1000
0010
1000
0000
0000
0001
0000
0000
,
0001
0000
1000
0000
0001
0000
0000
0000
0100
0010
0100
0000
0000
0010
0000
0000
,
1000
0000
0001
0000
1000
0000
0000
0000
0010
0100
0010
0000
0000
1000
0000
0000
,
0101
0000
0100
0000
1001
0000
0001
1000
,
0010
0000
0010
0000
2000
0000
0000
0000
3001
0000
0100
0000
0000
0010
0000
1000
,
0000
0000
0001
0000
0200
0000
0000
0000
0310
0000
1000
0000
0000
0001
0000
0100
,
0000
0000
0010
0000
0100
0000
0000
0000
0001
0000
0100
0000
0000
0010
0000
0000
,
1000
0100
1000
0001
1000
0010
0100
0001
,
1000
0000
0010
0000
1000
0000
0000
0000
0001
0000
0100
0000
0000
0001
0000
0001
,
0000
0000
1000
0000
0010
0000
0000
0000
0100
0000
0001
0000
0000
0100
0000
0000
,
0010
1000
0010
0100
0001
1000
0100
0010
,
0001
0100
0010
0100
0001
0010
0001
0100
,
0010
0000
0100
0000
0001
0000
0000
0100
0000
0000
0010
0000
0100
0000
0100
0000
,
0001
0000
1000
0000
0010
0000
0000
1000
0000
0000
0001
0000
0100
0000
0001
0000
,
0010
0000
0100
0000
0010
0000
0000
0001
0000
0000
0100
0000
0010
0000
1000
0000
,
0010
0000
0000
1000
0000
0000
0010
0000
0100
0000
0001
0000
0010
0000
0001
0000
,
0100
0000
0000
0010
0000
0000
1000
0000
0000
0000
0001
0000
0100
0000
0001
0000
,
1100
0000
0000
1100
0000
0000
1100
0000
0000
0000
0000
0000
0000
0000
0000
0000
;

//--------------- dance-single - ----------------
#NOTES:
     dance-single:
     :
     Hard:
     18:
     0,0,0,0,0:
0000
0000
0000
0000
,
1001
1000
0001
0001
0100
0010
1000
1000
,
0010
0100
0010
0000
1000
0000
0010
0000
0100
0000
0100
0000
0001
0000
0010
0000
,
0100
0100
1000
0010
0100
0100
0001
1000
,
0100
1000
0100
0000
0010
0000
0001
0000
0100
0000
0100
0000
0010
0000
1000
0000
,
0100
0100
0010
0001
0100
0001
0010
0100
,
1000
0001
1000
0000
0010
0000
0100
0000
0001
0000
0001
0000
0100
0000
0010
0000
,
1000
0100
0010
0010
1000
0010
0100
0100
,
0101
0000
0001
0000
0011
0000
0001
0000
0100
0010
0100
0010
0100
0000
0001
0000
,
1000
0000
0001
1000
0000
0010
0000
0100
0000
0001
1000
0000
0010
0000
0100
0000
,
0001
0000
0100
0010
0000
1000
0000
0100
0000
0010
0001
0000
0100
0000
0010
0000
,
1000
0000
0001
0100
0000
0010
0000
1000
0000
0001
0100
0000
0010
0000
1000
0000
,
0100
0000
0010
0001
0000
0100
0000
0010
0000
1000
0000
0001
1000
0000
0010
0000
,
0010
0000
0100
0001
0000
0100
0000
0010
0000
0100
0001
0000
0100
0000
0010
0000
,
1000
0000
0100
1000
0000
0001
0000
1000
0000
0100
1000
0000
0001
0000
1000
0000
,
0010
0000
0100
0001
0000
0100
0000
0010
0000
1000
0001
0000
1000
0000
0010
0000
,
1000
0100
0010
0001
0100
0010
1000
0100
0010
0001
0100
0010
1000
0001
1000
0010
,
0100
0000
0010
0000
0100
0010
0000
1000
0000
0100
0010
0000
0001
0000
0100
0000
,
0101
0000
0001
0000
1000
0100
0000
1000
0000
0100
1000
0000
0010
0000
0010
0000
,
0100
0000
0001
0000
0100
0010
0000
0100
0000
0010
0100
0000
0001
0000
0100
0000
,
0101
0000
0000
0110
0000
0000
1010
0000
1000
0100
0010
0001
0100
0010
1000
0100
,
0010
0000
0001
0000
0010
0100
0000
1000
0000
0100
0010
0000
0001
0000
0100
0000
,
0010
0000
1000
0000
0100
1000
0000
0100
0000
0010
0001
0000
0010
0000
0100
0000
,
1000
0100
1000
0010
0100
0001
0010
0001
1000
0010
0100
0010
1000
0100
0010
0001
,
0100
0010
1000
0100
0010
0001
0100
0010
1000
0010
0100
0001
0010
0001
1000
0010
,
0100
0001
0100
0010
1000
0100
0010
0000
0001
0100
0001
0010
0100
1000
0001
0000
,
1000
0100
0000
0100
0010
0000
0001
0000
0010
0100
0000
0100
1000
0000
0001
0000
,
1000
0100
0000
0010
0001
0000
0001
0000
0010
0100
0010
0100
1000
0000
0001
0000
,
0010
0001
0100
0010
1000
0100
0010
0100
1000
0001
0100
0010
0100
0001
1000
0010
,
1000
0100
0010
0001
0100
0010
0000
1000
0001
1000
0001
0000
0100
0010
0000
0010
,
1000
0001
1000
0000
0010
0100
0000
0001
0100
0010
1000
0000
0100
0010
0001
0100
,
0010
1000
0001
0000
0100
0010
0000
0100
0001
1000
0001
0000
0100
0010
0000
1000
,
0001
0100
0010
1000
0001
0010
0000
0001
0100
0000
0100
0000
0001
1000
0001
1000
,
0001
0100
0001
1000
0100
1000
0000
0001
1000
0100
1000
0000
0001
0100
0000
0001
,
0100
0010
0100
0001
1000
0100
0000
0010
0001
0100
0010
0000
1000
0001
0000
1000
,
0001
1000
0010
0000
0100
0001
0000
0100
0010
1000
0100
0000
0010
0001
0000
0100
,
0010
1000
0001
1000
0010
0100
0000
0001
0100
0000
0010
0000
1000
0001
1000
0001
,
1000
0010
0100
0001
1000
0100
0000
0010
0100
1000
0010
0000
0100
0001
0000
0100
,
0010
1000
0100
0010
0001
0100
0000
0010
1000
0001
0100
0000
0010
1000
0000
0100
,
0010
0001
1000
0010
0100
0001
0000
1000
0100
0010
0001
0000
1000
0010
0000
0100
,
0001
0000
1000
0000
0001
0000
0000
1000
0010
0000
1000
0000
0001
0100
0001
0010
,
0001
0100
0010
1000
0100
0010
0000
0001
0100
0010
1000
0000
0001
0100
0000
0100
,
0010
1000
0100
1000
0010
1000
0000
0100
0010
0001
0100
0000
0010
1000
0000
0100
,
0010
1000
0001
0100
0001
1000
0000
0001
1000
0100
1000
0000
0001
0100
0000
0001
,
0100
0010
1000
0001
0010
0100
1000
0010
0100
0001
1000
0100
0010
0001
1000
0001
,
1000
0000
0001
0000
1000
0001
0000
0100
0000
0001
0010
0000
0100
0000
1000
0000
,
0001
0000
0100
0000
0010
1000
0000
0001
0000
0010
0100
0000
1000
0000
0010
0000
,
0100
0000
0001
0000
1000
0100
0000
0010
0000
0001
0100
0000
0010
0000
1000
0000
,
1010
0000
0000
0110
0000
0000
1001
0000
1000
0010
1000
0100
0010
0001
0100
0010
,
1000
0000
0100
0000
1000
0001
0000
0100
0000
0010
1000
0000
0001
0000
0010
0000
,
0001
0000
1000
0000
0010
0100
0000
0001
0000
1000
0100
0000
0010
0000
0001
0000
,
0100
0010
0100
0010
1000
0100
0010
0001
0100
0010
0100
0001
1000
0100
0010
0001
,
0100
0010
1000
0100
0010
0001
0100
0010
0100
0001
0010
0100
0010
0001
1000
0001
,
0010
0001
1000
0001
0100
0010
1000
0000
0001
0100
0001
0100
0001
0100
0001
0000
,
1000
0010
0000
0010
0100
0000
0001
0000
1000
0100
0000
1000
0010
0000
1000
0000
,
0010
1000
0000
1000
0100
0000
0010
0000
0001
0010
0100
1000
0100
0000
0010
0000
,
0100
1000
0010
0100
0001
1000
0100
0010
0100
1000
0001
0100
0010
0100
0001
1000
,
0000
0001
1000
0000
0010
0100
0000
0001
1000
0000
0010
0000
1000
0000
0001
0000
,
0100
0010
0100
0001
1000
0100
0000
0010
0001
0100
0010
0000
1000
0001
0000
1000
,
0010
0100
0001
0010
0001
1000
0000
0010
0100
0001
1000
0000
0100
0010
0000
0001
,
0100
0010
1000
0100
1000
0001
0000
1000
0100
0010
0001
0000
1000
0010
0000
1000
,
0010
0100
0001
0010
0001
0100
0000
0010
0100
0000
0001
0000
0100
0010
1000
0010
,
0100
0001
0010
0001
1000
0100
0000
0010
0001
0100
0010
0000
1000
0001
0000
0001
,
0010
0100
0010
0001
0100
0010
0000
1000
0001
0010
0001
0000
0100
0010
0000
1000
,
0001
0100
0010
0100
0001
0010
0000
0100
1000
0010
0100
0000
0001
1000
0000
0001
,
1000
0000
0010
0000
1000
0001
0000
1000
0010
0000
0100
0000
0001
0010
0001
1000
,
0001
0100
0010
1000
0100
0010
0001
0100
0010
1000
0010
0100
0001
0010
0100
1000
,
0001
0010
0001
1000
0010
0100
0001
0010
0100
1000
0010
0100
0001
1000
0100
0010
,
0001
0100
0010
1000
0001
0010
0100
1000
0010
0100
0001
0010
0001
1000
0100
0010
,
0001
0100
0010
1000
0001
0010
0100
1000
0010
0100
0001
0010
0001
1000
0100
0010
,
0001
0100
0010
1000
0001
0010
0100
1000
0010
0100
0001
0010
0001
1000
0100
0010
,
0001
0100
0010
1000
0001
0010
0100
1000
0010
0100
0001
0010
0001
1000
0100
0010
,
0001
0100
0010
1000
0001
0010
0100
1000
0010
0100
0001
0010
0001
1000
0100
0010
,
0001
0100
0010
1000
0001
0010
0100
1000
0010
0100
0001
0010
0001
1000
0100
0010
,
0001
0000
1000
0000
0001
1000
0000
0010
0000
0100
0001
0000
1000
0000
0100
0000
,
0010
0000
0100
0000
1000
0001
0000
0100
0000
0010
1000
0000
0001
0000
0100
0000
,
0001
0000
1000
0000
0010
0100
0000
0001
0000
0010
0100
0000
0010
0000
0100
0000
,
0010
0000
0000
0100
0000
0000
0010
0000
0001
0000
0100
0000
0010
0000
1000
0000
,
0001
0000
0000
0001
0000
0000
0010
0000
0000
0000
0100
0000
0010
0000
0001
0000
,
1000
0000
0000
0001
0000
0000
1001
0000
0000
0000
0000
0000
0000
0000
0000
0000
;

//--------------- dance-single - ----------------
#NOTES:
     dance-single:
     :
     Challenge:
     19:
     1.319553,1.186021,0.036223,0,2.033017,1020,1016,4,0,6,0,1.319553,1.186021,0.036223,0,2.033017,1020,1016,4,0,6,0:
MMM0
MM00
00M0
0000
,
1001
1000
0001
0001
0100
0010
1000
1000
,
0010
0100
0010
0000
1000
0000
0010
0000
0100
0000
0100
0000
0001
0000
0010
0000
,
0100
0100
1000
0010
0100
0100
0001
1000
,
0100
1000
0100
0000
0010
0000
0001
0000
0100
0000
0100
0000
0010
0000
1000
0000
,
0100
0100
0010
0001
0100
0001
0010
0100
,
1000
0001
1000
0000
0010
0000
0100
0000
0001
0000
0001
0000
0100
0000
0010
0000
,
1000
0100
0010
0010
1000
0010
0100
0100
,
0101
0000
0001
0000
0011
0000
0001
0000
0100
0010
0100
0010
0100
0000
0001
0000
,
1000
0010
0100
0001
1000
0010
0100
0010
1000
0010
0100
0001
0010
0100
1000
0001
,
0100
0010
1000
0100
0010
0001
0100
0001
1000
0001
0100
0010
1000
0100
0010
0001
,
1000
0010
0100
0001
0100
0010
0100
0001
0100
0010
1000
0100
0010
0001
0100
0010
,
0100
0001
0010
0100
1000
0001
0100
0010
0100
0001
1000
0100
0010
0001
1000
0010
,
0100
0010
1000
0100
1000
0001
0100
0010
0100
0001
1000
0100
0010
0100
1000
0010
,
0100
0001
1000
0100
0010
0100
1000
0001
0100
0010
0100
0001
1000
0100
0010
0001
,
0100
0010
1000
0100
0010
0001
0100
0010
1000
0100
0010
0001
1000
0100
0010
0001
,
1000
0100
0010
0001
0100
0010
1000
0100
0010
0001
0100
0010
1000
0001
1000
0010
,
0100
0000
0010
0000
0100
0010
0000
1000
0000
0100
0010
0000
0001
0000
0100
0000
,
0101
0000
0001
0000
1000
0100
0000
1000
0000
0100
1000
0000
0010
0000
0010
0000
,
0100
0000
0001
0000
0100
0010
0000
0100
0000
0010
0100
0000
0001
0000
0100
0000
,
0101
0000
0000
0110
0000
0000
1010
0000
1000
0100
0010
0001
0100
0010
1000
0100
,
0010
0000
0001
0000
0010
0100
0000
1000
0000
0100
0010
0000
0001
0000
0100
0000
,
0010
0000
1000
0000
0100
1000
0000
0100
0000
0010
0001
0000
0010
0000
0100
0000
,
1000
0100
1000
0010
0100
0001
0010
0001
1000
0010
0100
0010
1000
0100
0010
0001
,
0100
0010
1000
0100
0010
0001
0100
0010
1000
0010
0100
0001
0010
0001
1000
0010
,
0100
0001
0100
0010
1000
0100
0010
0000
0001
0100
0001
0010
0100
1000
0001
0000
,
1000
0100
0000
0100
0010
0000
0001
0000
0010
0100
0000
0100
1000
0000
0001
0000
,
1000
0100
0000
0010
0001
0000
0001
0000
0010
0100
0010
0100
1000
0000
0001
0000
,
0010
0001
0100
0010
1000
0100
0010
0100
1000
0001
0100
0010
0100
0001
1000
0010
,
0100
0010
1000
0100
0010
0001
0100
0010
1000
0001
0100
0010
1000
0001
0010
0001
,
1000
0010
0100
0001
0010
0001
1000
0100
0010
0001
0100
0010
1000
0001
0100
0010
,
0100
0001
0010
0001
1000
0010
0100
0001
0010
0001
1000
0100
0010
0001
0100
0010
,
0100
0001
0010
0100
0010
0001
0100
0010
0100
0001
1000
0100
0010
0001
1000
0010
,
0100
0001
0010
0001
1000
0100
0010
0001
0010
0100
0010
0001
0100
0010
1000
0001
,
0100
0010
1000
0100
0010
0001
0100
0010
1000
0001
0010
0100
0010
0001
1000
0010
,
0100
0001
0010
0001
1000
0100
0010
0001
1000
0010
0100
0001
0010
0100
0010
0001
,
1000
0010
0100
0001
1000
0010
1000
0001
0010
0001
0100
0010
1000
0100
0010
0001
,
1000
0010
0100
0001
0100
0010
1000
0100
0010
0001
0100
0010
0100
0001
0010
0100
,
0010
0001
0100
0010
0100
0001
0010
0001
1000
0100
0010
0001
0100
0010
0100
0001
,
1000
0100
0010
0001
0100
0010
1000
0001
0100
0010
1000
0100
0010
0001
0100
0010
,
0100
0001
0010
0001
1000
0010
0100
0001
0010
0100
0010
0001
0100
0010
0100
0001
,
0010
0001
0100
0010
0100
0001
1000
0010
0100
0010
1000
0001
0010
0001
0100
0001
,
0010
0001
1000
0100
0010
0001
1000
0010
0100
0001
0010
0001
1000
0100
0010
0001
,
0100
0010
0100
0001
0010
0001
1000
0100
0010
0001
0100
0010
1000
0100
0010
0001
,
0100
0010
1000
0001
0100
0010
1000
0001
1000
0010
1000
0001
0010
0001
0100
0010
,
1000
0000
1000
0000
0001
1000
0000
0100
0000
1000
0010
0000
0100
0000
0001
0000
,
1000
0000
0100
0000
0010
0001
0000
1000
0000
0010
0100
0000
0001
0000
0010
0000
,
0100
0000
1000
0000
0001
0100
0000
0010
0000
1000
0100
0000
0010
0000
0001
0000
,
0011
0000
0000
0110
0000
0000
1001
0000
0100
0010
0001
0100
0010
1000
0100
0010
,
0001
0000
0100
0000
0001
1000
0000
0100
0000
0010
0001
0000
1000
0000
0010
0000
,
1000
0000
0001
0000
0010
0100
0000
1000
0000
0001
0100
0000
0010
0000
1000
0000
,
0100
0010
0100
0010
0001
0100
0010
1000
0100
0010
0100
1000
0001
0100
0010
1000
,
0100
0010
0001
0100
0010
1000
0100
0010
0100
1000
0010
0100
0010
1000
0001
1000
,
0010
1000
0001
1000
0100
0010
0001
0000
1000
0100
1000
0100
1000
0100
1000
0000
,
0001
0010
0000
0010
0100
0000
1000
0000
0001
0100
0000
0001
0010
0000
0001
0000
,
0010
0001
0000
0001
0100
0000
0010
0000
1000
0010
0100
0001
0100
0000
0010
0000
,
0100
0001
0010
0100
1000
0001
0100
0010
0100
0001
1000
0100
0010
0100
1000
0001
,
0100
0010
1000
0100
0010
0100
1000
0010
1000
0001
0010
0100
1000
0010
1000
0010
,
0100
0001
1000
0100
0010
0001
0100
0010
0100
0001
1000
0100
0010
0001
0100
0010
,
1000
0100
0010
0001
0100
0010
0100
0001
1000
0010
0100
0001
1000
0100
0010
0001
,
0100
0010
1000
0100
0010
0001
0100
0001
1000
0100
0010
0100
1000
0100
0010
0001
,
0100
0010
0100
0001
1000
0100
0010
0001
0100
0010
1000
0100
0010
0001
0100
0010
,
1000
0001
0010
0100
0010
0001
0100
0001
1000
0100
0010
0001
0100
0010
0100
0001
,
1000
0010
1000
0100
0010
0001
0100
0001
1000
0100
1000
0010
0100
0001
0010
0001
,
1000
0010
0100
0010
1000
0100
0010
0001
0100
0001
0010
0001
1000
0100
0010
0001
,
0100
0010
0100
0001
1000
0100
0010
0001
1000
0010
1000
0001
1000
0100
0010
0100
,
1000
0100
0010
0001
0010
0100
1000
0100
0010
0001
0100
0010
1000
0100
0010
0001
,
0100
0001
0010
0100
1000
0100
0010
0001
1000
0100
0010
0001
0100
0010
1000
0100
,
1000
0001
0010
0001
1000
0010
1000
0001
0100
0010
1000
0100
0010
0100
1000
0010
,
1000
0001
0010
0100
1000
0010
1000
0100
0010
0001
0100
0010
1000
0100
0010
0100
,
1000
0001
0010
0100
1000
0001
0100
0010
1000
0100
0010
0001
1000
0010
0100
0001
,
1000
0010
0100
0001
1000
0100
0010
0001
0100
0010
0100
0001
1000
0100
0010
0001
,
0100
0010
1000
0100
1000
0100
0010
0001
0100
0010
1000
0100
0010
0001
0100
0010
,
1000
0010
0100
0001
0010
0100
1000
0001
0100
0001
0010
0100
1000
0100
0010
0001
,
1000
0000
0001
0000
1000
0001
0000
0010
0000
0100
1000
0000
0001
0000
0100
0000
,
0010
0000
0100
0000
0001
1000
0000
0100
0000
0010
0001
0000
1000
0000
0100
0000
,
1000
0000
0001
0000
0010
0100
0000
1000
0000
0010
0100
0000
0010
0000
0100
0000
,
0010
0000
0000
0100
0000
0000
0010
0000
1000
0000
0100
0000
0010
0000
0001
0000
,
1000
0000
0000
1000
0000
0000
0010
0000
0000
0000
0100
0000
0010
0000
1000
0000
,
0001
0000
0000
1000
0000
0000
1001
0000
0000
0000
0000
0000
0000
0000
0000
0000
;

//--------------- dance-single - ----------------
#NOTES:
     dance-single:
     :
     Edit:
     20:
     1.419166,1.329781,0.588624,0,2.105463,1097,1032,65,0,6,0,1.419166,1.329781,0.588624,0,2.105463,1097,1032,65,0,6,0:
MMM0
MM00
00M0
0000
,
1001
1000
0001
0001
0100
0010
1000
1000
,
0010
0100
0010
0000
1000
0000
0010
0000
0100
0000
0100
0000
0001
0000
0010
0000
,
0100
0100
1000
0010
0100
0100
0001
1000
,
0100
1000
0100
0000
0010
0000
0001
0000
0100
0000
0100
0000
0010
0000
1000
0000
,
0100
0100
0010
0001
0100
0001
0010
0100
,
1000
0001
1000
0000
0010
0000
0100
0000
0001
0000
0001
0000
0100
0000
0010
0000
,
1000
0100
0010
0010
1000
0010
0100
0100
,
0101
0000
0001
0000
0011
0000
0001
0000
0100
0010
0100
0010
0100
0000
0001
0000
,
1000
0010
0100
0001
1000
0010
0100
0010
1000
0010
0100
0001
0010
0100
1000
0001
,
0100
0010
1000
0100
0010
0001
0100
0001
1000
0001
0100
0010
1000
0100
0010
0001
,
1000
0010
0100
0001
0100
0010
0100
0001
0100
0010
1000
0100
0010
0001
0100
0010
,
0100
0001
0010
0100
1000
0001
0100
0010
0100
0001
1000
0100
0010
0001
1000
0010
,
0100
0010
1000
0100
1000
0001
0100
0010
0100
0001
1000
0100
0010
0100
1000
0010
,
0100
0001
1000
0100
0010
0100
1000
0001
0100
0010
0100
0001
1000
0100
0010
0001
,
0100
0010
1000
0100
0010
0001
0100
0010
1000
0100
0010
0001
1000
0100
0010
0001
,
1000
0000
0000
0100
0000
0000
0010
0000
0000
0001
0000
0000
0100
0000
0000
0010
0000
0000
1000
0000
0000
0100
0000
0000
0010
0000
0001
0000
0100
0000
0010
0000
1000
0000
0001
0000
1000
0000
0100
0000
0010
0000
0001
0000
0100
0000
0010
0000
,
1000
0000
0010
0000
0100
0010
0000
0100
0000
1000
0100
0000
0010
0000
0001
0000
,
0011
0000
0100
0000
1000
0100
0000
1000
0000
0100
1000
0000
0010
0000
0010
0000
,
0100
0000
0001
0000
0100
0010
0000
0100
0000
0010
0100
0000
0001
0000
0100
0000
,
0101
0000
0000
0110
0000
0000
1010
0000
1000
0100
0010
0001
0100
0010
1000
0100
,
0010
0000
0001
0000
0010
0100
0000
1000
0000
0100
0010
0000
0001
0000
0100
0000
,
0010
0000
1000
0000
0100
1000
0000
0100
0000
0010
0001
0000
0010
0000
0100
0000
,
1000
0100
1000
0010
0100
0001
0010
0001
1000
0010
0100
0010
1000
0100
0010
0001
,
0100
0000
0000
0010
0000
0000
1000
0000
0000
0100
0000
0000
0010
0000
0000
0001
0000
0000
0100
0000
0000
0010
0000
0000
1000
0000
0010
0000
0100
0000
0001
0000
0100
0000
0010
0000
1000
0000
0100
0000
0010
0000
0100
0000
1000
0000
0001
0000
,
1000
0100
0001
0100
0010
1000
0010
0000
0100
0001
0100
0001
0010
0100
1000
0000
,
1000
0100
0000
0100
0010
0000
0001
0000
0010
0100
0000
0100
1000
0000
0001
0000
,
1000
0100
0000
0010
0001
0000
0001
0000
0010
0100
0010
0100
1000
0000
0001
0000
,
0010
0001
0100
0010
1000
0100
0010
0100
1000
0001
0100
0010
0100
0001
1000
0010
,
0100
0010
1000
0100
0010
0001
0100
0010
1000
0001
0100
0010
1000
0001
0010
0001
,
1000
0010
0100
0001
0010
0001
1000
0100
0010
0001
0100
0010
1000
0001
0100
0010
,
0100
0001
0010
0001
1000
0010
0100
0001
0010
0001
1000
0100
0010
0001
0100
0010
,
0100
0001
0010
0100
0010
0001
0100
0010
0100
0001
1000
0100
0010
0001
1000
0010
,
0100
0001
0010
0001
1000
0100
0010
0001
0010
0100
0010
0001
0100
0010
1000
0001
,
0100
0010
1000
0100
0010
0001
0100
0010
1000
0001
0010
0100
0010
0001
1000
0010
,
0100
0001
0010
0001
1000
0100
0010
0001
1000
0010
0100
0001
0010
0100
0010
0001
,
1000
0010
0100
0001
1000
0010
1000
0001
0010
0001
0100
0010
1000
0100
0010
0001
,
1000
0010
0100
0001
0100
0010
1000
0100
0010
0001
0100
0010
0100
0001
0010
0100
,
0010
0001
0100
0010
0100
0001
0010
0001
1000
0100
0010
0001
0100
0010
0100
0001
,
1000
0100
0010
0001
0100
0010
1000
0001
0100
0010
1000
0100
0010
0001
0100
0010
,
0100
0001
0010
0001
1000
0010
0100
0001
0010
0100
0010
0001
0100
0010
0100
0001
,
0010
0001
0100
0010
0100
0001
1000
0010
0100
0010
1000
0001
0010
0001
0100
0001
,
0010
0001
1000
0100
0010
0001
1000
0010
0100
0001
0010
0001
1000
0100
0010
0001
,
0100
0010
0100
0001
0010
0001
1000
0100
0010
0001
0100
0010
1000
0100
0010
0001
,
0100
0000
0000
0010
0000
0000
1000
0000
0000
0001
0000
0000
0100
0000
0000
0010
0000
0000
1000
0000
0000
0001
0000
0000
0100
0000
0010
0000
0100
0000
0001
0000
0100
0000
0010
0000
1000
0000
0010
0000
0100
0000
0001
0000
1000
0000
0001
0000
,
1000
0000
1000
0000
0001
1000
0000
0100
0000
1000
0010
0000
0100
0000
0001
0000
,
1000
0000
0100
0000
0010
0001
0000
1000
0000
0010
0100
0000
0001
0000
0010
0000
,
0100
0000
1000
0000
0001
0100
0000
0010
0000
1000
0100
0000
0010
0000
0001
0000
,
0011
0000
0000
0110
0000
0000
1001
0000
0100
0010
0001
0100
0010
1000
0100
0010
,
0001
0000
0100
0000
0001
1000
0000
0100
0000
0010
0001
0000
1000
0000
0010
0000
,
1000
0000
0001
0000
0010
0100
0000
1000
0000
0001
0100
0000
0010
0000
1000
0000
,
0100
0010
0100
0010
0001
0100
0010
1000
0100
0010
0100
1000
0001
0100
0010
1000
,
0100
0000
0000
0010
0000
0000
0001
0000
0000
0100
0000
0000
0010
0000
0000
1000
0000
0000
0100
0000
0000
0010
0000
0000
0001
0000
0100
0000
0010
0000
1000
0000
0100
0000
0010
0000
0100
0000
1000
0000
0001
0000
0100
0000
0010
0000
1000
0000
,
0001
0010
0100
1000
0100
0010
0001
0000
1000
0100
1000
0100
1000
0100
1000
0000
,
0001
0010
0000
0010
0100
0000
1000
0000
0001
0100
0000
0001
0010
0000
0001
0000
,
0010
0100
0000
1000
0100
0000
0010
0000
0001
0010
0100
1000
0100
0000
0010
0000
,
0100
1000
0010
0100
0001
1000
0100
0010
0100
1000
0001
0100
0010
0100
0001
1000
,
0100
0010
0001
0100
0010
0100
0001
0010
0001
1000
0010
0100
0001
0010
0001
0010
,
0100
1000
0001
0100
0010
1000
0100
0010
0100
1000
0001
0100
0010
1000
0100
0010
,
0001
0100
0010
1000
0100
0010
0100
1000
0001
0010
0100
1000
0001
0100
0010
1000
,
0100
0010
0001
0100
0010
1000
0100
1000
0001
0100
0010
0100
0001
0100
0010
1000
,
0100
0010
0100
1000
0001
0100
0010
1000
0100
0010
0001
0100
0010
1000
0100
0010
,
0001
1000
0010
0100
0010
1000
0100
1000
0001
0100
0010
1000
0100
0010
0100
1000
,
0001
0010
0001
0100
0010
1000
0100
1000
0001
0100
0001
0010
0100
1000
0010
1000
,
0001
0010
0100
0010
0001
0100
0010
1000
0100
1000
0010
1000
0001
0100
0010
1000
,
0100
0010
0100
1000
0001
0100
0010
1000
0001
0010
0001
1000
0001
0100
0010
0100
,
0001
0100
0010
1000
0010
0100
0001
0100
0010
1000
0100
0010
0001
0100
0010
1000
,
0100
1000
0010
0100
0001
0100
0010
1000
0001
0100
0010
1000
0100
0010
0001
0100
,
0001
1000
0010
1000
0001
0010
0001
1000
0100
0010
0001
0100
0010
0100
0001
0010
,
0001
1000
0010
0100
0001
0010
0001
0100
0010
1000
0100
0010
0001
0100
0010
0100
,
0001
1000
0010
0100
0001
1000
0100
0010
0001
0100
0010
1000
0001
0010
0100
1000
,
0001
0010
0100
1000
0001
0100
0010
1000
0100
0010
0100
1000
0001
0100
0010
1000
,
0100
0010
0001
0100
0001
0100
0010
1000
0100
0010
0001
0100
0010
1000
0100
0010
,
0001
0010
0100
1000
0100
0010
0001
0100
0010
1000
0010
0100
0001
0100
0010
0100
,
0010
0000
1000
0000
0001
1000
0000
0010
0000
0100
0001
0000
1000
0000
0100
0000
,
0010
0000
0100
0000
1000
0001
0000
0100
0000
0010
1000
0000
0001
0000
0100
0000
,
0001
0000
1000
0000
0010
0100
0000
0001
0000
0010
0100
0000
1000
0000
0010
0000
,
0100
0000
0000
0010
0000
0000
1000
0000
0100
0000
0100
0000
0010
0000
0001
0000
,
1000
0000
0000
1000
0000
0000
0010
0000
0000
0000
0100
0000
0010
0000
1000
0000
,
0001
0000
0000
1000
0000
0000
1001
0000
0000
0000
0000
0000
0000
0000
0000
0000
;
