#TITLE:Half as Much;
#SUBTITLE:;
#ARTIST:Sylver;
#TITLETRANSLIT:;
#SUBTITLETRANSLIT:;
#ARTISTTRANSLIT:;
#GENRE:;
#CREDIT:;
#MUSIC:Half As Much.ogg;
#BANNER:Half as Much.png;
#BACKGROUND:Half as Much-bg.png;
#CDTITLE:;
#SAMPLESTART:0.000;
#SAMPLELENGTH:0.000;
#SELECTABLE:YES;
#OFFSET:-0.388;
#BPMS:0.000=141.000
,38.000=70.500
,39.000=141.000
,69.000=70.500
,70.000=141.000
,92.000=70.500
,93.000=141.000
,95.000=70.500
,96.000=141.000
,104.000=70.500
,106.000=141.000
,117.000=70.500
,119.000=141.000
,125.000=70.500
,127.000=141.000
,155.000=70.500
,157.000=141.000
,178.000=70.500
,179.000=141.000
,181.000=70.500
,182.000=141.000
,190.000=70.500
,192.000=141.000
,204.000=70.500
,206.000=141.000
;
#STOPS:;
#BGCHANGES:;
#FGCHANGES:;

//--------------- dance-single - ----------------
#NOTES:
     dance-single:
     :
     Beginner:
     4:
     0,0,0,0,0:
0000
0000
0000
0000
,
0001
0000
0000
0000
,
0100
0000
0000
0000
,
0010
0000
0000
0000
,
1000
0000
0000
0000
,
0001
0000
0000
0000
,
0100
0000
0000
0000
,
0010
0000
0000
0000
,
1000
0000
0000
0000
,
0001
0000
1000
1000
,
0000
0001
0000
1000
,
0000
0001
0000
0100
,
0000
0100
0000
0010
,
0000
1000
0000
0002
,
0000
0000
0003
1000
,
0000
0000
0000
0001
,
0000
0001
0000
1000
,
0000
1000
1000
0000
,
0001
0000
0001
0000
,
0100
0000
0100
0000
,
0010
0000
1000
0000
,
0001
0000
0200
0000
,
0000
0300
0001
0000
,
1000
1001
0000
0001
,
1000
0000
0001
0000
,
0100
0000
0010
0000
,
1000
0001
0100
0000
,
0010
0000
1000
0000
,
0001
0000
0100
0000
,
0010
0000
0000
0100
0000
0001
0000
0000
,
1001
0000
0001
0000
,
0100
0000
0000
0010
0000
0100
0000
0000
,
0001
0000
1000
0000
,
0100
0000
0010
0000
,
0001
0000
0100
0000
,
0001
0000
0200
0000
,
0000
0300
0010
0000
,
0000
0000
1001
0000
,
1000
0000
0000
0000
0001
0000
0000
1000
,
0000
0001
0000
0000
0100
0000
0000
0000
,
0010
0000
1000
0000
,
0100
0000
0010
0000
,
0010
0000
0100
0000
,
0200
0000
0300
0000
,
1000
0000
0001
1001
,
0000
0100
1001
0000
,
0100
0000
0010
0000
,
1000
0000
0001
0100
,
1001
0000
0100
0000
,
0010
0000
1000
0000
,
0100
0000
0001
0000
,
0100
1000
1010
0000
;

//--------------- dance-single - ----------------
#NOTES:
     dance-single:
     :
     Easy:
     6:
     0,0,0,0,0:
0000
0000
0000
0000
,
0000
0000
0000
0000
,
1000
0000
0001
0000
,
1000
0000
0001
0000
,
0100
0010
0100
0000
,
0001
1000
0010
0000
,
0100
0001
0010
0000
,
0100
1000
0001
0000
,
1001
1000
0001
1000
,
0001
0000
1000
0000
0001
0100
0001
0000
,
1000
0010
0100
0001
,
0000
1000
0000
0010
,
0000
0000
0100
0000
0000
0010
0000
0010
,
0000
1000
0001
2000
,
0000
0000
3000
0010
,
0000
0100
0000
1001
,
0000
1000
0000
0001
,
0000
0000
1000
0010
0100
0000
0001
0000
,
1000
0001
0100
0010
,
1000
0100
0010
0010
,
0001
0100
0010
0010
,
1000
0001
0200
0000
,
0000
0310
0100
0001
,
1000
0010
0100
0000
0001
0000
1000
0010
,
0100
0001
1000
0100
,
0010
0100
1000
0001
,
0100
0010
0100
0001
0100
0000
0010
0000
,
1000
0000
0001
0001
,
1000
1000
0010
0000
,
0100
0000
0001
1000
0010
0100
0001
0000
,
1000
0000
1000
0000
,
0001
0000
1000
0001
0100
0010
1000
0000
,
0000
0001
0000
1000
,
0000
0001
1000
1000
,
0010
0010
1000
1000
,
0010
0010
2000
0000
,
0000
3000
1000
0000
,
0010
0000
1001
0000
,
1000
0000
0000
0000
0010
0000
1000
0010
,
0100
0010
0100
0000
0010
0000
0000
0000
,
1000
0000
0010
0000
,
1000
1000
0010
0010
,
0100
0000
0001
0000
,
2000
0000
0000
3000
,
1000
0000
0000
0000
0001
1000
0001
0000
,
0100
0000
0001
1000
0010
0000
0100
0000
,
0001
1000
0010
0010
,
0100
0000
0010
0000
1000
0001
1000
0010
,
0100
0001
1000
0100
,
0010
0100
1000
0001
,
0100
0010
1000
0100
,
1000
0001
1000
0001
1001
0000
0000
0000
;

//--------------- dance-single - ----------------
#NOTES:
     dance-single:
     :
     Medium:
     9:
     0,0,0,0,0:
0000
0000
0000
0000
,
0000
0000
0000
0000
,
1000
0000
0001
0000
0100
0010
0100
0000
,
0001
0000
1000
0000
0001
0100
0010
0000
,
1000
0000
0100
0000
0010
0100
1000
0000
,
0001
0000
0100
0000
0010
1000
0001
0000
,
0100
0010
1000
0001
,
0100
0010
1000
0001
,
1001
0000
1000
0000
0001
0000
0100
0010
,
0000
0000
1000
0000
0000
0000
0001
0000
1000
0100
1000
0100
1000
0000
0000
0000
,
0010
0100
0001
1000
,
0100
0010
0001
0100
,
0010
1000
0001
0200
0000
0020
0300
0200
,
0330
0010
1000
2002
,
0000
0000
3003
0010
,
1000
0000
0001
0000
0100
0010
1000
0000
,
0001
0000
1000
0000
0001
0100
0000
0010
,
0000
0000
1000
0000
0001
0100
0010
0100
0001
0000
0000
0000
1000
0000
0000
0000
,
0001
0100
0010
1000
,
0100
0010
0001
0100
0010
0000
1000
0000
,
0001
0010
0100
1000
,
0010
1000
2002
0000
,
0000
3003
0110
1000
,
0020
0030
1000
0001
1000
0000
0100
0000
1000
0000
0000
0000
0001
1000
0001
1000
,
0001
0000
0100
0000
0010
0000
1000
0001
,
0100
0010
1000
0100
0000
0010
0000
0001
,
1000
0100
1000
0000
0010
0100
0010
0000
1000
0000
0000
0000
0010
0000
0000
0000
,
0100
0000
0001
1000
0010
0000
0100
0000
,
0001
1000
0010
1000
0001
0001
0000
1000
,
0000
0000
0010
0000
0000
1000
0000
0001
0000
0100
0000
0010
2000
3000
0001
0000
,
1001
0000
1000
0000
0010
0000
0100
0001
,
0000
0000
1000
0000
0000
0001
0000
0100
0000
0010
0000
1000
0000
0000
0001
0000
,
0000
1000
0000
0010
0100
0000
0001
0000
,
1000
0010
0100
0001
,
2000
0000
3001
0100
0000
0000
1010
0000
,
1000
0001
2002
0000
,
0000
3003
1000
0001
,
1000
0001
0101
0100
,
0010
0000
0000
0000
1000
0000
0001
0000
0000
0000
1000
0000
0000
0001
0000
0100
,
0000
0010
0000
1000
0000
0000
0001
0000
0000
0000
1000
0000
0000
0000
0100
0000
,
0010
0001
0100
0010
,
1000
0100
0010
0100
,
1000
0001
0100
0000
0010
1000
0100
0000
,
1000
0001
0010
0001
1000
0100
1000
0001
,
1000
0000
0000
0000
0001
0000
0000
0000
0200
0300
0001
1000
0001
0000
0000
0000
,
0100
0000
0000
0000
0001
1000
0010
1000
0001
0000
0000
0000
0100
0000
0000
0000
,
0010
0000
1000
0100
2000
0000
3010
0100
,
0000
0000
0010
0000
0000
0000
1000
0000
0000
0001
0000
1000
0000
0010
0100
0001
,
1000
0000
0010
0000
0100
0000
0001
1000
,
0100
0010
0100
1000
,
0001
1000
0000
0010
0000
0100
0000
0001
,
0000
1000
0000
0001
0000
0100
0010
1000
1001
0000
0000
0000
0000
0000
0000
0000
;

//--------------- dance-single - ----------------
#NOTES:
     dance-single:
     :
     Hard:
     13:
     0,0,0,0,0:
0000
0000
0000
0000
,
0000
0000
0000
0000
,
1000
0000
0000
0100
0000
0000
0010
0000
0000
0001
0000
0000
0010
0000
0000
0100
0000
0000
1000
0010
0100
0001
0000
0000
,
0100
0000
0000
0010
0000
0000
1000
0000
0000
0001
0000
0000
0001
0000
0000
0100
0000
0000
0010
1000
0001
0100
0000
0000
,
0010
0000
0000
0010
0000
0000
1000
0000
0000
0001
0000
0000
0100
0000
0000
0010
0000
0000
1000
0001
0100
0010
0000
0000
,
0100
0000
0000
0001
0000
0000
0100
0000
0000
0010
0000
0000
1000
0000
0000
0001
0000
0000
0010
0001
1000
0010
0000
0000
,
0100
0000
0000
0001
0000
0000
0010
0000
0000
0001
0000
0000
1000
0000
0000
0010
0000
0000
0100
0001
0010
0001
0000
0000
,
0100
0001
0100
0001
0001
0100
0010
1000
,
1001
0000
0001
0000
1000
0010
1000
0000
0002
0000
0000
0000
0103
0000
0002
0000
,
0000
0000
1003
0000
0100
0000
0001
0000
0200
1300
0100
1000
0020
0030
0100
0000
,
0001
2000
0000
3100
1000
0100
0010
0001
,
1000
0000
0001
0000
0100
0000
0010
1000
0100
0000
0010
0001
0010
0000
0100
0000
,
1000
0001
0010
0001
1000
0100
0000
0010
,
0001
1000
0000
0000
0001
0000
0010
0001
0010
0000
0100
0000
0020
0000
0000
0000
,
0001
0000
0000
0000
0031
0000
0010
0000
0100
0000
0010
0000
0001
0000
0010
0100
,
0010
0100
0010
0100
1000
0000
0001
0100
0001
0100
0001
0100
0010
0000
0100
0000
,
0001
1000
0100
0010
0001
0010
0100
1000
,
0010
0000
1000
0000
0200
0301
0100
1000
0002
0003
0100
0000
0010
0000
1000
0000
,
0001
1000
0000
0100
0010
0001
0000
1000
,
0010
0000
0100
0000
0001
1000
0001
0000
0010
0000
0100
0000
1000
0100
1000
0000
,
0100
0000
0010
0000
0001
0010
0001
0000
1000
0000
0100
0000
0010
0001
0010
0000
,
0100
1000
0001
0100
0002
0000
0010
0000
,
0013
0100
1000
0100
0010
0000
0001
0000
,
2000
3000
0100
0010
0002
0003
0100
0000
0010
0000
0100
0000
0020
0130
0001
0010
,
0002
0000
0000
0003
0000
0000
1000
0000
0000
0000
0000
0000
0100
0000
0000
0000
0000
0000
0010
0000
0000
0000
0000
0000
0001
0000
0000
0000
0000
0000
1000
0000
0000
0000
0000
0000
0001
0000
0010
0000
0100
0000
1000
0000
0000
0000
0000
0000
,
0100
0000
0000
0010
0000
0000
0010
0000
0000
0001
0000
0000
1000
0000
0000
0001
0000
0000
0010
0001
1000
0001
0000
0000
,
2000
3010
1000
0010
1000
0100
0010
0001
0200
0300
0001
0000
1000
0000
0001
0000
,
0200
0000
0301
0010
0001
0100
0010
1000
,
0100
0000
0000
0010
0000
0000
0001
1000
0001
1000
0000
0000
0100
0000
0000
0010
0000
0000
0001
0000
0000
0100
0000
0000
,
0001
0000
0010
0000
0200
1300
0010
0100
0001
0010
0100
1000
0200
0300
0010
0000
,
0011
0001
1000
0000
0100
0000
0010
0001
,
0100
0000
0010
0000
2000
3001
0000
1000
0000
0001
0000
1000
0002
0003
0010
0000
,
0001
0000
0010
0000
0001
0000
1000
0001
1000
0000
0001
0000
0010
0000
0100
1000
,
0100
0000
1000
0000
0100
0000
0010
0001
0010
0000
0001
0000
0100
0000
0010
0000
,
1000
0000
0100
0000
0010
0000
0001
0000
1000
0000
0010
0000
0100
0001
0100
0000
,
0010
1000
0010
0100
0001
0010
0001
1000
0200
0000
0000
0000
0000
0000
0000
0000
,
0300
0000
0000
0000
0010
0000
0001
0000
0100
0000
0001
0000
0010
0100
0010
0000
,
0001
0000
0010
0000
0100
1000
0100
0000
0010
0000
0001
0000
0011
0000
0010
0000
,
0100
0000
1000
0000
1100
0000
0100
0000
0000
0000
0010
0000
2000
3010
0000
1000
,
0010
1000
0000
0001
0200
0300
0010
0000
1000
0000
0100
0000
0010
0000
0001
0000
,
0100
0010
1000
0100
0010
0001
1000
0001
,
0010
0001
0011
0000
0100
1000
1100
0000
,
0100
0000
0010
0000
0100
0010
0001
0000
1000
0000
0010
0000
1000
0010
1000
0000
,
0100
0000
0010
0000
0100
0010
0100
0000
1000
0000
0001
0000
0010
0000
0100
0000
,
1100
0000
0000
0000
0011
0000
0000
0000
0201
0301
0000
0001
0201
0300
0010
0000
,
0100
0000
0010
0000
2000
3010
0100
0010
2000
3000
0001
0000
0010
0000
0001
0000
,
1000
0000
0000
0100
0000
0000
0010
0001
0010
0001
0000
0000
0010
0000
0000
0100
0000
0000
1000
0000
0000
0100
0000
0000
,
0010
0000
0001
0000
1000
0000
0100
0000
0020
0130
1000
0010
1000
0100
0010
0001
,
2000
3000
0001
0000
0010
0001
0010
0000
0200
0000
0000
0000
1000
0000
1300
0000
,
0001
0000
0000
0100
0000
0000
1000
0000
0000
0100
0000
0000
0001
0000
0000
0010
0000
0000
0100
0010
0001
0010
0000
0000
,
0100
1000
0001
0100
0010
1000
0100
0100
,
2000
3001
1000
0100
0010
0001
0010
0001
0011
0000
0000
0000
0000
0000
0000
0000
;

//--------------- dance-double - ----------------
#NOTES:
     dance-double:
     :
     Hard:
     13:
     0,0,0,0,0:
00000000
00000000
00000000
00000000
,
00000000
00000000
00000000
00000000
,
00010000
00000000
00000000
00001000
00000000
00000000
01000000
00000000
00000000
00100000
00000000
00000000
10000000
00000000
00000000
00010000
00000000
00000000
01000000
00100000
10000000
00010000
00000000
00000000
,
01000000
00000000
00000000
00001000
00000000
00000000
00010000
00000000
00000000
00000010
00000000
00000000
00001000
00000000
00000000
00000100
00000000
00000000
00010000
00001000
00010000
00001000
00000000
00000000
,
00010000
00000000
00000000
00001000
00000000
00000000
00100000
00000000
00000000
00010000
00000000
00000000
10000000
00000000
00000000
01000000
00000000
00000000
00100000
00010000
01000000
00100000
00000000
00000000
,
10000000
00000000
00000000
01000000
00000000
00000000
00010000
00000000
00000000
00001000
00000000
00000000
00000010
00000000
00000000
00000001
00000000
00000000
00001000
00000010
00000100
00000001
00000000
00000000
,
00001000
00000000
00000000
00000100
00000000
00000000
00010000
00000000
00000000
00001000
00000000
00000000
00100000
00000000
00000000
00010000
00000000
00000000
00100000
00001000
00010000
00001000
00000000
00000000
,
00010000
00000100
00000010
00000100
00010000
00000000
00001000
00000000
,
00011000
00000000
00000000
00000000
00000010
00001000
00000010
00000000
00000100
00000000
00000000
00000000
00000100
00000000
00010000
00000000
,
00001000
00000000
00010000
00000000
00000100
00000000
00010000
00000000
0M001000
00010000
00000100
00010000
000010M0
00000000
01000000
00000000
,
00100000
10000000
00100000
01000000
01000000
00010000
10000000
00010000
,
10000000
00100000
10000000
00000000
00010000
00000000
01000000
00000000
00001000
00000000
00010000
00000000
00001000
00010000
00001000
00000000
,
00010000
00001000
00000000
00000000
00010000
00000000
00010100
00000000
00000000
00000000
00001000
00000100
00001000
00000000
00000010
00000000
,
00001000
00000001
00001000
00000000
00000010
00000000
00001000
00000100
00001000
00000000
00000100
00000000
00020000
00000000
00000000
00000000
,
00001000
00000000
00000000
00000000
00030100
00000000
00010000
00000000
00001000
00000000
00100000
00000000
00010000
00000000
10000000
00010000
,
01000000
00100000
10000000
00010000
01000000
00000000
00001000
00010000
00001000
00100000
00010000
00100000
00001000
00000000
00010000
00000000
,
00000100
00000000
00010000
00001000
00010000
00000000
00000010
00000000
00001000
00000000
00000010
00000100
00000010
00000000
00001000
00000000
,
00000001
00000000
00001000
00000000
0M000010
00001000
00000100
00010000
M0001000
00000000
01000000
00000000
00010000
00000000
00010000
00000000
,
10000000
00100000
01000000
00010000
00100000
00001000
00010000
00001000
,
00100000
00000000
00010000
00000000
00100000
00000000
00010000
00000000
10000000
00100000
01000000
00000000
00001000
00000000
01000000
00000000
,
00001000
00010000
00001000
00000000
00010000
00000000
00000100
00000000
00001000
00000010
00001000
00000000
00000010
00000000
00001000
00000000
,
00000001
00000100
00000001
00000000
00001000
00000000
00000100
00000000
00010000
00001000
00010000
00000000
00001000
00000000
01000000
00000000
,
00100000
01000000
00100000
00000000
10000000
00000000
00010000
00000000
10000000
00100000
10000000
00000000
00010000
00000000
01000000
00000000
,
0001M000
00000000
10000000
00100000
1M100000
00000000
10000000
00000000
00010000
00000000
01000000
00000000
00001M00
00010000
00001000
00100000
,
00001000
00000000
00000000
00010000
00000000
00000000
00000100
00000000
00000000
00001000
00000000
00000000
00000001
00000000
00000000
00001000
00000000
00000000
00000001
00000100
00000010
00001000
00000000
00000000
,
00000100
00000000
00000000
00010000
00000000
00000000
00001000
00000000
00000000
00010000
00000000
00000000
00001000
00000000
00000000
01000000
00000000
00000000
00001000
00100000
00010000
01000000
00000000
00000000
,
M0010000
00100000
00001000
00010000
00001000
00010000
00001000
00010000
00M00100
00000000
00010000
00000000
00001000
00000000
00100000
00000000
,
00010000
00000000
00000000
10000000
00000000
00000000
00010000
01000000
00100000
10000000
00000000
00000000
00010000
00000000
00000000
00100000
00000000
00000000
00001000
00000000
00000000
00010000
00000000
00000000
,
00000010
00000000
00000000
00000100
00000000
00000000
00000001
00000100
00000001
00000100
00000000
00000000
00000010
00000000
00000000
00001000
00000000
00000000
00000100
00000000
00000000
00010000
00000000
00000000
,
00001000
00000000
00010000
00000000
0M001000
00100000
00010000
01000000
00100000
10000000
01000000
00100000
00010000
00000000
00100000
00000000
,
00011000
00000000
00001000
00000000
00010000
00000000
00000100
00010000
,
00000000
00000000
00000010
00000000
00M00000
00001000
00000000
00000001
00000000
00010000
00000000
00001000
0M000000
00000000
00200000
00000000
,
00001000
00301000
00010000
00000100
00000100
00010000
00001000
00010000
,
00010000
00000000
00000100
00000000
00010000
00000000
00000100
00000000
00001000
00000100
00001000
00000000
00000100
00000000
00010000
00000000
,
00001000
00100000
00001000
00000000
00100000
00000000
00010000
00000000
01000000
00100000
01000000
00000000
00001000
00000000
00010000
00000000
,
00001000
00100000
00010000
00000000
00100000
00000000
00001000
00000000
00020000
00000000
00000000
00000000
00000100
00000000
00000000
00000000
,
00031000
00000000
00000000
00000000
00100000
00000000
00010000
00000000
00100000
00000000
00001000
00000000
00010000
00000100
00010000
00000000
,
00000100
00000000
00001000
00000000
00000010
00000100
00000010
00000000
00001000
00000000
00000100
00000000
00001000
00000000
00000100
00000000
,
00010000
00000000
00001000
00000000
01000000
00000000
00100000
00000000
10000000
00000000
00010000
00000000
100000M0
00010000
00000000
01000000
,
00000000
00001000
00000000
00100000
00001000
00000000
00010000
00000000
00000100
00000000
00000001
00000000
00000100
00000000
00001000
00000000
,
00000010
00010000
00001000
00100000
01000000
00100000
00001000
01000000
,
00100000
10000000
10100000
00000000
01000000
00010000
01010000
00000000
,
00100000
00000000
00001000
00000000
00001000
00010000
00000100
00000000
00001000
00000000
00001000
00000000
00000100
00001000
00000010
00000000
,
00000100
00000000
00000001
00000000
00000010
00000100
00000010
00000000
00000001
00000000
00000100
00000000
00000010
00000100
00000010
00000000
,
00000100
00000000
00000001
00000000
00001000
00000100
00001000
00000000
0M000100
00010000
00001000
00010000
0M011000
00000000
00001000
00000000
,
01000000
00000000
00100000
00000000
1M000000
00010000
10000000
00010000
10000M00
00000000
00100000
00000000
00010000
00000000
00001000
00000000
,
00000100
00000000
00000000
00000001
00000000
00000000
00000100
00000010
00000100
00000001
00000000
00000000
00001000
00000000
00000000
00000100
00000000
00000000
00010000
00000000
00000000
00001000
00000000
00000000
,
01000000
00000000
00100000
00000000
01000000
00000000
00001000
00000000
0M010000
00001000
00100000
00010000
10000000
01000000
10000000
00001000
,
0001000M
00001000
00100000
00010000
00100000
00001000
00010000
00010000
,
00000100
00001000
00000010
00000100
00000001
00000010
00000001
00000001
,
00001000
00000100
00000000
00001100
00000000
00010100
00000000
00010000
,
000M0000
00001000
00000000
00100000
00000000
00001000
00010000
00001000
00011000
00000000
00000000
00000000
00000000
00000000
00000000
00000000
;
