#TITLE:Frosty the Snowman;
#SUBTITLE:;
#ARTIST:August Burns Red;
#TITLETRANSLIT:;
#SUBTITLETRANSLIT:;
#ARTISTTRANSLIT:;
#GENRE:;
#CREDIT:;
#MUSIC:Frosty the Snowman.ogg;
#BANNER:bann.png;
#BACKGROUND:bg.png;
#CDTITLE:;
#SAMPLESTART:0.000;
#SAMPLELENGTH:0.000;
#SELECTABLE:YES;
#OFFSET:-0.100;
#BPMS:0.000=197.985
,6.000=184.000
,12.000=190.000
,16.000=190.237
,64.000=195.000
,96.000=200.000
,312.000=190.000
,360.000=180.000
,366.000=190.000
,372.000=175.000
,374.000=182.000
,377.000=187.000
,380.000=185.000
;
#STOPS:;
#BGCHANGES:;
#FGCHANGES:;

//--------------- dance-single - ----------------
#NOTES:
     dance-single:
     :
     Beginner:
     6:
     0,0,0,0,0:
0000
0000
0000
0000
,
0000
0000
0000
0000
,
1001
0000
0000
0000
,
1001
0000
0000
0000
,
1000
0000
0000
0000
,
0010
0000
0000
0000
,
0100
0000
0001
0000
,
1000
0000
0000
0000
,
0001
0000
1000
0000
,
0001
0001
0000
0000
,
0100
0000
0010
0000
,
1000
0000
0000
0000
,
0001
0000
0001
0000
,
0010
0000
0010
0000
,
0001
0000
0001
0000
,
1000
0000
0000
0000
,
0001
0000
1000
0000
,
0001
0001
0000
0000
,
0100
0000
0010
0000
,
1001
0000
0000
0000
,
1001
0000
0001
0000
,
1000
0000
0010
0000
,
0110
0000
0100
0000
,
0001
0000
0000
0000
,
1000
0000
1000
0000
,
0001
0000
0001
0000
,
0100
0000
0010
0000
,
0100
0000
0001
0000
,
1000
0000
0010
0000
,
0100
0000
0001
0000
,
1000
0000
0010
0000
,
0100
0000
0001
0000
,
1000
1000
1000
0000
,
0001
0001
0001
0000
,
0100
0000
0100
0000
,
0010
0010
0010
0000
,
1000
1000
1000
0000
,
0001
0001
0001
0000
,
1000
0000
0001
0000
,
1000
0000
0000
0000
,
1001
0000
0001
0000
,
0100
0100
0100
0000
,
0010
0000
1000
0000
,
0001
0001
0001
0000
,
0100
0100
0100
0100
,
0100
0100
0100
0000
,
0010
0000
0010
0000
,
1000
0000
0001
0000
,
1000
1000
1000
0000
,
0001
0001
0001
0000
,
0110
0000
0010
0000
,
1000
0000
0010
0000
,
0110
0000
0100
0000
,
1001
0000
0001
0000
,
0001
0000
1000
0000
,
0010
0010
0000
0000
,
1000
1000
0000
0000
,
0001
0000
0100
0000
,
0000
0000
0010
0000
,
0001
0000
0000
0000
,
0001
0000
0110
0110
,
0000
0000
0000
0000
,
1000
0000
0001
0000
,
1000
1000
0000
0001
,
0001
0000
0100
0000
,
0000
0000
0010
0000
,
1001
1001
0000
1001
,
1001
0000
1000
0000
,
0001
0001
0000
0000
,
0100
0000
0010
0010
,
0010
0000
0000
0000
,
0100
0000
1001
1001
,
0000
0000
1000
0000
,
0010
0000
0100
0000
,
0001
0000
1000
0000
,
0001
0000
0100
0000
,
0010
0000
1000
0000
,
0001
0000
1000
0000
,
1001
0000
0001
0000
,
0100
0100
0000
0000
,
1001
0000
0100
0000
,
1001
0000
0010
0000
,
1001
0000
0100
0000
,
1001
0000
0100
0000
,
0010
0010
0010
0000
,
1000
0000
0000
0000
,
0000
0000
0000
0000
,
1000
0000
0000
0000
,
0010
0000
0000
0000
,
1000
0000
0001
0000
,
0100
0100
0000
0000
,
0010
0000
1000
0000
,
1001
0000
0000
0000
,
1000
0000
0001
0000
,
1000
0000
0001
0000
,
1000
1000
1000
0000
,
0001
0000
0000
0000
,
1000
0000
0001
0000
,
0100
0100
0000
0000
,
1001
0000
0010
0000
,
1001
0000
0000
0000
,
0100
0100
0100
0000
,
0010
0000
0100
0000
,
0001
0000
1000
0000
,
1001
0000
0000
0000
,
1001
0000
0000
0000
;

//--------------- dance-single - ----------------
#NOTES:
     dance-single:
     :
     Easy:
     9:
     0,0,0,0,0:
0000
0000
0000
0000
,
0000
0000
0000
0000
,
2002
0000
0000
3003
,
1001
0000
0001
1000
,
1001
0001
0100
0010
,
1000
0001
0010
0100
,
1000
0010
0100
0001
,
2000
0000
0000
3000
,
1002
0000
0000
0000
1003
0000
0000
0010
,
2000
3002
0000
0103
,
0020
2030
3002
2003
,
3002
0000
0000
1003
,
0002
0203
0320
2030
,
3002
0203
0320
1030
,
1001
0001
0100
0010
,
1000
0001
1000
0001
,
2000
0000
0000
0000
3002
0000
0003
1000
,
0020
0230
0300
0001
,
0201
0320
2030
3001
,
2002
3003
0000
1000
,
1001
0001
0100
0010
,
1000
0010
0100
0001
,
1000
0001
1000
0010
,
2000
0000
0000
3000
,
0001
1000
0001
1000
,
0001
0100
0001
0100
,
0010
1000
0010
1000
,
0001
0100
0010
1000
,
0100
0010
0100
1000
,
0001
1000
0010
1000
,
0001
0100
0010
1000
,
0100
0010
0001
0100
,
0010
0010
0010
1000
,
0001
0001
0001
0100
,
0010
0010
0010
1000
,
0001
0001
0001
1000
,
0010
0010
0010
1000
,
0001
0001
0001
0100
,
0010
1000
0010
1000
,
0001
0000
0000
0000
,
0001
1000
0001
1000
,
0010
1000
0100
1000
,
0010
1000
0001
0100
,
0010
1000
0001
0100
,
0010
0010
1000
1000
,
0001
0001
0100
0010
,
1000
0100
0010
0001
,
0100
0010
1000
0001
,
1001
0001
0100
0010
,
1000
0001
0100
0010
,
0110
0100
0010
0100
,
0010
1000
0001
1000
,
1001
0001
0100
0010
,
1010
1000
0001
0100
,
0010
0100
0001
1000
,
0010
0000
0000
0010
0000
0000
1000
0000
,
1000
0000
1000
0000
0000
0001
0000
0000
,
1000
0000
0001
0001
,
0000
0100
0100
0000
,
0010
0000
0010
0000
0000
1000
0000
0000
,
0001
0000
1001
1001
,
0000
0110
0100
0000
,
0000
1001
0000
0000
0000
1000
0000
0000
,
1001
0000
0000
0000
0000
0001
0000
0000
,
0200
0300
0010
0000
,
0000
0010
0000
0000
1000
0000
0000
0000
,
0101
0000
0110
0000
0000
1000
0000
0000
,
0020
0000
0000
0000
2030
0000
3000
0001
,
1000
0002
0003
0000
,
0020
0030
0001
0100
,
1010
0000
0010
0000
0000
0100
0000
0000
,
1001
0000
1001
1001
,
0000
0100
0000
0000
0010
0000
0000
0000
,
0000
0101
0000
0000
0000
0010
0000
0000
,
1001
0000
1001
0000
0000
0001
0000
0000
,
0100
0100
0010
1000
,
0000
0001
0000
0000
1001
0000
0000
0000
,
0110
0000
0110
0000
0000
0100
0000
0000
,
2001
0000
3002
0000
,
1000
1003
0000
0001
,
1001
1000
0010
1000
,
2020
3030
0000
0000
,
1001
0001
0100
0010
,
1010
1000
0001
0100
,
1010
1010
0101
0101
,
0001
1000
0010
0100
,
0001
1000
0100
0010
,
0001
0100
0010
1000
,
0100
1000
0001
0100
,
0020
0030
0200
0300
,
1010
1010
0000
0100
,
0001
0100
0010
1000
,
0000
1001
0000
0000
1000
0000
0001
0000
,
0100
0100
0100
0010
,
1000
1000
1000
0001
,
0100
0010
1000
0100
,
0010
0001
0100
0010
,
2000
3000
0002
0003
,
0100
0100
0000
0010
,
1000
0001
1000
0010
,
0101
0100
0010
1000
,
1001
0001
0100
0010
,
1010
1000
0001
0100
,
0110
0010
1000
0001
,
1000
1000
0001
1000
,
0220
0000
0000
0000
,
0000
0000
0000
0330
;

//--------------- dance-single - ----------------
#NOTES:
     dance-single:
     :
     Medium:
     13:
     0,0,0,0,0:
2001
0000
0000
0000
3002
0000
0000
0103
,
0200
0320
0030
1000
,
2001
3002
0203
0310
,
2020
3030
1000
0001
,
0101
1010
1001
0001
,
0100
0010
0100
0010
1000
0001
1000
0001
,
1000
1010
0100
0101
,
0002
0000
0003
0000
,
2000
0000
3010
0000
0200
0000
0301
1000
,
0020
0230
0310
1000
,
0110
0020
2030
3020
,
0230
0000
0310
0000
1000
0010
1000
0010
,
2000
3200
2300
3020
,
0230
0000
0302
0000
2003
0000
3010
0100
,
0001
1000
0010
1000
0001
0100
0010
1000
,
0100
0010
0001
0100
0010
1000
0010
0000
,
2000
0000
3002
0000
2003
0000
3010
1000
,
0002
0000
2003
0000
0000
0000
3010
0100
,
0002
2003
3020
0130
,
0202
0303
0000
0001
,
1020
2030
3010
0100
,
1020
0000
2030
0000
3200
0000
1300
0001
,
0002
0203
0320
2030
,
3002
0000
0003
0000
,
0001
0010
0001
0010
0001
0010
0001
0010
,
0100
1000
0100
1000
0100
1000
0100
1000
,
0001
1000
0001
1000
0001
0100
0010
1000
,
0100
0010
0001
0100
0010
1000
0001
0010
,
0100
1000
0100
1000
0001
0100
0010
1000
,
0100
0010
0001
0100
0010
0100
0001
1000
,
0100
0010
0001
1000
0010
0100
0001
0010
,
0100
1000
0010
0100
0001
1000
0010
1000
,
0002
0000
0103
0010
1000
0000
0001
0100
,
0010
0000
1010
0000
1001
0000
1000
0010
,
0100
0101
1010
1001
,
1010
0000
0101
0000
0110
0000
1000
0001
,
1000
0000
1010
0000
0101
0000
0010
1000
,
0010
0000
0110
0000
0110
0000
0001
0100
,
0001
0000
0100
0010
1000
0100
0010
0001
,
2000
0000
3000
0000
0001
0001
0001
0001
,
2000
3020
0230
0302
,
0203
0000
0320
0000
1030
0001
1000
0001
,
0200
0320
2030
3200
,
1300
0001
1000
0000
0010
0100
0010
0000
,
1010
0110
0101
0110
,
1010
0000
1001
0000
0110
0000
0001
0100
,
0010
0000
1000
0001
1000
0010
0100
0001
,
2000
0000
3001
0000
0001
1000
0001
0010
,
0001
0000
0100
0010
0100
0000
0001
1000
,
0010
0000
0100
0001
0100
0000
0010
0000
,
1001
0010
1000
0001
,
0100
0010
1000
0001
,
1010
0010
0100
0001
,
0101
0100
0010
1000
,
0001
0100
0010
1000
,
0001
0000
1000
0010
0000
1000
0010
1000
,
0001
0100
0010
0000
0000
1000
0000
0000
,
0001
0100
0000
0000
0010
1000
0010
1000
,
0000
0001
0100
0001
0100
0000
0000
0000
,
0010
0010
1000
0000
0000
0010
0000
0000
,
0100
0001
0000
0000
0010
0010
0010
0010
,
0000
0100
0100
0100
0100
0000
0000
0000
,
0010
0010
0000
0000
0000
0100
0000
0000
,
0001
1000
0001
1000
0000
0010
0100
0010
,
1000
0000
0000
0000
0001
1000
0001
0000
,
0000
0100
0000
0000
0010
1000
0000
0000
,
0010
1000
0001
0100
0000
0010
1000
0010
,
2000
0000
0000
0000
3002
0000
0000
1003
,
0002
0000
0203
0000
0310
1000
0010
0100
,
0002
0000
0103
0000
2000
0000
0010
0010
,
3010
0100
0002
0000
0203
0010
0300
0000
,
2000
0001
3000
0000
0100
0010
0100
0010
,
0000
1000
0001
1000
0010
0000
0100
0000
,
0001
0001
1000
1000
0001
0001
0000
0000
,
1000
0010
1000
0010
0000
0100
0001
0100
,
0020
0000
1030
1000
0001
0100
0001
0000
,
1000
0010
0000
0000
0100
0001
0000
0000
,
1000
0001
1000
0001
0000
1000
0010
0100
,
0002
0000
0000
0000
0203
0000
0000
0310
,
2000
3002
0000
1003
,
2001
0001
0100
3001
,
0102
0010
0100
0013
,
2001
0010
0001
3100
,
0102
0010
1000
0013
,
0102
0010
1000
0013
,
0100
0010
0010
0010
,
0100
0001
0100
0001
,
0100
0010
1000
0001
,
1000
0001
0100
0000
,
1000
0000
0001
0000
1000
0000
0001
0100
,
1000
0000
0100
0000
0001
0000
1000
0100
,
0001
0100
1000
0001
,
1000
0010
0000
1000
0010
0000
1000
0100
,
0001
0000
0100
0000
1000
0000
0001
0010
,
1000
0000
0010
0000
0001
0000
1000
0100
,
0001
0100
1000
0001
,
0100
0001
0100
0001
0100
0001
0100
0001
,
0200
0010
0310
1000
,
1001
0000
0011
0000
1010
0000
0100
0001
,
0100
0010
1010
0100
,
0001
1000
0001
1000
0001
0000
1000
0001
,
1000
0010
1010
0100
,
0101
0001
0101
0100
,
1010
1000
0001
0100
,
0010
1000
0001
0000
,
1001
0000
0000
0000
;

//--------------- dance-single - ----------------
#NOTES:
     dance-single:
     :
     Hard:
     15:
     0,0,0,0,0:
2002
0000
0003
0000
0001
0000
0000
0010
,
0010
0000
0002
0000
3003
0000
0001
0010
,
0021
0100
0001
0130
,
2001
0000
0000
0000
3001
0000
0000
0000
1000
0001
1000
0001
1000
0000
0001
0000
,
2001
0100
3020
0130
,
0101
0001
0010
0001
0100
0001
1000
0100
,
1100
1000
0001
1000
0100
0010
0001
1000
,
0001
0100
0001
0100
0010
1000
0010
1000
,
2001
0000
0000
0000
3002
0000
0000
1000
,
1000
0000
0023
0000
0000
0000
0130
1000
,
1100
0100
0010
0001
0010
0100
1000
0001
,
2000
0000
0000
0000
3001
1000
0001
1000
,
0001
0010
0001
0010
0100
1000
0010
1000
,
0001
0100
0010
1000
0100
0010
0001
1000
,
0010
0100
0001
0010
0100
1000
0001
0100
,
0010
1000
0001
1000
0001
0010
0001
0000
,
1000
0001
1000
0100
1000
0001
0010
0100
,
0100
0010
0001
1000
0010
0100
0001
0010
,
0011
0001
1000
0001
0100
0010
1000
0001
,
0011
0010
0100
1000
0001
0100
0010
1000
,
2010
0000
0000
3200
0000
0000
0310
0000
0000
0001
1000
0001
,
2000
0000
3100
0010
0001
0000
1000
0001
,
2001
0000
3100
0100
0100
0000
0010
0001
,
4000
0000
0000
0000
0000
0000
0000
0000
3001
0000
0000
0000
1000
0001
1000
0001
,
1000
0100
1000
0010
1000
0001
1000
0100
,
1000
0001
0100
0001
0010
0100
1000
0001
,
1000
0100
0010
0001
1000
0010
0100
0001
,
1000
0100
1000
0010
1000
0001
0010
0100
,
0010
0001
1000
0010
0100
0001
0010
0100
,
0010
0001
0100
0001
0010
0100
0010
0001
,
1000
0010
0100
0001
1000
0100
0010
0001
,
0100
0010
1000
0100
0010
0001
1000
0100
,
1000
0000
1100
0000
1100
0000
1000
0001
,
0011
0000
0110
0000
1100
0000
1000
0001
,
1000
0010
1000
0100
1000
0001
1000
0100
,
0010
0001
0010
0100
1000
0000
1000
0001
,
1001
0000
1100
0000
0011
0000
0100
1000
,
1100
0000
1001
0000
0110
0000
0001
0010
,
0001
0000
1000
0100
1000
0000
0001
0000
0010
0000
0100
0000
0010
0000
0001
0000
,
0010
0000
0100
0000
1000
0000
0001
0000
1000
0100
1000
0100
0010
0001
0010
0001
,
1000
0100
1000
0001
0010
0100
0010
0001
,
1000
0010
0100
0001
1000
0100
1000
0001
,
1000
0100
0010
0001
0100
0010
1000
0100
,
0010
0001
0010
0001
0010
0001
0010
0001
,
1001
1000
0001
0010
0011
0010
0100
1000
,
1100
0100
0010
0001
1001
1000
0010
0100
,
0001
0000
1000
0100
1000
0000
0000
0000
0001
0000
0000
0000
1000
0000
0100
0000
,
1000
0000
0001
0000
0010
0000
0100
0000
1000
0010
1000
0100
0010
0001
0010
0001
,
2000
0000
0000
0000
3100
0010
0100
0000
0010
0000
0001
0000
1000
0001
1000
0000
,
0200
0000
0000
0000
1300
0001
1000
0000
0100
0000
0010
0000
0001
0000
1000
0000
,
1001
0000
0000
0000
0001
0010
0001
0000
0010
0000
0000
0000
0100
1000
0100
0000
,
2000
0000
0000
0000
3010
1000
0010
0000
1000
0000
0000
0000
0001
0000
1000
0000
,
1001
0000
0020
0000
0130
0000
0010
0001
,
0011
0000
0002
0000
1003
0000
0001
1000
,
0002
0000
0000
0000
1003
0010
1000
0000
0001
0000
0000
0000
1000
0000
0000
0000
,
0001
1000
0001
0000
1000
0000
0100
0000
0000
0000
0010
0000
0010
0000
0010
0000
,
0001
1000
1000
0000
0000
0001
0000
0000
,
1001
1000
0000
0000
0100
0010
0100
0010
,
0000
0001
1000
0001
0010
0100
1000
0100
,
0010
0010
0010
0000
0000
0001
0000
0000
,
1001
1000
0000
0000
0100
0100
0100
0100
,
0000
0000
0000
1000
0000
0000
1000
0000
0000
0001
0000
0000
0001
0000
0010
0000
0001
0000
1000
0000
0100
0000
1000
0000
,
0001
0010
0100
0100
1000
1001
0000
0000
,
1100
0100
0010
0001
0000
1000
0001
1000
,
0200
0000
0300
0000
0010
0010
0010
0000
,
0000
0110
0000
0000
1100
0100
0000
0000
,
0010
0001
0010
0001
0000
1000
0100
1000
,
0100
0010
0002
0000
2003
0000
3100
0010
,
0011
0001
0000
0000
1000
0001
1000
0001
,
0020
0100
0130
1000
0200
0000
0310
0010
,
0001
1000
0200
0000
0310
0001
0000
0000
,
0011
0100
0000
0000
1000
0001
1000
0001
,
0000
0000
0000
0010
0000
0000
0100
0000
0000
0010
0000
0000
0100
0000
1000
0000
0001
0000
1000
0000
0001
0000
1000
0000
,
0100
0100
0010
0100
0010
0100
0000
0000
,
1000
0001
1000
0001
0000
1000
0100
0010
,
0100
0000
0010
0001
0100
0100
0001
0000
,
0000
0100
0000
0000
1001
0010
0000
0000
,
0100
1000
0100
1000
0000
0001
0010
0001
,
0020
0000
0000
0000
0032
0000
0000
1003
,
0002
0000
0203
0000
0310
0000
0100
0001
,
0021
0230
0320
0031
,
0101
0001
1000
0001
,
0011
0000
2000
0000
3002
0000
0103
0010
,
1010
0000
0000
0000
0000
0000
1000
0000
0001
0000
1000
0000
0001
0000
0000
0000
0000
0000
0100
0000
0000
0010
0000
0000
,
0110
0101
1010
1001
,
0201
0001
0001
0301
,
1000
0010
0010
0010
,
0100
0001
0001
0001
,
0100
0010
0100
0001
0010
0001
0100
0000
0000
0000
0000
0000
,
2010
0000
0001
0000
0100
0000
3010
0100
,
0102
0000
1000
0000
1003
0000
1000
0001
,
2001
0000
0000
0000
0100
0000
0000
0000
0001
0000
0000
0000
3100
0010
0100
0000
,
0010
0110
0000
1000
0010
1000
0010
0100
,
0102
0000
1000
0000
0010
0000
1003
0001
,
0011
0000
0101
0000
1010
0000
0100
0001
,
0201
0310
2010
3010
,
0100
0001
0100
0010
1000
0100
0010
0001
0100
0010
1000
0001
1000
0000
0001
0000
,
2001
0000
3010
0000
0201
0000
0310
0010
,
0110
0000
0011
0000
1001
0000
0001
0100
,
0210
0000
0310
0000
0100
0000
0001
1000
,
0001
0100
0001
0100
0010
1000
0001
1000
,
2001
0000
0000
3010
0000
0000
2001
0000
0000
3001
0100
0001
,
0100
0000
0110
0000
0101
0000
0010
0100
,
0010
0100
0001
1000
0100
0010
0001
0100
,
0010
0000
1000
0000
0010
0000
1000
0000
0001
0000
0100
0000
0010
0000
0000
0100
0000
0000
0000
0000
0000
0010
0000
0000
,
2002
0000
0000
0000
,
0000
0000
3003
0000
;

//--------------- dance-single - ----------------
#NOTES:
     dance-single:
     :
     Challenge:
     18:
     0,0,0,0,0:
0002
0000
1003
0000
0200
0000
0310
0100
,
0200
0000
2300
0000
0000
0000
3010
1000
,
1020
0000
0100
0000
0001
0000
0200
0300
,
2030
0000
0000
0000
3001
0000
0000
0000
1000
0100
0010
0001
0100
0010
1000
0001
,
2000
3000
2002
3003
0004
0000
1003
0000
,
1000
0001
1000
0001
1000
0100
1000
0100
,
1100
1000
0010
0100
0001
0010
0001
1000
,
0001
0010
0100
1000
0001
0100
0010
1000
0001
0010
0001
1000
0100
1000
0001
1000
,
0020
1030
0010
0100
0002
1003
0100
0020
,
0032
1003
0020
0130
0010
1000
0002
0103
,
0110
0000
0010
0000
1000
0000
0100
0000
1000
0000
0001
0000
1000
0100
0010
0001
,
2000
0000
3100
0000
0010
0000
0001
0000
1000
0100
0010
0001
0100
0010
1000
0001
,
0020
0000
0000
0130
0000
0000
0020
0000
0000
0031
0000
0000
0010
0000
0100
0000
1000
0000
0100
0000
0000
0010
0000
0000
,
0001
0000
0010
0000
0001
1000
0001
1000
0010
0100
0001
0010
0001
0100
0010
1000
,
0001
0010
0001
0010
0100
1000
0100
1000
0001
0100
0010
1000
0100
0010
0001
0100
,
0010
1000
0100
1000
0001
1000
0100
0010
0001
0100
0010
1000
0100
0000
0000
0000
,
0002
0003
0100
0000
0010
1000
0010
0000
2000
3000
0001
0000
0100
0010
0200
0300
,
0020
0030
1000
0000
0002
1003
0010
0000
0100
0000
0001
0000
1000
0001
1000
0000
,
1002
0000
0000
0003
0000
0000
0100
0000
0000
0000
0000
0000
0020
0000
0000
1030
0000
0000
0010
0000
0000
0000
0000
0000
0200
0000
0000
0300
0000
0000
0001
0000
0000
0000
0000
0000
0100
0000
0000
0000
0010
0000
0000
0000
1000
0000
0000
0000
,
0002
1003
0001
0001
1001
1000
0001
0100
,
0110
0000
0000
0000
0000
0000
0010
0000
0000
0000
0000
0000
0100
0000
0000
0001
0000
0000
0100
0000
0000
0000
0000
0000
0020
0000
0000
0030
0000
0000
1000
0000
0000
0000
0000
0000
0001
0000
0000
0000
0100
0000
0000
0000
0010
0000
0000
0000
,
1000
0000
0001
0000
1000
0100
1000
0000
0020
0030
0100
0000
0010
1000
0010
0000
,
1010
0000
1000
0000
0001
0100
0010
0000
2000
3000
0010
0000
0100
0001
0100
0000
,
0002
0000
2003
0000
3002
0000
2003
0000
3002
0000
0103
0010
1000
0001
1000
0100
,
1000
0010
1000
0100
0010
0001
0100
0010
1000
0100
0010
0001
0100
0010
1000
0100
,
1000
0010
0100
0010
1000
0100
0010
0001
0100
0010
1000
0001
0010
0100
1000
0010
,
1000
0100
0010
0001
0100
0010
1000
0100
1000
0010
0100
0001
1000
0100
0010
0001
,
1000
0100
1000
0001
0100
0010
1000
0001
0010
0001
1000
0100
0010
0100
1000
0001
,
1000
0100
0010
0001
1000
0010
0100
0010
1000
0001
0100
0010
1000
0100
0010
0001
,
1000
0100
0010
0100
1000
0010
0100
0001
1000
0100
0010
0001
0100
0010
1000
0001
,
1000
0100
0010
0001
1000
0010
1000
0100
0010
0001
0100
0001
1000
0100
1000
0010
,
0100
0001
0010
0001
1000
0001
0100
0010
1000
0100
0010
0001
0100
0010
1000
0100
,
1000
0001
1001
1000
1010
0010
1000
0010
,
1010
1000
1001
0001
0101
0100
0010
1000
,
1001
0001
0101
0100
0110
0010
1010
1000
,
1001
0001
0101
0100
0110
0010
1000
0100
,
1100
1000
1001
0001
0101
0100
0010
0010
,
1010
1000
1001
0001
0101
0100
0010
0010
,
1010
0000
1000
0010
0100
0001
0010
0100
1000
0010
0100
0001
1000
0100
0010
0001
,
1000
0010
0100
0001
1000
0100
0010
0100
1000
0010
0100
0001
1000
0100
0010
0100
,
1000
0001
1001
1000
0010
0100
0110
0010
,
1000
0010
1010
1000
0001
0100
0010
0010
,
1000
0001
1001
1000
0010
0100
0110
0010
,
2000
3001
1001
1000
0010
0010
1010
1000
,
1001
0001
0101
0001
0011
0010
0110
0100
,
1100
1000
1010
1000
1100
0100
0010
0010
,
0001
0000
1000
0010
0100
0001
1000
0010
1000
0001
0010
0100
1000
0010
0100
0001
,
1000
0100
0010
0100
1000
0001
0010
0001
0100
0010
1000
0001
0010
0100
1000
0010
,
2000
3000
0010
0000
1000
0100
1000
0000
0020
0030
0100
0000
0001
1000
0001
0000
,
2000
3000
0010
0000
0100
0001
0100
0000
0020
0030
1000
0000
0001
0100
0001
0000
,
2000
3000
0001
0000
0100
0010
1000
0000
0200
0300
0100
0000
0010
0001
0010
0000
,
0200
0300
1000
0000
0001
0100
0010
0000
2000
3000
0001
0000
1000
0010
1000
0000
,
1010
0000
0010
0000
0100
0001
0100
0000
0002
0003
1000
0000
0001
0100
0010
0000
,
0110
0000
0100
0000
0001
1000
0001
0000
2000
3000
0000
0000
0001
0100
0010
0000
,
0020
0030
0100
0000
0001
1000
0001
0000
2000
3000
0010
0000
1000
0001
0100
0000
,
0010
1000
0000
0000
0001
0000
1001
0000
0000
0000
1000
0000
1000
0000
1000
0000
,
1100
0100
0010
0000
M000
0001
0000
0000
,
1001
1000
0000
0000
1001
0001
0001
0001
,
0M00
0010
0010
0010
0010
0100
1000
0010
,
1010
1000
1000
0000
000M
1000
0000
0000
,
1001
0000
1000
0000
0000
0000
0001
0100
0010
0000
1010
0000
1010
0000
1010
0000
,
1000
0000
0000
0010
0000
0000
0100
0000
0000
0000
0000
0000
0110
0000
0000
0000
0000
0000
1001
0000
0000
0000
0000
0000
0001
0000
0000
0000
1000
0000
0000
0000
0100
0000
0000
0000
1000
0000
0000
0000
0010
0000
0000
0000
0100
0000
0000
0000
,
0001
1001
1000
1000
1000
0011
0000
0000
,
1001
1000
1000
1000
0MM0
0001
1000
1000
,
0020
0100
0100
0100
0130
1000
0001
0000
,
M000
0001
0000
0000
1001
0001
0000
0000
,
1001
0000
1001
0000
1001
0000
1001
0000
0000
0000
1000
0001
0100
0000
0010
0000
,
0010
1000
0010
0100
M00M
0100
0000
100M
,
0010
1000
0001
0000
1001
1000
1000
1000
,
00M0
0100
0100
0100
0100
0000
1000
1000
,
1010
0010
1000
0000
00MM
1000
0000
000M
,
1010
0000
1000
0000
0000
0000
0001
0100
0010
0000
0110
0000
1010
0000
0101
0000
,
0001
0000
0000
1000
0000
0000
0010
0000
0000
0000
0000
0000
1010
0000
0000
0000
0000
0000
0110
0000
0000
0000
0000
0000
0100
0000
0000
0000
0001
0000
0000
0000
1000
0000
0000
0000
0100
0000
0000
0000
0010
0000
0000
0000
1000
0000
0000
0000
,
0001
1000
0001
0010
0001
1001
0000
0000
,
1001
0001
0001
0001
M000
0100
0100
0100
,
0100
0000
0010
0010
1010
1000
0001
0000
,
M001
0000
0100
0000
000M
0000
0000
0000
1010
0000
0010
0000
0000
0000
1000
0001
,
0100
0000
0110
0000
1001
0000
1010
0000
0100
0001
0100
0000
0010
0000
1010
0000
,
2010
0000
0000
0000
3M02
0000
0000
1000
,
2003
0000
0010
0000
3M0M
0000
0010
1000
,
1002
0000
0000
0203
0000
0000
0320
0000
0000
1030
0001
1000
,
1002
0000
0000
1003
0100
1000
0100
1000
0100
1000
0100
1000
,
0200
0000
0000
2300
0000
0000
3001
0100
0010
1000
0000
0000
,
1002
0000
0000
0000
0000
0000
0103
0000
0010
0000
1000
0000
0002
0000
0003
0000
0000
0000
1000
0000
0000
0010
0000
0000
,
2020
3030
2002
3003
0220
0330
0220
0330
,
1001
1000
1000
1000
,
1000
0010
0100
0010
,
0100
0010
1000
0100
,
1000
0010
0100
0001
0100
0010
2000
3000
0000
0001
0000
0000
,
2001
0000
3010
0000
0102
0000
1003
1000
,
1001
0000
1001
0000
1001
0000
1000
0001
,
2001
0000
0000
0000
3010
0000
0000
0000
1020
0000
0000
0000
0130
0001
0010
0001
,
0100
0110
0010
1000
1001
0001
0001
0010
,
0012
0000
1003
0000
1010
0000
0010
0010
,
0110
0000
1001
0000
1000
0000
0010
1000
,
0002
0103
0102
1003
,
1000
0010
0100
0001
1000
0100
0010
0100
1000
0001
0100
0010
1000
0001
0010
0001
,
2000
0000
3010
0000
0210
0000
0301
0001
,
2002
3003
0022
0033
2200
3300
0010
0001
,
2000
0000
3010
1000
0020
0000
0130
0001
,
1001
0001
0100
0010
1000
0001
0010
0001
,
2002
0000
0000
0003
0000
0000
3010
0000
0000
0000
0000
0000
0102
0000
0000
0000
0000
0000
1003
0000
0010
0000
1000
0000
,
0001
0000
2200
3300
0022
0033
1000
0001
,
1001
1000
0010
0100
0001
0010
0001
1000
,
1000
0000
0010
0000
0100
0000
0001
0000
1000
0000
0100
0000
1000
0000
0000
1010
0000
0000
0000
0000
0000
0001
0000
0000
,
2002
0000
0000
0000
0000
0000
0000
3003
;
