#TITLE:Faraway;
#SUBTITLE:;
#ARTIST:Debbie Loeb;
#TITLETRANSLIT:;
#SUBTITLETRANSLIT:;
#ARTISTTRANSLIT:;
#GENRE:;
#CREDIT:;
#MUSIC:Faraway.ogg;
#BANNER:Faraway.png;
#BACKGROUND:Faraway-bg.png;
#CDTITLE:;
#SAMPLESTART:68.213;
#SAMPLELENGTH:12.000;
#SELECTABLE:YES;
#OFFSET:-0.180;
#BPMS:0.000=140.000;
#STOPS:;
#BGCHANGES:;
#FGCHANGES:;

//--------------- dance-single - ----------------
#NOTES:
     dance-single:
     :
     Beginner:
     1:
     0,0,0,0,0:
0000
0000
1001
0000
,
0000
0000
0001
0000
,
0000
0000
0100
0000
,
0000
0000
0010
0000
,
0000
0000
1001
0000
,
0000
0000
0100
0000
,
0000
0000
0010
0000
,
0000
0000
1000
0000
,
0000
0000
1001
0000
,
0000
0001
0000
0000
,
0000
1000
0000
0000
,
0000
0001
0000
0000
,
0000
0000
1001
0000
,
0000
0001
0000
0000
,
0000
1000
0000
0000
,
0000
0001
0001
0000
,
0000
0000
1001
0000
,
0000
0000
1000
0000
,
0000
0000
0001
0000
,
0000
0000
0100
0000
,
0000
0000
0010
0000
,
0000
0000
1000
0000
,
0000
0000
0100
0000
,
0000
0000
0010
0000
,
0000
0000
1001
0000
,
0000
0000
0001
0000
,
0000
0000
0100
0000
,
0000
0000
0010
0000
,
0000
0000
1000
0000
,
0000
0000
0001
0000
,
0000
0000
0100
0000
,
0000
0000
0001
0001
,
0000
0000
1001
0000
,
0000
0000
1000
0000
,
0000
0000
0010
0000
,
0000
0000
1000
0000
,
0000
0000
1001
0000
,
0000
0000
0001
0000
,
0000
0000
0100
0000
,
0000
0000
0010
0000
,
0000
0000
1000
0000
,
0000
0000
0001
0000
,
0000
0000
0100
0000
,
0000
0000
0010
0000
,
0000
0000
0100
0000
,
0000
0000
0010
0000
,
0000
0000
1000
0000
,
0000
0000
0001
0000
,
0000
0000
1001
0000
,
0000
0000
1000
0000
,
0000
0000
0001
0000
,
0000
0000
0100
0000
,
0000
0000
1000
0000
,
0000
0000
0001
0000
,
0000
0000
0100
0000
,
0000
0000
0001
0000
;

//--------------- dance-single - ----------------
#NOTES:
     dance-single:
     :
     Easy:
     4:
     0,0,0,0,0,0,0,0,0,0,0,0,0,0,0,0,0,0,0,0,0,0:
0000
0000
1000
0000
,
0001
0000
0100
0000
,
0010
0000
1000
0000
,
0010
0000
0100
0000
,
0001
0000
1001
0000
,
1000
0000
0010
0000
,
0100
0000
0001
0000
,
1000
0000
0001
0000
,
0000
0000
1001
0010
,
0000
0100
0000
0010
,
0000
1000
0000
0001
,
0000
0100
0000
0010
,
0000
1000
1001
0010
,
0000
1000
0000
0001
,
0000
0100
0000
0010
,
0000
1000
1000
0000
,
0001
1000
1001
0000
,
1000
0010
0000
1000
,
0000
0010
0000
0100
,
0000
0010
0000
1000
,
0000
0001
0000
1000
,
0000
0001
0000
0100
,
0000
0010
0000
1000
,
0000
0001
0000
1000
,
0000
0001
1001
1000
,
0000
0010
0000
0100
,
0000
0100
0000
0010
,
0000
0010
0000
1000
,
0000
0100
0000
1000
,
0010
0100
0000
0001
,
0010
0010
0000
0001
,
0000
0100
0000
0010
,
1000
0001
1001
0010
,
0000
0100
0000
0001
,
0000
1000
0000
0010
,
0000
1000
0000
0010
,
0000
1000
0000
0001
,
0000
1000
0000
0010
,
0000
1000
0000
0001
,
0000
0100
0000
0010
,
1000
0001
1001
1000
,
0000
0010
0000
0100
,
0000
0010
0000
1000
,
0000
0001
0000
0010
,
0000
0100
0000
1000
,
0000
0010
0000
0100
,
0000
0001
0000
1000
,
0000
0001
1000
0010
,
0100
0001
1001
1000
,
0000
0010
0000
0100
,
0000
0001
0000
1000
,
0000
0010
0000
0100
,
0000
0001
0001
1000
,
0000
0010
0000
0100
,
0000
0001
0000
1000
,
0000
0010
0010
0000
,
0100
0001
0000
0000
;

//--------------- dance-single - ----------------
#NOTES:
     dance-single:
     :
     Medium:
     7:
     0.371463,0.407191,0.185732,0,0,252,234,18,0,0,0,0.371463,0.407191,0.185732,0,0,252,234,18,0,0,0:
0000
0000
0000
0000
1001
0000
0000
0001
,
0000
1000
0000
0001
0000
1000
0000
0100
,
0000
0100
0010
0000
0000
0000
0000
0000
,
0000
0001
0000
0010
0000
0100
0000
1000
,
0000
0000
0001
0010
0001
0000
0000
0000
,
0000
0100
0000
1000
0000
0010
0000
0100
,
0000
0001
1000
0000
0000
0000
0000
0000
,
0000
0000
0001
0010
0001
0000
0000
1000
,
0000
0100
0010
0000
0110
0000
0010
0000
,
0100
1000
0000
0010
0000
0100
0000
0001
,
0000
0100
0010
0000
1000
0000
1010
0000
,
0001
1000
0000
0100
0000
0010
0000
0100
,
0000
0000
1000
0001
1000
0000
0000
0000
,
0000
0010
0000
0100
0000
1000
0000
0001
,
0000
0100
0001
0000
0010
0000
0110
0000
,
1000
0000
1000
0100
0010
0000
0010
0000
,
0001
0000
1000
0001
1000
0000
0001
0000
,
0100
0001
0010
0011
,
0100
0000
1000
0000
1100
0000
1000
0100
,
0000
0100
0000
1000
0100
0000
0100
0010
,
0000
0010
0000
0010
0100
0000
1000
0001
,
0001
0001
1000
0110
,
0000
0000
0000
1000
0100
1000
0000
0001
,
0000
0100
0000
0001
1000
0000
0100
0000
,
0010
0100
0000
0001
0100
0000
0000
0001
,
1000
0001
0000
1000
0000
0001
0000
0100
,
0000
0001
0000
1000
0001
0000
0000
1000
,
0100
0010
0000
0001
0000
0100
0000
0010
,
0000
1000
0000
0001
1000
0000
1001
0000
,
1000
0100
0010
0000
0001
0000
0100
0000
,
0010
1010
1000
0010
,
0110
0100
0010
1000
,
1000
0100
1000
0000
0001
0000
1000
0000
,
0001
0100
0001
0000
1000
0000
0100
0000
,
0010
0100
1000
0000
0001
0000
0000
0001
,
0000
1000
0000
0001
0010
0000
0100
0000
,
1000
0010
0100
0001
0010
0000
0011
0000
,
0001
0000
1000
0100
0010
0000
0011
0000
,
0100
1000
0100
1000
,
0001
0100
0001
1000
,
1000
1001
0001
1001
,
0001
0000
0001
1000
0010
0100
0010
0000
,
1000
0000
0000
1000
0100
1000
0000
0001
,
0000
0010
0000
0100
1000
0000
1001
0000
,
1000
0100
0010
0100
1000
0000
1010
0000
,
1000
0000
0010
0100
0000
0000
1010
0000
,
0000
0101
0010
1000
,
0000
0000
0000
1000
0001
0000
0001
1000
,
0000
0100
0000
0010
0000
0000
0100
0000
,
0000
0001
0000
0100
0000
1000
0000
0001
,
0000
1000
0001
0000
0000
0000
0000
0000
,
0000
1000
0000
0100
0000
0010
0000
0001
,
0000
0000
0010
0100
0010
0000
0000
0000
,
0000
1000
0000
0100
0000
0010
0000
0001
,
0000
0010
0100
0000
0000
0000
0000
0000
,
0000
0000
1000
0001
1000
0000
0000
0100
,
0000
0010
0001
0100
0000
0000
0000
0000
;

//--------------- dance-single - ----------------
#NOTES:
     dance-single:
     :
     Hard:
     10:
     0.508551,0.523531,0.216687,0,0.108343,345,324,21,0,0,0,0.508551,0.523531,0.216687,0,0.108343,345,324,21,0,0,0:
0000
0000
1001
0000
,
0000
0001
0000
0100
0000
0001
0000
0100
,
0000
0000
0010
0000
1000
0000
0000
0000
0001
0000
0000
0000
1000
0000
0000
1000
,
0000
0010
0000
0100
0000
0001
0000
1000
,
0000
0000
0001
0000
0010
0000
0100
0000
1100
0000
0000
0000
1000
0000
0000
0001
,
0000
1000
0000
0100
0000
0010
0000
0001
,
0000
0000
1000
0000
0001
0000
0000
0000
0100
0000
0000
0000
0010
0000
0000
0010
,
0000
1000
0100
0010
0001
0000
0100
0010
,
1000
0100
0010
0001
1000
0100
0001
0100
,
1000
0010
0100
0001
0000
1000
0010
0100
,
0000
0100
0001
0000
0001
0100
0010
1000
,
0001
0100
1000
0100
0000
0001
1000
0010
,
0100
0000
0001
0000
0010
0000
0100
0000
1100
0000
0000
0000
1000
0000
0000
0001
,
0000
1000
0010
1000
0000
0001
0100
0001
,
0000
0000
1000
0000
0010
0000
0100
0000
0001
0000
0000
0000
1000
0000
0000
0010
,
0000
1000
0001
0010
0001
0000
1000
0100
,
0000
0010
0001
0100
0101
0000
0010
1000
,
0001
0000
0000
0000
0110
0000
0000
0000
1000
0000
0100
0000
0010
0000
0000
0001
,
0000
1000
0010
0100
0001
0000
0101
0100
,
0000
0010
1000
0100
0010
0000
0001
1000
,
0000
0010
0000
0100
0001
1000
0010
0100
,
0001
0000
0000
0000
1001
0000
1000
0000
0010
0000
0000
0000
1010
0000
0000
1000
,
0000
0010
0100
0001
0100
0010
1000
0001
,
0000
0100
0010
1000
0001
0000
0010
0000
,
0001
0100
0001
0100
0101
0000
0001
1000
,
0001
0100
0001
0010
0000
0100
1000
0010
,
0000
0100
0001
0010
0000
0100
1000
0010
,
0100
0001
0010
0100
0000
0010
0001
1000
,
0000
0100
0010
0100
1000
0100
0010
0000
,
0001
0100
0010
1000
0001
0000
0010
0001
,
0100
1010
0000
0011
,
0000
0000
1001
0000
1000
0010
0100
0001
,
0010
0000
0001
1000
0001
1000
0001
0000
1000
0000
0010
0000
0100
0000
0000
0001
,
0000
0000
0010
0000
0001
0000
0100
0000
0001
0000
1000
0000
0001
0000
0000
0010
,
0000
0010
0100
1000
0100
0000
1000
0100
,
0000
0000
1001
0000
0000
0000
0101
0000
0000
0000
0001
0000
0100
0000
0000
0010
,
0000
0000
1000
0000
0001
0000
0000
0000
1001
0000
0000
0000
0001
0000
0000
0100
,
0000
0001
0010
0001
1000
0001
0011
0000
,
0001
1001
1000
1010
,
0010
0000
0000
0000
0110
0000
0000
0000
0100
0000
0001
0000
0010
0000
0000
0100
,
0000
0000
1000
0000
0010
0000
0100
0000
0001
0000
0000
0000
0001
0000
0000
1000
,
0000
0000
0010
0000
0100
0000
0000
0000
0001
0000
1000
0000
0001
0000
0000
0001
,
0000
0100
0010
1000
0010
0100
0001
1000
,
0000
0000
0010
0000
0000
0000
0100
0000
0001
0000
0010
0000
0001
0000
0000
0100
,
0000
0010
1000
0100
0001
0100
1000
0000
,
0010
0000
1001
0001
0000
1000
0001
0100
,
0010
1000
0010
0000
1000
0100
0010
0000
,
0001
0100
0010
1000
0100
0000
0010
0001
,
0000
0000
0100
0000
0000
0000
0010
0000
1010
0000
0000
0000
1000
0000
0000
0001
,
0000
0100
0000
0010
0000
1000
0000
0100
,
0000
0000
0010
0000
0001
0000
0000
0000
0100
0000
0000
0000
0010
0000
0000
0010
,
0000
1000
0000
0001
0000
0100
0000
0010
,
0000
0000
0000
0000
1000
0000
0001
0000
0100
0000
0000
0000
0010
0000
0000
1000
,
0000
0001
0000
0100
0000
0010
0000
1000
,
0000
0000
0100
0000
0010
0000
0000
0000
0001
0000
0100
0000
0010
0000
0000
0010
,
0000
1000
0001
0010
0001
0000
0000
0010
,
0000
0001
0100
0001
0000
0000
0000
0000
;
