#TITLE:Endless Journey;
#SUBTITLE:;
#ARTIST:L.V.4;
#TITLETRANSLIT:;
#SUBTITLETRANSLIT:;
#ARTISTTRANSLIT:;
#GENRE:;
#CREDIT:;
#MUSIC:Endless Journey.ogg;
#BANNER:;
#BACKGROUND:;
#CDTITLE:;
#SAMPLESTART:52.957;
#SAMPLELENGTH:13.020;
#SELECTABLE:YES;
#OFFSET:-4.980;
#BPMS:0.000=145.000;
#STOPS:;
#BGCHANGES:;
#FGCHANGES:;

//--------------- dance-single - ----------------
#NOTES:
     dance-single:
     :
     Beginner:
     1:
     0,0,0,0,0:
0000
0000
0000
0000
,
1000
0000
0001
0000
,
0200
0300
0020
0030
,
1000
0000
0001
0000
,
2000
0000
3000
0000
,
0002
0003
1000
0000
,
0020
0030
2000
3000
,
0001
0000
1000
0000
,
0010
0000
0000
0000
,
1001
0000
1000
0000
,
0000
0000
0001
0000
,
1000
0000
0010
0000
,
0000
0000
0100
0000
,
0001
0000
1000
0000
,
0000
0000
1000
0000
,
0010
0000
0100
0000
,
0001
0000
1000
0000
,
1001
0000
0000
0000
,
1001
0000
0000
0000
,
1001
0000
1001
0000
,
0010
0010
0010
0000
,
1001
0000
0000
0000
,
1000
0000
0000
0001
,
0000
1000
0000
0010
,
0000
0000
0000
0100
,
0000
0001
0000
0000
,
0100
0000
0000
0000
,
0010
0000
0000
0000
,
0002
0003
1000
0000
,
0001
0000
1000
0000
,
0001
0000
0100
0000
,
0000
0010
0000
1000
,
0000
0000
0000
0001
,
0000
1000
0000
0100
,
0000
0010
0000
0100
,
0000
1000
0000
0001
,
0001
0000
0000
1000
,
1000
0000
0000
0001
,
0000
0000
0000
0000
,
0100
0000
0000
0010
,
0000
0000
0000
0000
,
1000
0000
0000
0001
,
0000
0000
0000
0000
,
0100
0000
0000
0000
,
0010
0000
1000
0000
,
1001
0000
0001
0000
,
0000
0000
1000
0000
,
0001
0000
0100
0000
,
0000
0000
0000
0000
,
0110
0000
0010
0000
,
0000
0000
0000
0000
,
1000
0000
0001
0000
,
0000
0000
0000
0000
,
1001
0000
0100
0000
,
0010
0000
0000
0000
;

//--------------- dance-single - ----------------
#NOTES:
     dance-single:
     :
     Easy:
     4:
     0,0,0,0,0:
0000
0000
0000
0000
,
2001
0000
3002
0203
,
0320
0000
2030
0000
,
3002
0000
0203
0320
,
2030
0000
0000
3010
,
2000
0000
3002
0203
,
0320
0000
2030
0000
,
3002
0000
0203
0320
,
1030
0001
1000
0010
,
1001
1000
0001
1000
,
0000
0001
0000
0000
0100
0000
0000
0000
,
0010
1000
0001
1000
,
0000
0010
0000
0000
1000
0000
0000
0000
,
0200
1300
0010
1000
,
0001
0100
0010
1000
,
0100
0100
0010
0001
,
1000
0010
0100
0001
,
1001
1000
0000
0000
,
1001
0000
0000
0000
,
0110
0000
1001
0000
,
1000
0010
0100
0001
,
2000
3000
0000
0000
,
0001
1000
0010
1000
,
0000
0001
1000
0010
,
0200
0000
0300
0001
,
1000
0010
1000
0010
,
0100
0001
0010
0001
,
0100
0010
1000
0100
,
0010
0010
0010
0000
,
1001
0001
0100
0010
,
1000
0100
0010
0001
,
0000
1000
0010
1000
,
0002
0000
0003
1000
,
0001
0100
0001
0010
,
0001
0100
0010
1000
,
0100
0010
0001
0100
,
0020
0000
0030
1000
,
0001
0000
1000
0000
0001
0000
0000
0100
,
0000
0010
0000
1000
0000
0001
0000
0000
,
0100
0000
0010
0000
1000
0000
0000
0100
,
0000
0010
0000
0100
0000
0010
0000
0000
,
0001
0000
1000
0000
1000
0000
0000
0001
,
0000
0100
0000
0100
0000
0100
0000
0000
,
0010
1000
0001
0100
,
0010
1000
0100
0010
,
1001
1000
0001
1000
,
0000
0010
0000
0000
1000
0000
0000
0000
,
0100
0010
0001
0100
,
0000
0010
0000
0000
1000
0000
0000
0000
,
1001
0001
0100
0010
,
0000
1000
0000
0000
0001
0000
0000
0000
,
1000
0001
1000
0001
,
0000
1000
0000
0000
0001
0000
0000
0000
,
2002
0000
3003
0000
;

//--------------- dance-single - ----------------
#NOTES:
     dance-single:
     :
     Medium:
     7:
     0.358,0.47,0.312,0.211,0.05:
0000
0000
0000
0000
,
1001
0000
0000
0000
0001
0100
0001
0000
,
2001
0000
3010
0000
,
0200
0000
0000
0000
0301
0010
0100
1000
,
0002
0000
0000
0000
,
2003
0000
0000
0000
3010
0100
0010
0000
,
2002
0003
0020
0030
,
0002
0000
3003
0000
1000
0001
0100
0000
,
2002
0000
3003
0000
,
1000
0000
0001
0000
0100
0000
0010
0010
,
0000
0000
1001
0000
0000
0000
0000
0000
0100
0000
0000
1000
0000
0000
0000
0000
,
0001
0000
0100
0000
0010
0000
1000
1000
,
0000
0000
1001
0000
0000
0000
0000
0000
0001
0000
0000
1000
0000
0000
0000
0000
,
0001
0000
0100
0000
0010
0010
0000
1000
,
1000
0000
1001
0000
0000
0000
0000
0000
0001
0000
0000
0100
0000
0000
0000
0000
,
1001
0000
0101
0000
1010
0000
1000
1000
,
0000
0000
1001
0000
0000
0000
0000
0000
0001
0000
0000
0100
0000
0000
0000
0000
,
1001
1001
0000
0000
0000
0000
0000
0000
,
0011
0011
0000
0000
0000
0000
0000
0000
,
1100
1100
0000
0000
1001
1001
0000
0000
,
1100
0011
1001
0110
,
2000
0000
0000
0000
,
3001
0100
0010
1000
0001
0000
0000
0000
,
0000
1000
0000
0001
,
1000
0000
0000
1001
,
0000
1000
0001
0100
,
0010
1000
0001
1001
,
0000
0000
1000
0000
0100
0000
0010
0001
,
0200
0000
0000
0310
,
1001
0000
1000
0000
0001
0000
0100
0010
,
1000
0000
0001
0010
0001
0000
1000
0001
,
0000
0000
1000
0000
0001
0000
0100
0010
,
2000
0000
0000
0000
0000
0000
0001
3001
,
0100
0010
1000
0000
0001
0000
0100
0010
,
1000
0001
0010
0000
0100
0000
1000
0001
,
0000
0000
1000
0000
0010
0000
0000
0100
0000
0100
0000
0000
0001
0000
0100
0000
,
0002
0000
0000
0000
0003
0000
0010
0100
,
1000
0001
0100
0000
0000
0000
0000
0000
,
0010
1000
0001
0010
0100
0000
1000
1000
,
0000
0000
0001
0000
0100
0000
0010
1000
,
0020
0000
0000
0000
0000
0000
1030
1000
,
0001
0000
0100
0000
0010
0000
0000
1000
0000
0100
0000
0000
0010
0000
0001
0000
,
0100
0000
0010
0000
1000
0000
0000
0001
0000
0100
0000
0000
0010
0000
1000
0000
,
0001
0001
0100
0100
0010
0010
1000
1000
,
2002
0000
3003
1000
,
0001
0000
0100
0000
0010
0000
1000
0001
,
0000
0000
0000
0000
,
1000
0000
0010
0000
0100
0000
0001
0020
,
0000
0000
0000
0030
,
0001
0000
1000
0000
0010
0000
0100
0002
,
0000
0000
0000
0003
,
1000
0000
0010
0000
0100
0000
0001
2000
,
0000
0000
0000
3000
,
1001
0000
1100
0000
1001
0000
0001
2000
,
0000
0000
0000
3000
,
1001
0000
0000
0000
;

//--------------- dance-single - ----------------
#NOTES:
     dance-single:
     :
     Hard:
     9:
     0.545,0.543,0.543,0.201,0.292:
0000
0000
0000
0000
1000
0001
1000
0001
1000
0001
1000
0001
1000
0001
1000
0001
,
1000
0000
1000
0001
0100
0001
0101
0000
,
0001
0000
1001
1000
0010
0100
0001
1000
,
0002
0000
0000
1003
0100
0010
0001
0100
,
0002
0000
0000
0000
0000
0000
0000
0000
0003
0000
0000
1000
0001
0000
1000
0000
,
0002
0000
0000
0000
0013
0100
0010
0100
,
2000
0000
0000
0010
0020
0030
0000
0001
,
0002
0000
3003
0000
1000
0001
0100
0001
,
1000
0000
0100
0000
0000
0000
0100
0000
0001
0000
0000
0100
0000
0000
0000
0000
,
1100
0000
0110
0000
1001
0000
0010
1001
,
0000
0000
0002
0000
0000
0000
0000
0000
0100
0000
0000
0103
0000
0000
0000
0000
,
0101
0000
0110
0000
1010
0000
1000
1001
,
0000
0000
0020
0000
0000
0000
0000
0000
0001
0000
0000
0031
0000
0000
0000
0000
,
0101
0000
0000
0000
0110
0000
0000
0000
1000
0000
0001
0000
0000
0010
1000
0000
,
1000
0000
0001
0000
0000
0000
0001
0000
1000
0000
0000
0100
0000
0000
0000
0000
,
1001
0000
0101
0000
1010
0000
1000
1000
,
0000
0000
1001
0000
0000
0000
1000
0000
0001
0100
0000
0100
0000
0000
0000
0000
,
1001
0000
1001
0000
1000
0010
0000
1000
0000
0000
0001
0000
0010
0000
0001
0000
,
1000
0010
0000
1000
0000
0010
0000
1000
0000
0001
0000
1000
0010
0000
0010
0000
,
1000
0000
0001
0100
0000
0100
0000
0010
1000
0000
1000
0010
0000
0010
0000
0000
,
1000
0010
1000
0010
1000
0010
1000
0010
1000
0010
1000
0010
1000
0000
0000
0000
,
2002
0000
0000
3003
,
0001
0100
0010
1000
0001
0000
1000
0001
,
0000
0000
0001
0000
1000
0000
0000
0010
0000
0010
0000
0000
0100
0000
0002
0000
,
2000
0000
0000
0000
3003
0000
1000
0001
,
0000
1000
0100
0010
0001
1000
0010
0100
,
0001
1000
0100
0001
0100
0010
0001
1000
,
0010
0100
0001
0100
0001
1000
0100
0010
,
0002
0000
0000
0013
,
1001
0000
0000
0000
1001
0000
0000
0100
0000
0100
0000
0000
0010
0000
1000
0000
,
1000
0001
0100
0100
0100
0000
1000
0001
,
0000
0000
1000
0000
0001
0100
0000
0010
0000
0100
0000
0010
1000
0000
0010
0000
,
2000
0000
0000
0000
0000
0000
0001
3001
,
0100
0000
0010
0000
1000
0000
0000
1001
0000
1001
0000
0000
0001
0000
0010
0000
,
1000
0000
0010
0000
0001
0000
0000
1100
0000
1100
0000
0000
1000
0000
0001
0000
,
0000
0000
1000
0000
0010
0000
0000
0100
0000
0100
0000
0000
0001
0000
0100
0000
,
0002
0000
0003
0000
,
1001
0000
1100
0000
1001
0000
0001
1010
,
0000
1100
0000
1010
0000
1001
0000
0100
,
1100
0000
1001
0000
1010
0000
0100
1010
,
0000
1001
0000
1100
0000
0011
0001
0100
,
1001
0000
1100
0000
1001
0000
1000
0001
,
0100
0000
0010
0000
1000
0000
0000
0001
0000
0100
0000
0000
0010
0000
1000
0000
,
0001
0001
0100
0100
0010
0010
1000
1000
,
0001
0100
0001
0100
0010
1000
0010
1000
0010
0000
0000
0000
0000
0000
0000
0000
,
1001
0000
1100
0000
1001
0000
0001
1000
,
0000
0000
0100
0000
0000
0000
2000
0000
0100
0000
0000
3100
0000
0000
0000
0000
,
0011
0000
1001
0000
0110
0000
0001
1001
,
0000
0000
1000
0000
0000
0000
0002
0000
1000
0000
0000
1003
0000
0000
0000
0000
,
1000
0000
0101
0000
1000
0000
1010
1000
,
0000
0000
0001
0000
0000
0000
2000
0000
0100
0000
0000
3100
0000
0000
0000
0000
,
0001
0000
1001
0000
1000
0000
1100
0010
,
0000
0000
1000
0000
0000
0000
0001
0000
1000
0001
0000
0001
1000
0000
0010
0000
,
2002
0000
0000
0000
,
3003
0000
0000
0000
;

//--------------- dance-single - DR BU ----------------
#NOTES:
     dance-single:
     DR BU:
     Challenge:
     10:
     0.704,0.734,0.272,0.181,0.76:
0000
0000
0000
0000
0000
0000
0000
0000
1000
0100
1000
0100
0010
0001
0010
0001
,
0020
0000
0000
0000
0000
0000
0100
0000
0130
0000
0100
0000
1000
0100
1000
0000
,
0002
0000
0103
0100
0002
0000
1003
1000
,
0001
0000
1000
0010
1000
0000
0001
0000
0001
0000
1000
0010
1000
0000
0100
0000
,
0010
0000
0001
0000
0000
0000
1000
0000
0000
0000
0000
0001
0100
0000
0100
0000
,
0201
0000
0000
0000
0301
0000
0010
0000
0100
0000
1000
0000
0001
0100
0001
0000
,
2000
0000
0010
3010
1010
0000
0100
0001
,
1000
0000
0000
0000
2001
0000
0010
0000
3010
0000
0100
0001
0100
0000
0010
0000
,
1000
0000
0001
0000
0000
0000
0001
0000
0100
0010
0000
0010
1000
0000
0001
0000
,
1001
0000
1100
0000
1001
0000
0011
0101
,
0000
0000
0001
0000
0000
0000
1000
0000
0001
0100
0000
0010
1000
0000
0001
0000
,
1001
0000
1100
0000
0101
0000
0011
1001
,
0000
0000
0001
0000
0000
0000
0100
0000
0010
1000
0000
1000
0001
0000
0100
0000
,
1002
0000
0000
0000
0100
0000
0000
0000
1000
0000
1003
0000
0000
0010
0100
0000
,
0001
0000
1000
0000
0000
0000
0010
0000
0100
0001
0000
1000
0001
0000
0010
0000
,
0100
0000
1000
0100
1000
0000
0001
0010
0001
0000
1000
0000
0001
0000
0001
0000
,
0100
0000
0010
0000
0000
0000
0010
0000
1000
0001
0000
1000
0010
0000
1000
0001
,
1000
0100
0010
0000
0001
0100
0000
0010
0000
0000
1000
0000
0100
0000
0010
0000
,
0001
0100
0000
0100
0000
0010
0000
0010
0000
1000
0000
1000
0001
0000
1000
0000
,
1001
0000
0001
0100
0000
0010
0000
1000
0010
0000
0100
0001
0000
1000
0000
0100
,
0010
0001
0010
0001
1000
0010
1000
0010
0100
0001
0100
0001
2000
0000
0000
0000
,
3001
0000
1000
0000
0001
0100
0000
0010
0000
1000
0000
0001
1000
0000
0001
0000
,
0010
0000
0100
0000
1000
0001
1000
0000
0002
0000
0000
0000
1000
0000
1003
0000
,
0000
0000
0001
0000
0010
0100
0000
1000
0000
0100
0000
0010
0001
0010
0002
0000
,
0200
0000
0000
0000
0303
0000
0000
0000
0000
0000
0000
1000
0001
0000
0001
0000
,
1000
0000
1000
0000
0001
0100
0000
1000
0000
0100
0000
0001
0100
0000
0010
0000
,
1000
0000
0000
0000
0001
0000
0000
0000
0010
0000
0100
0000
0000
0000
1000
0000
0000
0000
0010
0000
0000
0000
1000
0000
0001
0100
0001
0000
0100
0000
0000
0000
,
0000
0000
0001
0000
1000
0010
0000
0010
0000
0010
0000
0010
0100
0001
1000
0000
,
1000
0000
0001
0000
1000
0000
0001
0000
1000
0000
0001
0000
1000
0000
0001
0000
1000
0000
0001
0000
1000
0000
0001
0000
1000
0000
0000
0000
0000
0000
0000
0000
0000
0001
0000
0000
0100
0000
0000
0000
0000
0000
0010
0000
0000
0000
0000
0000
,
1000
0100
1000
0000
0001
0100
0000
0010
0000
1000
0000
0001
1000
0000
1000
0000
,
0100
0000
0010
0000
0001
0100
0010
0100
0002
0000
0000
0000
0100
0000
0103
0000
,
0101
0000
0010
0000
1000
0010
0000
0100
0000
0100
0000
0010
1000
0010
1000
0000
,
0002
0000
0000
0000
0000
0000
0000
0000
0003
0000
0000
0100
0001
0000
0100
0000
,
0001
0010
0001
0000
1000
0010
0000
0100
0000
0001
0000
0100
0010
0000
1000
0000
,
0001
0000
0000
0000
0100
0000
0000
0000
0010
0000
1000
0000
0000
0000
0001
0000
0000
0000
1000
0000
0000
0000
0001
0000
0010
0100
0010
0000
0001
0000
0000
0000
,
0000
0000
1000
0000
0001
0100
0000
0010
0000
1000
0000
0001
0100
0010
1000
0000
,
0002
0000
0000
0000
1000
0000
0000
0000
0103
0000
0000
0100
0010
0000
1000
0000
,
1001
0000
0101
0000
1010
0000
2100
0100
,
0000
0001
0000
0010
0000
0001
0000
0010
,
3020
0000
1000
0000
0100
0000
0001
0001
,
0000
0000
0100
0000
0000
0000
1000
0000
0000
0000
0030
1000
0001
1000
0010
1000
,
0001
0010
0001
0000
1000
0010
0000
1000
0000
0001
0000
0100
0010
0000
1000
0000
,
0001
0000
0000
0000
0001
0000
0000
0000
0010
0000
0100
0000
0000
0000
0100
0000
0000
0000
1000
0000
0000
0000
1000
0000
0001
0010
0001
0000
1000
0000
0000
0000
,
1001
0001
0101
0100
0110
0010
1010
1000
,
0001
0010
0100
1000
0001
0100
0001
1000
0100
0010
0001
0010
0100
0000
1000
0000
,
1001
0000
0001
0010
0001
0000
1000
0100
1000
0000
0001
0010
0001
0000
0001
0000
,
0000
0000
1001
0000
0000
0000
0001
0000
0100
0010
0000
1000
0000
0000
0000
0000
,
0001
0000
1000
0100
1000
0000
0001
0010
0001
0000
1000
0100
1000
0000
1000
0000
,
0000
0000
0001
0000
0000
0000
0100
0000
0010
1000
0000
0001
1000
0000
0001
0000
,
1000
0000
0100
0010
0001
0000
0010
0100
1000
0000
0001
0010
0100
0000
0100
0000
,
0000
0000
1000
0000
0000
0000
1000
0000
0001
0100
0000
0100
0010
0000
1000
0001
,
1000
0000
0001
0100
0001
0000
1000
0010
1000
0000
0001
0100
0001
0000
0001
0000
,
0000
0000
1000
0000
0000
0000
1000
0000
0100
0010
0000
0001
0100
0000
0010
0000
,
2020
0000
0000
0000
,
3030
0000
0000
0000
;

//--------------- dance-double - 3 BU BR FS ----------------
#NOTES:
     dance-double:
     3 BU BR FS:
     Challenge:
     11:
     0,0,0,0,0:
00000000
00000000
00000000
00000000
00000000
00000000
00000000
00000000
00010000
00001000
00010000
00001000
01000000
00010000
00100000
00010000
,
01000000
00010000
00100000
01000000
10000000
00000000
01000000
00000000
00010000
00000000
00001000
00000000
00000010
00000001
00001000
00000010
,
00000100
00000001
00001000
00000100
00001000
00000100
00001000
00000000
00000100
00000000
00010000
00001000
00010000
00001000
01000000
00100000
,
10000000
00010000
01000000
00001000
00020000
00000000
00001000
00000000
00031000
00000000
00010000
00001000
00010000
00001000
00010000
00000100
,
00001000
00000100
00000010
00000001
00001000
00000100
00000000
00001000
00000100
00000000
00001000
00000001
00000100
00000010
00001000
00000100
,
00002000
00000000
00003001
00000010
00000100
00000000
00010000
00000000
00001000
00000000
00010000
00000000
00001000
01000000
00010000
10000000
,
00200000
00000000
01300000
00000000
00010000
00100000
00010000
01000000
00200000
00000000
10300000
00010000
10000000
01000000
00100000
00001000
,
00100000
00000000
00010000
00000000
00100000
00001000
00010000
00001000
00100000
00000000
00001000
00010000
00000100
00001000
00000100
00010000
,
00001000
00000000
00010000
00000010
00000100
00000000
00000010
00000000
00001000
00000100
00000000
00000100
000M0001
00000000
00001000
00000000
,
00001002
00000000
00010000
00000000
00001000
00000000
00010000
00010003
,
00001000
00000000
00010000
00001000
00100000
00000000
00010000
00000000
10000000
01000000
00000000
01000000
0001M000
00000000
10000000
00010000
,
20000000
00000000
00010000
00000000
00001000
00000000
00010000
30010000
,
01000000
00001000
00010000
00000000
00001000
00000000
00010000
00000000
00001000
00010000
00000000
00010M00
01000000
00000000
00100000
00000000
,
20100000
00000000
00000000
00000000
00010000
00000000
00000000
00000000
01000000
00000000
31000000
00000000
00100000
00010000
00001000
00010000
,
00100000
00001000
00010000
00000100
00001000
00000010
00000100
00000010
00001000
00000100
00000000
00M00100
00000001
00000000
00001000
00000000
,
00001200
00000000
00010000
00000000
00001000
00000000
00010000
00010300
,
00001000
00000000
01000000
00100000
01000000
00000000
00000100
00000000
00001000
00000100
00000000
000M0100
00000010
00000000
00001000
00000000
,
00000011
00000000
00000011
00000000
00001000
00000100
00000000
00001000
00000000
00000000
00000100
00000000
00010000
00000000
00010000
00000000
,
00001100
00000000
00010000
00000000
00001100
00000000
00010000
00000000
00000000
00000000
00001000
00000000
00000000
00000000
00100000
00000000
00000000
00000000
00010000
00000000
01000000
00100000
01000000
00000000
00010000
00000000
00000000
00000000
00010000
00000000
00000000
00000000
,
10100000
00000000
10100000
00010000
00000000
01000000
00000000
00010000
11000000
00000000
11000000
00100000
00000000
01000000
00000000
00001000
,
00010000
00001000
00010000
00000100
00001000
00000010
00000100
00000001
00000010
00000100
00000010
00000001
00002000
00000000
00000000
00000000
,
00003001
00000000
00001000
00000000
00000100
00001000
00000000
00000100
00000000
01000000
00000000
00010000
01000000
00000000
00100000
00000000
,
10000000
00000000
00100000
00000000
10000000
01000000
00100000
00000000
02000000
00000000
03000000
00000000
10000000
00000000
00010000
00000000
,
00000000
00000000
01000000
00000000
00001000
00010000
00000000
00000100
00000000
00010000
00000000
00000100
00001000
00000010
00000100
00000000
,
00000002
00000000
00000000
00000000
00000003
00000000
00000000
00000000
00000000
00000000
00000000
00010000
00001000
00000000
00010000
00000000
,
00000010
00000100
00000010
00010000
00000100
00001000
00000010
00000100
00000001
00000010
00000100
00001000
00000010
00000100
00000001
00001000
,
00000010
00000000
00000100
00000000
00000001
00000000
00000010
00000000
00000100
00000000
00001000
00000000
00000010
00000000
00000100
00000000
00000001
00000000
00000100
00000000
00000010
00000000
00010000
00000000
00001000
00010000
00001000
00000000
00100000
00000000
00010000
00000000
,
10000000
01000000
00100000
00010000
10000000
00100000
01000000
00010000
00100000
00001000
00010000
00001000
00100000
00010000
10000000
01000000
,
10000000
00000000
00100000
00000000
01000000
00000000
00010000
00000000
00100000
00000000
00010000
00000000
10000000
00000000
00010000
00000000
01000000
00000000
00100000
00000000
10000000
00000000
00010000
00000000
01000000
00000000
00000000
00000000
00000000
00000000
00000000
00000000
00000000
00100000
00000000
00000000
20000000
00000000
00000000
00000000
00000000
00000000
30010000
00000000
00000000
00000000
00000000
00000000
,
10000000
00100000
0M100000
00010000
00001000
00000100
0M000100
00000010
00000000
00001000
00000000
00000001
00001000
00000000
00000010
00000000
,
00010000
00000000
00001000
00000000
01000000
00100000
01000000
00001000
01000000
00000000
00000000
00000000
10100000
00000000
10000000
00000000
,
00010000
01000000
00010000
00000000
01000000
00010000
00000000
01000000
00000000
00001000
00000000
00010000
00001000
00010000
00000100
00000000
,
00002000
00000000
00003010
00000100
00000010
00000000
00001000
00000001
00001000
00000000
00000001
00000010
00000100
00000010
00000001
00000000
,
00001000
00000100
00001000
00000100
00010000
00001000
00010000
00000100
00000000
01000000
00000000
00001000
00100000
00010000
01000000
00100000
,
10000000
00000000
00000000
00000000
00010000
00000000
00000000
00000000
10000000
00000000
00100000
00000000
00000000
00000000
01000000
00000000
00000000
00000000
00010000
00000000
00000000
00000000
01000000
00000000
00010000
00100000
00010000
00000000
01000000
00000000
00000000
00000000
,
00010000
00100000
01000000
10000000
00010000
01000000
00000000
00000100
00000000
00001000
00000000
00000001
00000010
00000100
00001000
00000000
,
00000002
00000000
00001003
00000010
00001000
00000000
00000001
00000000
00000100
00000000
00000010
00000100
00000001
00000000
00001000
00000000
,
00000001
00000010
00000M10
00001000
00010000
00100000
M0100000
01000000
00000000
00010000
00000000
01000000
00001000
00000000
00010000
00000000
,
00000100
00000000
00001000
00000000
00000010
00000100
00000010
00001000
00000002
00000000
00000003
00000000
00001000
00000000
00000010
00000000
,
00001000
00000000
00000100
00000000
00010000
00001000
00000000
00010000
00000000
00001000
00000000
00100000
00010000
00100000
00001000
00000000
,
02000000
00000000
00010000
00000000
00000000
00000000
00001000
00000000
00000000
00000000
03010000
00100000
00001000
00010000
00001000
00000000
,
00010000
00001000
00M01000
00000010
00001000
000M1000
00100000
00001000
00000000
10000000
00000000
00010000
10000000
00000000
00010000
00000000
,
01000000
00000000
00000000
00000000
00001000
00000000
00010000
00000000
00001000
00000000
00010000
00000000
00000000
00000000
00000100
00000000
00000000
00000000
00001000
00000000
00000000
00000000
00000010
00000000
00001000
00000010
00000100
00000000
00000001
00000000
00000010
00000000
,
00000100
00000000
00000100
00000000
00000010
00000001
00000000
00000100
00000000
00000010
00000000
00001000
00000010
00001000
00000001
00000000
,
00001000
00000100
00000010
00000001
00001000
00000010
00000100
00000001
00001000
00000100
00000010
00000100
00010000
00000000
00000100
00000000
,
00012000
00000000
00100000
00000000
00010000
00000000
00100000
00103000
,
00000000
00000000
00001000
00000000
01000000
00100000
01000000
00000000
00010000
01000000
00000000
00010000
01000000
00000000
00001000
00010000
,
00002000
00000000
00100000
00000000
01000000
00000000
00010000
00013000
,
00000100
00000000
00001000
00000000
00000010
00000000
00000100
00000000
00000001
00001000
00000000
00000010
00000100
00000000
00000001
00000000
,
00001002
00000000
00010000
00000000
00000100
00000000
00010000
00010003
,
00001000
00010000
00001000
00000000
00010000
00000000
00001000
00000000
00100000
00010000
00000000
00100000
00010000
00000000
01000000
00000000
,
01000200
00000000
00010000
00000000
00001000
00000000
00001000
00001300
,
00000100
00010000
00000100
00000000
00010000
00000000
00001000
00000000
00010000
00001000
00000000
00010000
00000100
00000000
00001000
00000001
,
00000020
00000000
00000000
00000030
;
