#TITLE:Empire State Human;
#SUBTITLE:;
#ARTIST:The Human League;
#TITLETRANSLIT:;
#SUBTITLETRANSLIT:;
#ARTISTTRANSLIT:;
#GENRE:;
#CREDIT:;
#MUSIC:Empire State Human (Remastered 2003).ogg;
#BANNER:ban.png;
#BACKGROUND:bg.png;
#CDTITLE:;
#SAMPLESTART:0.000;
#SAMPLELENGTH:0.000;
#SELECTABLE:YES;
#OFFSET:-0.258;
#BPMS:0.000=132.668
,8.000=133.668
,12.000=134.000
,16.000=132.911
,24.000=132.700
,40.000=132.000
,48.000=132.851
,56.000=131.911
,88.000=133.058
,96.000=131.570
,104.000=132.000
,112.000=132.043
,120.000=131.387
,128.000=132.535
,136.000=131.374
,144.000=131.990
,152.000=131.511
,172.000=132.618
,180.000=131.230
,188.000=131.517
,216.000=132.691
,224.000=131.000
,232.000=132.000
,248.000=131.094
,256.000=131.779
;
#STOPS:;
#BGCHANGES:;
#FGCHANGES:;

//--------------- dance-single - ----------------
#NOTES:
     dance-single:
     :
     Beginner:
     4:
     0,0,0,0,0:
0000
0000
0000
0000
,
0000
0000
0000
0000
,
0000
0000
0000
0000
,
1000
0000
0000
0000
,
0000
0001
0000
1000
,
0000
0010
0000
0100
,
0000
0001
0000
1000
,
0000
0100
0000
0010
,
0000
0001
0001
0000
,
1000
0000
0000
0000
,
0000
0001
0001
0000
,
1000
0000
0000
0000
,
0000
0010
0010
0000
,
1000
0000
0000
0000
,
0000
0001
0001
0000
,
0100
0000
0000
0000
,
0000
0010
0010
0000
,
1000
0000
0000
0000
,
0000
0001
0001
0000
,
0100
0000
0000
0000
,
0000
0001
0001
0000
,
0100
0000
0000
0000
,
0000
0010
0010
0000
,
1000
1000
0000
0000
,
0010
0010
0010
0000
,
0100
0100
0100
0000
,
0001
0001
0001
0000
,
1000
1000
1000
0000
,
0010
0010
0010
0000
,
0100
0100
0100
0000
,
0001
0001
0001
0001
,
0001
0001
0001
0001
,
0001
0001
0001
0000
,
1000
1000
1000
0000
,
0010
0010
0010
0000
,
0100
0100
0100
0000
,
0001
0001
0001
0000
,
1000
1000
1000
0000
,
0010
0010
0010
0010
,
0010
0010
0010
0010
,
0000
0000
1000
0000
,
0001
0000
0000
0000
,
0000
0000
0100
0000
,
0010
0000
0000
0000
,
0000
0000
1000
0000
,
0001
0000
0100
0000
,
0000
0000
0001
0000
,
1000
0000
0001
0000
,
0000
1000
1000
0000
,
0001
0000
0000
0000
,
0000
0100
0100
0000
,
0000
0000
0000
0000
,
0000
0001
0001
0000
,
1000
0000
0010
0000
,
0000
0100
0100
0000
,
0000
0000
0000
0000
,
1000
1000
1000
0000
,
0001
0001
0001
0000
,
0100
0100
0100
0000
,
0010
0010
0010
0000
,
1000
1000
1000
0000
,
0001
0001
0001
0000
,
0100
0100
0100
0100
,
0100
0100
0100
0100
,
0100
0100
0100
0000
,
0010
0010
0010
0000
,
1000
1000
1000
0000
,
0001
0001
0001
0000
,
1000
1000
1000
0000
,
0001
0001
0001
0000
,
0010
0010
0010
0010
,
0010
0010
0010
0010
,
1001
0000
0000
0000
;

//--------------- dance-single - ----------------
#NOTES:
     dance-single:
     :
     Easy:
     7:
     0,0,0,0,0:
0000
0000
0000
0000
,
0000
0000
0000
0000
,
0000
0000
0000
0000
,
1000
0000
0000
0000
,
0000
0001
0000
1000
,
0000
0001
0000
0100
,
0000
0010
0000
1000
,
0000
0001
0000
1000
,
0000
0001
1000
0000
,
0001
0000
1000
0100
,
0001
0100
1000
0010
,
0100
0001
0000
1000
,
0000
0001
1000
0100
,
0010
0001
0000
1000
,
0000
0001
0100
1000
,
0100
0010
0000
0100
,
0000
0001
0001
0000
,
1000
0000
0001
0100
,
0010
1000
0001
0000
,
0100
0000
0001
1000
,
0100
0010
0010
0000
,
0100
0000
0010
0001
,
0100
0010
0010
0000
,
1000
0001
1000
0000
,
1001
1001
1001
0000
,
0110
0110
0110
0000
,
0011
0011
0011
0000
,
1100
1100
1100
0000
,
1001
1001
1001
0000
,
0101
0101
0101
0000
,
1001
1001
1001
1001
,
1001
1001
1001
1001
,
0110
0110
0110
0000
,
0011
0011
0011
0000
,
1100
1100
1100
0000
,
0101
0101
0101
0000
,
1010
1010
1010
0000
,
1001
1001
1001
0000
,
1010
1010
0110
0110
,
0101
0101
1001
1001
,
0001
1000
0000
0001
,
0000
0100
1000
1000
,
1000
0100
0000
1000
,
0000
0001
0000
1000
,
0000
0001
0000
0100
,
0000
0010
0000
1000
,
0000
0100
0000
0010
,
0000
0001
0000
1000
,
0001
1000
0010
1000
,
0001
0000
1000
0001
,
0100
0010
1000
0001
,
0000
1000
0000
0001
,
0100
0010
1000
0100
,
0010
0001
0100
0010
,
0000
1000
0001
0000
,
1000
0000
0001
0000
,
1001
1001
1001
0000
,
0101
0101
0101
0000
,
0011
0011
0011
0000
,
1100
1100
1100
0000
,
0110
0110
0110
0000
,
1001
1001
1001
0000
,
1001
1001
0110
0110
,
1001
1001
0110
0110
,
0101
0101
0101
0000
,
1010
1010
1010
0000
,
1001
1001
1001
0000
,
0101
0101
0101
0000
,
1001
1001
1001
0000
,
0110
0110
0110
0000
,
1001
1001
1001
1001
,
0110
1001
0110
1001
,
1001
0000
0000
0000
;

//--------------- dance-single - ----------------
#NOTES:
     dance-single:
     :
     Medium:
     10:
     0,0,0,0,0:
0000
0000
0000
0000
,
0000
0000
0000
0000
,
0000
0000
0000
0000
,
1000
0001
1000
0001
,
1000
0000
0001
0000
1000
0000
0010
0000
1000
0000
0100
0000
,
0010
0000
0001
0000
0100
0000
0010
0000
1000
0000
0010
0000
,
0100
0000
0001
0100
0000
0000
0010
0000
1000
0010
0000
0000
,
0100
0000
0001
0010
0000
0000
0100
0000
1000
0001
0000
0000
,
1000
0000
0001
1000
0000
0000
0010
0000
0000
0110
0000
0000
,
0100
0000
0001
0000
0000
1000
0010
0000
0000
0100
0000
0000
,
0001
1000
0100
0010
,
0100
0000
0100
0000
0000
0010
0000
0000
0000
1001
0000
0000
,
1000
0000
0000
0001
0000
1000
0010
0000
0100
0001
0000
0000
,
0100
0000
0010
0000
0000
1000
0000
0000
0000
1001
0000
0000
,
0000
0000
0000
0001
0000
0100
0010
0000
1000
0010
0000
0000
,
0100
0000
0001
0000
0000
1000
0000
0000
0000
1001
0000
0000
,
0000
0000
0000
1000
0000
0000
0001
0000
0100
0000
0000
0000
,
0001
0000
0100
0000
0000
0010
1000
0000
0000
0001
0000
0000
,
0100
0000
0000
0010
0000
0000
1000
0000
0000
0000
0000
0001
,
0100
0000
0010
0000
0000
1000
0001
0000
0000
1000
0000
0000
,
0010
0000
0100
0001
0000
0100
0010
0000
1000
0000
0000
0001
,
0100
0000
0001
0000
0000
1000
0000
0000
0000
1001
0000
0000
,
0000
0000
0001
1000
0000
0001
0100
0000
0010
0000
0000
0000
,
1000
0000
0001
0100
0000
0001
0000
0000
0000
1000
0000
0000
,
1001
0000
0000
0101
0000
0000
1001
0000
1000
0010
0000
0000
,
0110
0000
0000
0101
0000
0000
0011
0000
0001
0010
0000
0000
,
0011
0000
0000
1001
0000
0000
1100
0000
1000
0010
0000
0000
,
0110
0000
0000
0101
0000
0000
1001
0000
1000
0010
0000
0000
,
0110
0000
0000
0101
0000
0000
1001
0000
0000
1000
0000
1000
,
0001
1001
0101
0001
,
0011
0101
1001
0101
,
0011
1001
1010
1100
,
1001
0000
0000
0110
0000
0000
1001
0000
1000
0010
0000
0000
,
0110
0000
0000
0101
0000
0000
1001
0000
1000
0010
0000
0000
,
0110
0000
0000
0101
0000
0000
1010
0000
1000
0100
0000
0000
,
0011
0000
0000
1100
0000
0000
0011
0000
0001
0100
0000
0000
,
0110
0110
1001
0001
,
0100
0000
0000
1001
0000
0000
1001
0000
0001
1000
0000
0000
,
1010
1100
1010
0101
,
0011
0101
1001
0110
,
1000
0000
0001
1000
0000
0000
0010
0000
0100
0000
0001
0000
,
0100
1010
1000
0001
,
0100
0000
0010
1000
0000
0000
0001
0000
0100
0010
0000
0000
,
1000
0000
0100
0010
0000
0000
0001
0000
0100
0010
0000
0000
,
1000
0000
0001
1000
0000
0000
0010
0000
0100
0001
0000
0000
,
0010
0000
0100
1000
0000
0000
0001
0000
0100
0010
0000
0000
,
1000
0000
0001
1000
0000
0000
0010
0000
0100
0001
0000
0000
,
1000
0000
0100
0010
0000
0000
0001
0000
0100
0010
0000
0000
,
1001
0000
0000
1000
0000
0000
0001
0000
0100
0001
0000
0000
,
1000
0000
0001
0000
0000
1000
0100
0000
0000
0100
0000
0000
,
0100
0000
0000
1000
0000
0000
0001
0000
0001
0000
0000
0001
,
0000
1001
0000
0110
,
0000
1000
0001
0100
,
0010
1000
0100
0010
,
0000
0000
0000
1001
0000
0000
1000
0000
0001
0000
0000
0001
,
0000
0000
0000
0000
,
1001
0000
0000
1010
0000
0000
1001
0000
0001
0100
0000
0000
,
0110
0000
0000
1001
0000
0000
0110
0000
1000
0010
0000
0000
,
0110
0000
0000
0101
0000
0000
0110
0000
0010
1000
0000
0000
,
1100
0000
0000
1010
0000
0000
1100
0000
1000
0010
0000
0000
,
0110
0101
0110
0010
,
1010
1100
1001
0001
,
0101
0011
0101
1010
,
1100
1001
0110
1001
,
1010
0000
0000
1100
0000
0000
1010
0000
0100
0001
0000
0000
,
0011
0000
0000
0101
0000
0000
0011
0000
0001
1000
0000
0000
,
1100
0000
0000
1010
0000
0000
1100
0000
1000
0010
0000
0000
,
0110
0000
0000
1001
0000
0000
0110
0000
0100
0001
0000
0000
,
0011
0000
0000
1001
0000
0000
1010
0000
0000
1000
0001
1000
,
0001
0000
0000
1001
0000
0000
1010
0000
1000
0001
0000
0000
,
0011
1001
1100
1001
,
0110
1001
0110
1001
,
1001
0000
0000
0000
;

//--------------- dance-single - ----------------
#NOTES:
     dance-single:
     :
     Hard:
     13:
     0,0,0,0,0:
0000
0000
0000
0000
,
0000
0000
0000
0000
,
0000
0000
0000
0000
,
1000
0001
1000
0001
,
1000
0100
1000
0001
0100
0001
1000
0100
0010
0001
0100
0001
,
1000
0010
1000
0001
0100
0001
1000
0100
1000
0001
0100
0001
,
1000
0000
0001
0100
0001
0010
0001
0000
1000
0100
1000
0010
,
1000
0000
0001
0100
0010
1000
0001
0000
1000
0100
0010
0001
,
1000
0000
0001
0100
0000
0010
1000
0001
1000
0010
0000
1000
,
0001
0100
0010
1000
0000
0000
1001
0000
0000
0101
0000
0000
,
0110
0000
0010
1000
0000
1000
0100
0000
0100
0010
0000
0010
,
0001
0000
0001
1000
0000
0001
0100
0010
0100
0001
0000
1000
,
0100
1000
0001
0100
0000
0010
1000
0000
1000
0100
0000
0001
,
0100
0000
1000
0010
0000
0100
0001
0000
0010
0001
0000
0000
,
0011
0000
0001
0100
0000
0100
1000
0000
1000
0100
0000
0100
,
0001
0000
0001
0000
0000
1000
0001
0000
1000
0100
0000
0000
,
1100
0000
1000
0001
0100
0001
0100
0000
0010
1000
0100
1000
,
0001
0000
0100
0010
0000
1000
1001
0000
0000
0101
0000
0000
,
0011
0000
0001
0100
0000
0010
1000
0000
0000
0101
0000
0001
,
0100
0000
0010
1000
0100
1000
0001
0000
0100
0010
0100
0001
,
0100
0000
0010
1000
0000
1000
0100
0000
0010
0001
0000
1000
,
0001
0000
0100
0010
1000
0000
0001
0000
1000
0100
1000
0000
,
0001
0000
0001
0100
0000
0100
1000
0000
0100
0000
0000
0000
,
0011
0000
0001
0100
0000
0100
0000
0000
0000
0110
0000
0000
,
1001
0000
0000
1001
0000
0000
1001
0000
1000
0001
0100
0010
,
0100
0000
0000
0110
0000
0000
0110
0000
0010
1000
0100
0001
,
0100
0000
0000
1100
0000
0000
1100
0000
1000
0010
0100
0001
,
0010
0000
0000
0110
0000
0000
0110
0000
0100
1000
0100
0010
,
0001
0000
0000
1001
0000
0000
1001
0000
0001
0100
0010
1000
,
0001
0000
0000
0011
0000
0000
0011
0000
0001
0100
0010
1000
,
0001
1001
1001
0110
,
0110
0101
0101
1001
,
1010
0000
0000
1010
0000
0000
1010
0000
0010
1000
0001
0010
,
0001
0000
0000
1001
0000
0000
1001
0000
1000
0100
1000
0001
,
0100
0000
0000
0110
0000
0000
0110
0000
0010
1000
0100
0010
,
0001
0000
0000
0011
0000
0000
0011
0000
0001
0100
1000
0100
,
0001
0000
0000
1001
0000
0000
1001
0000
1000
0100
0010
0001
,
0100
0000
0000
0101
0000
0000
0101
0000
0001
0100
0010
1000
,
0001
0011
1001
1001
,
1100
1100
1001
1001
,
1000
0000
0001
0100
0010
1000
0100
0000
0010
0001
0100
0010
,
1000
0000
0001
0010
0100
1000
0001
0000
0000
1001
0000
0000
,
1000
0000
0001
0100
0010
1000
0100
0000
0010
0001
0100
0010
,
1000
0000
0001
0010
0001
0100
0001
0000
1000
0100
1000
0010
,
1000
0000
0001
0100
0010
1000
0100
0000
0010
0001
0100
0010
,
1000
0000
0001
0100
0001
0010
0001
0000
1000
0100
1000
0001
,
0100
0000
0010
1000
0100
1000
0001
0000
0100
0010
1000
0100
,
0010
0000
0001
0100
0010
1000
0001
0000
0010
0100
1000
0001
,
0100
0000
0100
0001
0000
0000
0001
0000
0000
0101
0000
0000
,
0100
0000
0010
0000
0000
1000
0010
0000
0000
1010
0000
0000
,
1000
0000
0000
0001
0000
0000
0100
0000
0010
1000
0000
0000
,
0010
0000
1000
0010
0000
0000
1000
0000
0100
0010
0100
0000
,
1000
0000
0001
0100
0000
0000
0010
0000
0000
1010
0000
0000
,
1000
0001
0100
0010
,
1000
0000
0001
0100
0010
1000
0001
0000
1000
0100
1000
0001
,
0100
0000
0010
1000
0100
1000
0001
0000
1000
0100
0010
0001
,
1000
0000
0000
1100
0000
0000
1100
0000
1000
0100
0001
0100
,
1000
0000
0000
1001
0000
0000
1001
0000
0001
0100
1000
0100
,
0001
0000
0000
0011
0000
0000
0011
0000
0001
0100
1000
0100
,
0010
0000
0000
1100
0000
0000
1100
0000
1000
0001
0010
0001
,
1000
0000
0000
1001
0000
0000
1001
0000
0000
1000
0010
0100
,
0001
0000
0000
0011
0000
0000
0011
0000
0001
0100
0010
1000
,
0001
1001
1001
0110
,
0110
0011
0011
1001
,
1000
0000
0001
0010
0001
0100
0010
0000
1000
0100
1000
0010
,
0100
0000
0001
0100
0010
1000
0001
0000
1000
0100
0010
0001
,
1000
0000
0001
0100
0001
0010
0001
0000
1000
0100
1000
0010
,
1000
0000
0001
0010
1000
0010
0001
0000
0100
0010
1000
0100
,
0010
0000
0001
1000
0010
1000
0001
0000
0100
0010
0100
0001
,
1000
0000
0001
0010
0001
0100
0001
0000
1000
0100
1000
0001
,
1000
1001
1001
1001
,
1001
1001
1001
1001
,
1001
0000
0000
0000
;

//--------------- dance-double - ----------------
#NOTES:
     dance-double:
     :
     Hard:
     15:
     0,0,0,0,0:
00000000
00000000
00000000
00000000
,
00000000
00000000
00000000
00000000
,
00000000
00000000
00000000
00000000
,
00010000
00001000
00010000
00001000
,
01000000
00100000
01000000
00010000
00100000
00001000
00010000
00000100
00010000
00000010
00001000
00000010
,
00000100
00000001
00000100
00000010
00001000
00000010
00000100
00000001
00000010
00000100
00010000
00001000
,
01000000
00100000
10000000
00010000
01000000
00001000
00010000
00000000
00001000
00010000
00000100
00010000
,
00000100
00000000
00001000
00000001
00000100
00000001
00001000
00000000
00000100
00010000
00000100
00010000
,
00000100
00000000
00010000
00001000
00000000
00001000
00100000
00000000
00100000
01000000
00000000
01000000
,
10000000
00000000
10000000
00010000
00000000
00010000
01000000
00000000
00000000
01010000
00000000
00000000
,
00011000
00000000
00010000
00001000
00000000
00010000
00000100
00000000
00001000
00000010
00000000
00000100
,
00000001
00000000
00000100
00000010
00000000
00001000
00000100
00010000
00001000
00010000
00000000
00001000
,
00100000
00001000
00010000
00001000
00000000
00100000
00001000
00000000
00100000
00010000
00000000
01000000
,
00100000
00000000
10000000
00000000
00000000
00010000
10000000
00000000
00010000
01000000
00010000
00100000
,
00010000
00100000
00001000
00010000
00000100
00000010
00000100
00001000
00000100
00001000
00000010
00001000
,
00000100
00010000
00001000
00100000
00010000
01000000
00010000
00000000
10000000
01000000
10000000
00010000
,
01000000
00000000
00100000
10000000
01000000
10000000
00010000
00000000
01000000
00010000
00100000
00000000
,
00001000
00000000
00001000
00010000
00000000
00000000
00011000
00000000
00000000
00101000
00000000
00000000
,
01001000
00000000
00001000
01000000
00000000
01000000
00010000
00000000
00010000
01000000
00010000
00100000
,
00001000
00000000
00010000
00000100
00001000
00000010
00001000
00000000
00000100
00001000
00000001
00000100
,
00000010
00000000
00000100
00000010
00000000
00001000
00000100
00000000
00010000
00000100
00000000
00010000
,
00001000
00000000
00010000
00001000
00000000
00000000
00010000
00000000
00000000
00010100
00000000
00000000
,
00000000
00000000
00000100
00010000
00000000
00010000
00000010
00000000
00001000
00000100
00000000
00000000
,
00010000
00000000
00001000
00010000
00000000
00001000
00000000
00000000
00000000
00000000
00000000
00000000
,
00011000
00000000
00000000
00100010
00000000
00000000
01000100
00000000
01000000
00000100
00100000
00010000
,
10000000
00000000
00000000
10001000
00000000
00000000
10000010
00000000
00000010
00010000
00000100
00001000
,
00000010
00000000
00000000
00100010
00000000
00000000
01000100
00000000
01000000
00001000
00100000
00000010
,
00000100
00000000
00000000
00000101
00000000
00000000
00010001
00000000
00001000
01000000
00100000
10000000
,
00001000
00000000
00000000
10001000
00000000
00000000
10000100
00000000
00000000
00010000
00000010
00000100
,
00000001
00000000
00000000
00010001
00000000
00000000
00010010
00000000
00001000
00010000
00001000
00010000
,
00001000
00011000
00100010
01000010
,
10000010
10000001
00100001
00010001
,
00001001
00000000
00000000
00100010
00000000
00000000
01000100
00000000
01000000
00010000
01000000
00001000
,
10000000
00000000
00000000
10001000
00000000
00000000
01000100
00000000
01000000
00000100
00100000
00001000
,
00010000
00000000
00000000
00010100
00000000
00000000
00010001
00000000
00010000
00001000
01000000
00100000
,
10000000
00000000
00000000
10010000
00000000
00000000
10000100
00000000
01000000
00001000
01000000
00001000
,
01000000
00000000
00000000
01000010
00000000
00000000
01000100
00000000
00000000
01000000
00001000
00010000
,
00001000
00000000
00000000
00011000
00000000
00000000
00010010
00000000
00010000
00000100
00001000
00000001
,
00001000
00001001
00010001
00100001
,
10000001
01000001
00100010
01001000
,
00100000
00000000
00001000
00010000
00001000
00010000
00001000
00000000
00100000
00001000
00100000
00001000
,
00100000
00000000
00001000
00010000
00001000
00010000
00001000
00000000
00000000
00011000
00000000
00000000
,
00010000
00000000
00000001
00000100
00000010
00010000
00001000
00000000
00010000
00001000
10000000
00100000
,
01000000
00000000
00100000
10000000
00010000
01000000
00001000
00000000
00010000
00001000
00010000
00000100
,
00010000
00000000
00001000
00010000
00000100
00010000
00001000
00000000
00100000
00010000
00100000
00001000
,
00100000
00000000
00010000
01000000
00100000
01000000
00010000
00000000
10000000
00100000
10000000
00010000
,
01000000
00000000
00010000
00100000
00001000
00010000
00001000
00000000
00010000
00001000
00010000
00000010
,
00000100
00000000
00000010
00001000
00000001
00001000
00000010
00000000
00000100
00000010
00010000
00001000
,
00010000
00000000
00000000
00011000
00000000
00000000
00001000
00000000
01000000
00100000
00000000
00000000
,
10000000
00000000
00010000
00000000
00000000
01000000
00001000
00000000
00000000
00011000
00000000
00000000
,
00010001
00000000
00000000
00001000
00000000
00000000
00000100
00000000
00010000
00000000
00000000
00001000
,
00010000
00000000
00001000
00100000
00010000
00100000
00001000
00000000
00010000
00000100
00010000
00001000
,
00010000
00000000
00001000
00010000
00000000
00000000
00001000
00000000
00000000
00100000
00000000
00000000
,
00001000
00010000
00000010
00000100
,
00000001
00000000
00000000
00001001
00000000
00000000
00000100
00000000
01000000
00000000
00000000
01000100
,
00000000
00000000
01000000
00100000
01000000
00100000
01000000
00000000
00100000
10000000
00100000
10000000
,
00010000
00000000
00000000
00110000
00000000
00000000
00100010
00000000
00100000
00001000
00010000
00000001
,
00001000
00000000
00000000
00001001
00000000
00000000
00100010
00000000
00100000
00001000
00100000
00010000
,
10000000
00000000
00000000
10001000
00000000
00000000
10010000
00000000
10000000
00001000
00010000
00001000
,
00010000
00000000
00000000
00010001
00000000
00000000
00011000
00000000
00001000
00010000
00001000
01000000
,
00100000
00000000
00000000
10100000
00000000
00000000
10001000
00000000
00000000
00010000
00000100
00001000
,
00000010
00000000
00000000
00001010
00000000
00000000
00001001
00000000
00000001
00000100
00000010
00000100
,
00000010
00000110
00001001
00010001
,
01000001
10000001
10001000
11000000
,
10010000
00000000
00000000
10001000
00000000
00000000
00100100
00000000
00100000
00000010
00100000
00000010
,
00100000
00000000
00000000
00011000
00000000
00000000
00100010
00000000
00100000
00001000
00100000
00001000
,
10000000
00000000
00000000
10001000
00000000
00000000
10010000
00000000
01000000
00001000
00010000
00000100
,
00010000
00000000
00000000
00010010
00000000
00000000
00011000
00000000
00001000
00100000
00010000
10000000
,
00100000
00000000
00000000
10100000
00000000
00000000
10010000
00000000
00000000
10000000
00001000
01000000
,
00001000
00000000
00000000
00011000
00000000
00000000
00101000
00000000
01000000
00100000
10000000
00100000
,
10000000
10001000
10000010
10000001
,
00100010
01000100
10001000
00011000
,
00011000
00000000
00000000
00000000
;
