#TITLE:Dream Layer;
#SUBTITLE:;
#ARTIST:Type41;
#TITLETRANSLIT:;
#SUBTITLETRANSLIT:;
#ARTISTTRANSLIT:;
#GENRE:;
#CREDIT:;
#MUSIC:Dream Layer.ogg;
#BANNER:Dream Layer.png;
#BACKGROUND:Dream Layer-bg.png;
#CDTITLE:;
#SAMPLESTART:29.987;
#SAMPLELENGTH:12.000;
#SELECTABLE:YES;
#OFFSET:-0.017;
#BPMS:0.000=90.000
,32.000=180.000
,60.000=90.000
,62.000=180.000
,254.000=45.000
;
#STOPS:;
#BGCHANGES:0.000=dreamlayer-bg.png=1.000=0=0=1,
60.000=inception.png=1.000=0=0=1,
62.000=dreamlayer-bg.png=1.000=0=0=1,
99999.000=-nosongbg-=1.000=0=0=0=StretchNoLoop====
;
#FGCHANGES:;

//--------------- dance-single - ----------------
#NOTES:
     dance-single:
     :
     Beginner:
     4:
     0.213,0.288,0.192,0,0:
0000
0000
0000
0000
,
0000
0000
0000
0000
,
1000
0000
0001
0000
,
1000
0000
0010
0000
,
1001
0000
0100
0100
,
0100
0000
0010
0010
,
0010
0000
1000
1000
,
1000
0000
0001
0000
,
1001
0000
0100
0000
,
1001
0000
0010
0000
,
0110
0000
0010
0000
,
0110
0000
0001
0000
,
1001
0000
1001
0000
,
0110
0000
0110
0000
,
0100
0100
0100
0100
,
0110
0001
1000
0000
,
0001
0000
1000
1000
,
1000
0000
0010
0000
,
0100
0000
0001
0001
,
0001
0001
0001
0000
,
1000
0000
0010
0010
,
0010
0000
0100
0000
,
0001
0000
1000
0000
,
0001
0000
0001
0000
,
1000
0000
0001
0000
,
0100
0000
0010
0000
,
1000
0000
0001
0000
,
1000
0000
0000
1001
,
0000
1001
0000
0110
,
0000
0110
0000
1001
,
0000
1001
0000
0000
,
0000
0000
1000
0000
,
0000
0000
0001
0000
,
0000
0000
1000
0000
,
0000
0000
0001
0000
,
0000
0000
0100
0000
,
0000
0000
0010
0000
,
0000
0000
1000
0000
,
0000
0000
0001
0000
,
0000
0000
0000
1001
,
0000
1000
0000
1000
,
0000
0001
0000
0001
,
0000
0100
0000
0100
,
0000
0000
0000
1001
,
0000
0001
0000
0001
,
0000
1000
0000
1000
,
0000
0010
0000
0010
,
0000
0000
0001
0000
,
0001
0001
0001
0000
,
1000
0000
0010
0000
,
0100
0100
0100
0000
,
0001
0000
1000
0000
,
0001
0001
0001
0000
,
1000
0000
0010
0000
,
0100
0100
0100
0000
,
0001
0000
1000
0000
,
0001
0000
0100
0000
,
0010
0000
1000
0000
,
0001
0000
1000
0000
,
0010
0000
0100
0000
,
0001
0001
0001
0000
,
1000
0000
0010
0000
,
0100
0000
0001
0001
,
0001
1001
0000
0000
;

//--------------- dance-single - ----------------
#NOTES:
     dance-single:
     :
     Easy:
     6:
     0.365,0.45,0.152,0.162,0:
0000
0000
0000
0000
,
1000
0000
0001
1000
0001
0000
0100
0000
,
0010
0000
1000
0100
1000
0000
0001
0000
,
0100
0000
0010
1000
0010
0000
1000
0000
,
1001
0000
0100
1000
0100
0000
0010
0000
,
0110
0000
0001
1000
0001
0000
0100
0000
,
1001
0000
0010
1000
0010
0000
1000
0000
,
1001
0000
1000
0000
0001
0100
0010
1000
,
0001
1000
0010
0100
,
1001
0010
1000
0001
,
1001
0100
0010
0100
,
1001
0010
0100
0010
,
1001
0001
1000
0100
,
0010
0001
0100
0010
,
1000
1000
0001
0001
,
1001
0000
1001
0001
,
0010
0100
2000
0000
,
3001
0000
0100
0010
,
1000
0001
0020
0000
,
0230
0000
1300
0001
,
0100
0010
1000
1000
,
0002
0000
0103
0010
,
1000
0100
0010
0010
,
0010
0010
1001
0000
,
0010
0100
0001
1000
,
0001
0001
2000
0000
,
3010
0100
0001
0010
,
0100
0000
1000
0001
,
0100
0010
1000
1000
,
0001
0000
0100
0010
,
1000
0001
0020
0000
,
0230
0000
0000
0000
1300
0000
0000
0010
,
0000
0000
0100
0000
0001
0000
0000
0010
,
0000
0000
0100
0000
1000
0000
0000
0010
,
0000
0100
0001
0000
,
0010
0000
0000
0000
0100
0000
0000
1000
,
0000
0000
0010
0000
0100
0000
0000
0001
,
0000
0000
0010
0000
0100
0000
0000
1000
,
0000
0010
0100
0001
,
0002
0000
0000
0000
1003
0000
0000
0100
,
0000
0000
0010
0000
0100
0000
0000
1000
,
0000
0000
0010
0000
0100
0000
0000
0001
,
0000
0010
0100
1000
,
0020
0000
0000
0000
1030
0000
0000
0001
,
0000
0000
1000
0000
1000
0000
0000
0010
,
0000
0000
0100
0000
0100
0000
0000
0001
,
0000
1000
0020
0000
,
1030
1000
1001
0001
,
1000
0001
0010
0010
,
0010
0000
0100
1000
,
0010
0100
0002
0000
,
2003
0000
3010
0100
,
0001
0010
0100
1000
,
0001
0010
0000
1001
,
0000
1100
0100
1000
,
0100
0010
0002
0000
,
1003
0010
0100
0100
,
0010
1000
0002
0000
,
1003
0100
0010
0010
,
0001
0001
2000
0000
,
3010
1000
0100
0010
,
0100
1000
0002
0000
,
1003
0001
0010
0010
,
0100
0100
1001
0000
;

//--------------- dance-single - ----------------
#NOTES:
     dance-single:
     :
     Medium:
     12:
     0.592,0.579,0.263,0.284,0.02:
0000
0000
0000
0000
,
1000
0000
0001
0000
0100
0010
1000
0010
,
0100
0000
0001
0000
0010
0100
1000
0001
,
1000
0000
0010
0100
0010
1000
0001
1000
,
0001
0000
1000
0001
1001
0000
0100
0000
,
0110
0000
0001
1000
1001
0000
0100
0000
,
0010
0000
0001
1000
1001
0000
1100
0000
,
0001
1000
0100
0010
0001
0001
0100
0100
,
0010
1000
0100
0010
0001
1000
0100
0010
,
0001
1000
0010
0100
0001
1000
0010
0100
,
0001
0100
0010
1000
0010
0100
0010
1000
,
0010
0100
0001
1000
0001
0100
0001
1000
,
0001
0010
0100
1000
0100
0010
0001
1000
,
0100
0010
0001
1000
0100
0010
0001
1000
,
0001
0000
0100
0000
0001
0100
0001
0100
0001
0000
1000
0000
0010
1000
0010
1000
,
0010
0000
1000
0001
1000
0000
0010
0000
,
1000
0100
0010
0001
1000
0001
0100
0000
,
0010
0000
1000
0000
0001
0000
0010
0100
,
0010
0001
0010
0100
0010
0000
0011
0000
,
0001
1001
1000
0001
,
0100
0010
0100
0010
1000
0010
2000
0000
,
3002
0000
2003
0000
3002
0000
0013
0100
,
1000
0100
0010
0001
0100
0000
0010
0000
,
1000
0001
1000
0000
2000
0000
0020
0000
,
0030
0002
0003
0200
,
3300
1001
0000
0002
,
0000
0203
0010
0010
,
0010
0000
0310
0000
0001
0000
1000
0100
,
0010
0001
0010
0100
1000
0001
0100
0010
,
2000
3001
0010
1001
,
0100
0001
0100
0000
0101
0000
1010
0000
,
1001
0000
0011
0000
0001
0100
1000
0000
,
0000
0000
0001
0010
0100
0010
1000
0000
,
0000
0000
1000
0100
0010
0100
0001
0000
,
0000
0000
1000
0010
0001
0000
1000
0100
,
0020
0000
0032
0000
1003
0100
0001
0000
,
0000
0000
0001
0100
1000
0100
0010
0000
,
0000
0000
0001
0010
0100
1000
0001
0000
,
0000
0000
1000
0001
1000
0010
0100
0001
,
1000
0000
0001
0000
1000
0100
0001
0100
,
1000
0000
1001
0000
0001
0010
1000
0010
,
0001
0000
1001
0000
1000
0100
0010
0001
,
0010
0000
1001
0000
1000
0100
1000
0001
,
2000
0000
3001
0000
0001
0010
1000
0010
,
0001
0000
1001
0000
1000
0100
0001
0100
,
1000
0000
1001
0000
0001
0010
0100
0010
,
0001
0000
1001
0000
1000
0100
1000
0010
,
2000
0000
3001
0000
1001
0000
1000
0100
,
1000
0000
0001
0100
0001
0100
0001
0000
,
2000
0000
3010
0000
0101
0000
0001
0100
,
1000
0000
1000
0100
0001
0000
2000
0000
,
3020
0000
2030
0000
3001
0000
1000
0010
,
1000
0000
0001
0100
0010
1000
0001
0000
,
2000
0000
3010
0000
1001
0000
0001
0010
,
0001
0000
1000
0010
2000
0000
3020
0000
,
0230
0301
1000
1000
,
1000
0010
0100
0000
0100
0000
0100
0000
,
0002
1003
0100
0100
,
0100
0010
0001
0000
0001
0000
0001
0000
,
0200
0000
0301
0010
0001
0000
0001
0000
,
1000
0100
1000
0000
1000
0010
0100
0001
,
2000
0000
3010
0000
1001
0000
1000
0100
,
1000
0100
0001
0100
0001
0000
0101
0000
,
1100
2002
3003
0000
;

//--------------- dance-single - ----------------
#NOTES:
     dance-single:
     :
     Hard:
     15:
     0.822,0.929,0.344,0.213,0.344:
0000
0000
0000
0000
,
1000
0000
0001
0100
0010
1000
0001
0100
0001
0000
0100
0000
0101
0000
0010
0000
,
1000
0000
0001
0100
0001
0100
1000
0100
1000
0100
0001
0100
0010
0000
1000
0000
,
0001
0000
1000
0010
0100
0001
0100
0010
0100
0000
0001
0000
0101
0000
0001
0000
,
1001
0000
1000
0001
0010
0001
1000
0100
0010
0001
0100
0001
0101
0000
0100
0000
,
0001
0000
1000
0100
0010
0001
0010
0100
1000
0000
0001
0000
1001
0000
1000
0000
,
0001
0000
1000
0100
0010
0001
1000
0010
0100
0010
1000
0001
1000
0000
0001
0000
,
1001
0000
0000
0000
1000
0000
0010
0000
0100
0000
0001
0000
1000
0000
0100
0000
0010
0000
0000
0000
0010
0000
0000
0000
0001
0000
0000
0000
1000
0001
1000
0001
,
1000
0000
0001
0000
0100
0010
1000
0010
1000
0000
0010
0000
1000
0001
1000
0001
,
1000
0000
0100
0000
0010
0001
0010
0001
0010
0000
0100
0000
1000
0001
1000
0001
,
0100
0000
0010
0000
1000
0100
0010
0100
1000
0000
0001
0000
1000
0100
0010
0100
,
1000
0000
0001
0000
0100
0010
0100
0001
0100
0000
0010
0000
1000
0010
0100
0010
,
1000
0000
0001
0000
1000
0100
0010
0001
0010
0000
0100
0000
1000
0001
0100
0001
,
1000
0000
0001
0000
1000
0010
0100
0001
1000
0000
0001
0000
1000
0010
0100
0001
,
1000
0010
1000
0010
0100
0001
0100
0001
1000
0010
1000
0010
1000
0100
0010
0100
,
1000
0000
1000
0001
0101
0000
0001
1000
,
0010
1000
0001
0100
0001
0010
0100
1000
,
0002
0000
0203
0000
0310
0000
1000
0100
,
0010
0001
0100
0010
2000
0000
3020
0000
,
0230
0000
0301
0001
2000
0000
3010
1000
,
0010
1000
0001
0100
0001
0100
0010
1000
,
0001
0000
1001
0000
1100
0000
1000
0100
,
0001
0100
1000
0001
1001
0000
1010
0000
,
0101
0000
0100
0001
0100
0000
0001
0000
1000
0000
0000
0000
1001
0000
0001
0000
,
0100
1000
0100
0001
1000
0001
0100
0001
,
0100
0000
0101
0000
0010
0000
1000
0100
,
0010
0001
0100
0010
0100
0000
0101
0000
,
0001
0000
1001
0100
0100
0000
1010
1000
,
0100
0001
0100
1000
0010
0010
0100
0100
,
0002
0000
2003
0000
3001
0000
1001
1000
,
0100
0000
0001
0000
0100
0000
1000
0000
0001
0000
0100
0010
1000
0000
0010
0000
,
1000
0001
1001
0000
1000
0100
0001
0100
,
0010
0001
1000
0001
1000
0100
0001
0100
,
0010
0001
0010
0100
1000
0010
0001
0010
,
0100
0001
1000
0100
0010
0001
0001
0100
,
0020
0000
2030
0001
3001
0100
1000
0100
,
0010
1000
0010
0100
0001
0100
1000
1000
,
0100
0001
1000
0010
1000
0010
0001
0010
,
0100
0001
0100
0001
1000
0010
0100
0001
,
2000
0000
3001
0010
0001
1000
1000
0010
,
1000
1000
0010
0100
0001
0010
0010
0001
,
1000
1000
0100
0010
0001
0010
0010
0100
,
1000
1000
0001
0100
0001
0001
1000
0001
,
2001
0000
3010
0010
0100
0001
0001
0010
,
0100
0100
1000
0001
0100
0010
0010
1000
,
0001
0001
0100
0010
1000
0010
0010
0100
,
0001
0001
0010
0100
1000
0001
1000
0001
,
1000
0000
0000
0000
0001
0100
0010
1000
0001
0000
0000
0000
1001
0000
1000
0000
,
0100
0010
0001
0010
0100
1000
0002
0100
,
0103
0000
0101
0000
1000
0000
1001
0001
,
0100
0010
0010
1000
0001
0000
1001
0000
,
0001
0000
0101
0001
0001
0000
1002
1000
,
1003
0100
0010
0001
0010
0100
2000
0010
,
3010
0000
1010
0000
0002
0000
0100
0100
,
0103
0010
1000
0100
0001
0000
0101
0000
,
1100
0000
1000
0100
0010
0000
0001
0000
2000
0000
0000
0000
3010
0000
0100
0000
,
0001
1000
0010
0010
0100
0001
0100
0010
,
2000
0000
0010
0000
3100
0000
0001
0100
,
0010
0010
1000
0001
0101
0000
1010
0000
,
1001
0000
1100
1000
0200
0000
0310
0001
,
0100
1000
0100
0001
0010
1000
0010
0001
,
0002
0000
0103
0000
0101
0000
1000
0100
,
1000
0000
0100
0000
0010
0000
0001
0000
1000
0000
0001
1000
0001
0000
0100
0000
,
0020
1000
1030
0000
0000
0000
0000
0000
;

//--------------- dance-double - ----------------
#NOTES:
     dance-double:
     :
     Hard:
     16:
     0.844,1,0.527,0.041,0.415:
00000000
00000000
00000000
00000000
,
00011000
00000000
00001000
01000000
00100000
10000000
00010000
01000000
00001000
00000000
01000000
00000000
00100000
00000000
10000000
00000000
,
00010000
00000000
01000000
00001000
00010000
00000100
00001000
00000001
00000100
00000010
00010000
00001000
01000000
00000000
00010000
00000000
,
10000000
00000000
00010000
00100000
00001000
00010000
00001000
00100000
00001000
00000000
00001000
00000000
01000000
00000000
01000000
00000000
,
10010000
00000000
00000000
00000000
10000000
00000000
00010000
00100000
00010000
00000000
01000000
00000000
00001000
00000000
00100000
00000000
00000100
00000000
00001000
00000000
00000010
00000000
00010000
00000000
00010010
00000000
00010000
00000010
00010000
00000000
00000000
00000000
,
00001000
00000000
00000000
00000000
01000000
00000000
00010000
10000000
00100000
00000000
01000000
00000000
00001000
00000000
00010000
00000000
00000100
00000000
00010000
00000000
00000100
00000000
00010000
00000000
00000010
00010000
00001000
00000000
00010000
00000000
00000010
00000000
,
00010000
00000000
00000000
00000000
00001000
00000000
00010000
00001000
01000000
00000000
00010000
00000000
10000000
00000000
01000000
00000000
00010000
00000000
01000000
00000000
10000000
00000000
00010000
00000000
10000000
00000000
01000000
00100000
00010000
00000000
00000100
00000000
,
00010000
00000000
00000000
00000000
00001000
00000000
01000000
00100000
10000000
00000000
00100000
00000000
00010000
00000000
00100000
00000000
10000000
00000000
00000000
00000000
10000000
00000000
00000000
00000000
00010000
00000000
00000000
00000000
00100000
00001000
00100000
00001000
,
01000000
00000000
00010000
00000000
01000000
00100000
10000000
00100000
10000000
00000000
00100000
00000000
01000000
00001000
01000000
00001000
,
01000000
00000000
00010000
00000000
00001000
00010000
00000100
00010000
00001000
00000000
00010000
00000000
00000010
00001000
00000010
00000100
,
00000001
00000000
00001000
00000000
00000100
00010000
00001000
01000000
00100000
00000000
10000000
00000000
00010000
01000000
00001000
00010000
,
00000010
00000000
00000100
00000000
00000001
00000100
00000010
00010000
00001000
00000000
00100000
00000000
00010000
01000000
00100000
10000000
,
00010000
00000000
01000000
00000000
00001000
00010000
00001000
00010000
00001000
00000000
00100000
00000000
00010000
10000000
01000000
00100000
,
00001000
00000000
00010000
00000000
00000100
00000010
00000001
00001000
00000100
00000000
00010000
00000000
00001000
01000000
00100000
10000000
,
00010000
00100000
00001000
00010000
00000100
00001000
00000010
00001000
00000100
00010000
00001000
00100000
00010000
10000000
00100000
01000000
,
00010000
00000000
00000001
00000010
00000011
00000000
00000001
00001000
,
00000010
00010000
00000100
00000001
00000100
00010000
00001000
01000000
,
00020000
00000000
02030000
00000000
03100000
00000000
10000000
01000000
,
00001000
01000000
10000000
00100000
10100000
00000000
01010000
00000000
,
00011000
00000000
00001010
00000010
00002000
00000000
00003001
00000100
,
00001000
00010000
01000000
10000000
01000000
00010000
00001000
00000100
,
00000001
00000000
00001001
00000000
00001100
00000000
00000100
00010000
,
00001000
00000010
00001000
00010000
00000100
00000000
00101000
00000000
,
01010000
00000000
00100000
10000000
00100000
00000000
10000000
00000000
00010000
00000000
00000000
00000000
10010000
00000000
10000000
00000000
,
01000000
00100000
01000000
00010000
01000000
00100000
01000000
10000000
,
10010000
00000000
01010000
00000000
00110000
00000000
00100000
00001000
,
00010000
00000100
00010000
00001000
00010000
00000000
00011000
00000000
,
01001000
00000000
10010000
10000000
01000000
00000000
11000000
10000000
,
00100000
00010000
00100000
01000000
00010000
00100000
00001000
00010000
,
00011000
00000000
00010100
00000000
00001001
00000000
00000110
00000010
,
00010000
00000000
00001000
00000000
00000010
00000000
00001000
00000000
00010000
00000000
00000100
00001000
00000001
00000000
00000010
00000000
,
00000001
00001000
00000100
00000000
00000100
00100000
00010000
00001000
,
00010000
00100000
00000100
00001000
00010000
00001000
00000100
00010000
,
00001000
01000000
00100000
10000000
00100000
00001000
00100000
10000000
,
01000000
00010000
00001000
00000100
00000010
00001000
00000100
00100000
,
01010000
00000000
10010000
10000000
01000000
00100000
00010000
00100000
,
01000000
10000000
01000000
00010000
01000000
10000000
00100000
00010000
,
00001000
00000100
00000010
00001000
00000001
00000010
00000100
00000001
,
00001000
00000010
00000001
00001000
00000100
00000001
00000100
00001000
,
00000200
00000000
00010300
00001000
01000000
10000000
01000000
00010000
,
01000000
00001000
00010000
00000100
00000010
00000100
00010000
00001000
,
00100000
01000000
00100000
00001000
00100000
00010000
01000000
00100000
,
10000000
01000000
00010000
01000000
00100000
00010000
10000000
00010000
,
00110000
00000000
00010000
00001000
00100000
00010000
01000000
00100000
,
10000000
00100000
01000000
00001000
00010000
00001000
01000000
00100000
,
10000000
00100000
00010000
00100000
01000000
00010000
01000000
00001000
,
00000100
00000010
00000100
00000001
00001000
00000100
00100000
00001000
,
00010000
00000000
00000000
00000000
00000100
00010000
00001000
00100000
00010000
00000000
00000000
00000000
00110000
00000000
00010000
00000000
,
10000000
01000000
11000000
00100000
00001000
00100000
00101000
00010000
,
10000000
00000000
10010000
00000000
01000000
00000000
01001000
01000000
,
00010000
00100000
00110000
00100000
00001000
00000000
00011000
00000000
,
00010010
00000000
00000110
00000010
00010000
00000000
00011000
00001000
,
00010000
00000010
00000110
00000100
00000001
00000100
00000101
00000001
,
00000100
00000000
00001010
00000000
00000010
00000000
00011000
00001000
,
01000000
00100000
10100000
01000000
00010000
00000000
01010000
00000000
,
01001000
00000000
01000000
00001000
00100000
00000000
00010000
00000000
00100000
00000000
00000000
00000000
00000010
00000000
00001000
00000000
,
00000001
00000010
00000100
00001000
00000100
00000010
00000001
00000010
,
00000001
00000000
00001001
00000000
00001100
00000000
00000100
00100000
,
00001000
00100000
00010000
01000000
01010000
00000000
10010000
00000000
,
01010000
00000000
00101000
00100000
00001000
00000000
00010000
00000100
,
00001000
00000001
00001000
00000100
00100000
01000000
00100000
00000100
,
00001000
00000000
00011000
00000000
00110000
00000000
00010000
01000000
,
10000000
00000000
00100000
00000000
00010000
00000000
00001000
00000000
00000100
00000000
00000001
00001000
00000001
00000000
00000100
00000000
,
00001000
00010000
01000000
00000000
00000000
00000000
00000000
00000000
;
