#TITLE:December;
#SUBTITLE:;
#ARTIST:necros;
#TITLETRANSLIT:;
#SUBTITLETRANSLIT:;
#ARTISTTRANSLIT:;
#GENRE:;
#CREDIT:;
#MUSIC:december.ogg;
#BANNER:December.png;
#BACKGROUND:December-bg.png;
#CDTITLE:;
#SAMPLESTART:25.674;
#SAMPLELENGTH:13.200;
#SELECTABLE:YES;
#OFFSET:-0.404;
#BPMS:0.000=74.276
,37.000=76.620
,39.000=79.500
,71.000=101.054
,110.000=102.054
,122.000=101.054
,158.000=99.054
;
#STOPS:;
#BGCHANGES:;
#FGCHANGES:;

//--------------- dance-single - ----------------
#NOTES:
     dance-single:
     :
     Beginner:
     2:
     0,0,0,0,0:
0000
0000
0000
0000
,
0001
0000
0000
0000
,
1000
0000
0001
0000
,
0100
0000
0000
0000
,
0010
0000
1000
0000
,
0001
0000
0100
0000
,
0010
0000
1000
0000
,
0001
0000
0000
0000
,
0100
0000
0001
0000
,
1000
0000
0001
0000
,
1001
0000
1001
0000
,
1001
0000
0001
0000
,
0110
0000
0010
0000
,
0100
0000
0001
0000
,
1001
0000
0100
0000
,
0010
0000
0100
0000
,
0001
0000
1000
0000
,
0002
0000
0003
1001
,
0000
0000
0001
0000
,
0000
0100
0000
0000
,
0010
0000
0000
1000
,
0000
0000
0001
0000
,
0000
0100
0000
0000
,
0001
0000
0000
1000
,
0000
0000
0001
0000
,
0000
0100
0000
0000
,
0010
0000
0000
0100
,
0000
0000
0001
0000
,
0000
0100
0000
0000
,
0001
0000
0000
0100
,
0000
0000
0010
0000
,
0000
1000
0000
0000
,
0001
0000
0000
0110
,
0000
0000
0100
0000
,
0000
0001
0000
0000
,
1000
0000
0000
1001
,
0000
0000
0001
0000
,
0000
0100
0000
0000
,
0001
0000
0000
2002
,
0000
3003
1000
0000
,
0000
1001
0000
0000
;

//--------------- dance-single - ----------------
#NOTES:
     dance-single:
     :
     Easy:
     4:
     0,0,0,0,0:
0000
0000
0000
0000
,
0000
0000
0000
0000
,
0001
1000
0010
0100
,
0001
1000
0002
0003
,
1000
0001
0100
0010
,
1000
0000
0100
0000
0010
0000
0001
1000
,
0001
0100
0010
1000
,
0100
2000
3020
1030
,
0001
0000
0100
0000
0010
1000
0100
0000
,
1000
0010
0200
0300
,
1001
0001
0101
0100
,
0110
0010
1010
0000
,
1000
0001
1000
0000
0010
0000
0100
0000
,
0001
0000
1000
0100
1000
0000
0001
0100
,
0001
1000
0100
0010
,
0001
1000
0010
0100
,
0001
1000
0100
0010
,
0002
0000
0003
1001
,
0000
1000
0000
0000
0010
0000
0000
0100
,
0000
0000
0001
0000
0000
1000
0000
0000
,
0100
0000
0000
0010
0000
0000
0001
0000
,
0000
0100
0000
0000
0010
0000
0000
1000
,
0000
0000
0001
0000
0000
1000
0000
0000
,
0100
0000
0000
0010
0000
0000
0002
0000
,
0000
0003
2000
0000
,
3000
0000
0001
0000
0000
1000
0000
0000
,
0010
0000
0000
0100
0000
0000
0001
0000
,
0000
1000
0000
0000
0100
0000
0000
0010
,
0000
0002
0000
0003
,
0200
0000
0300
0110
,
0000
1010
0000
0000
0110
0000
0000
0101
,
0000
0002
0000
0003
,
0200
0000
0300
1001
,
0000
0001
0000
0000
0100
0000
0000
0010
,
0000
0000
1000
0000
0000
0001
0000
0000
,
0100
0000
0000
0010
0000
0000
1001
0000
,
0000
0001
0000
0000
1001
0000
0000
0100
,
0000
0000
0110
0000
0000
0010
0000
0000
,
1001
0000
0000
0001
0000
0000
2002
0000
,
0000
3003
1001
0000
,
0000
1001
0000
0000
;

//--------------- dance-single - ----------------
#NOTES:
     dance-single:
     :
     Medium:
     8:
     0,0,0,0,0:
0000
0000
0000
0000
,
0000
0000
0000
0000
,
0001
0100
0001
0010
0001
0100
0010
1000
,
0100
1000
0001
0100
0020
0000
0030
0000
,
1000
0001
1000
0100
1000
0010
0100
0001
,
1000
0100
0010
0001
0100
0000
0010
1000
,
1020
0000
0130
0001
0010
0100
1000
0010
,
0100
0000
0001
0000
1000
0000
0001
1000
,
1000
0001
0100
0001
0010
0100
1000
0010
,
0100
0001
1000
0100
2000
0000
3000
0001
,
1001
1000
0010
0100
0101
0001
1000
0100
,
1100
1000
0001
0100
0002
0000
0003
0000
,
1001
1000
0010
0100
0001
0010
0100
1000
,
0010
0100
0001
1000
1100
0000
0010
0001
,
0011
0000
0001
0100
0010
1000
0100
1000
,
0002
0000
0000
0000
1003
0010
1000
0000
0002
0000
0000
0000
0103
0000
0010
0000
,
0100
0001
0010
0001
0100
0010
1000
0001
,
0200
0000
0000
0000
0300
0000
1001
0001
,
0100
0010
1000
0100
1000
0001
1000
0010
,
0100
0010
1000
0100
0010
0001
0100
0010
,
1000
0100
0010
0001
0100
0001
1000
0100
,
1000
0001
0010
0001
1000
0010
1000
0001
,
0100
0001
1000
0100
0010
0001
0100
0001
,
1000
0100
0010
0001
0100
0001
1000
0010
,
1000
0010
1000
0010
0100
0001
0100
0001
,
0100
0001
1000
0100
0010
0001
0100
0001
,
1000
0100
0010
0001
0100
0001
1000
0100
,
1000
0001
0010
0100
1000
0010
0100
0001
,
0010
0100
1000
0010
1000
0100
1000
0010
,
0100
0001
0010
0001
0100
0010
1000
0100
,
1000
0001
0100
0010
0100
0001
1000
1100
,
0000
0000
0010
0001
0100
0001
0100
0010
,
1000
0100
1000
0001
0010
0100
1000
0001
,
1000
0010
1000
0001
0100
0010
0100
0001
,
1000
0100
1000
0001
0100
0010
0100
0001
,
1000
0100
0010
0001
0100
0010
1020
0000
,
0000
0130
0000
0001
0101
0100
0000
0110
,
0000
0000
1000
0000
0000
1001
0000
0001
,
1200
0000
0000
1300
0000
0000
2002
0000
,
0000
3003
0020
0030
,
0000
2002
0000
3003
;

//--------------- dance-single - ----------------
#NOTES:
     dance-single:
     :
     Hard:
     14:
     0.549,0.587,0.308,0.176,0.721:
0000
0000
0000
0000
,
0002
0000
0003
0000
2000
0000
3000
0000
0020
0000
0030
0000
0100
0000
0010
1000
0001
0000
0100
0000
0010
0000
1000
0000
0001
0000
0000
0000
1000
0000
0000
0000
,
0002
0003
0020
0030
0020
0030
0200
0300
2000
3000
0002
0003
0020
0030
0200
0300
,
2000
3000
0200
0300
2000
3000
0002
0003
0010
0000
0000
0000
0000
0000
0002
0000
,
1003
0000
0100
0000
0010
0000
0001
0000
2000
0000
0000
0000
3020
0000
0000
0000
2030
0000
3000
0000
0010
0000
0000
0000
2000
0000
3000
0000
0001
0000
0100
0010
,
0100
0010
1000
0001
0100
0000
0002
0103
,
1010
0000
0000
0000
0020
0030
0200
0300
0002
0003
2000
3000
0200
0300
0020
0030
,
0002
0000
0000
0000
1003
0010
1000
0000
0001
0100
0010
0000
2000
0000
0000
3001
,
0200
0000
0000
0000
0310
0000
0000
0000
2000
0000
0000
0000
3001
0000
0100
0010
0200
0000
0000
0000
0302
0000
0000
0000
0023
0000
0000
0000
0130
0000
0010
0000
,
0200
0000
0000
0000
0302
0000
0000
0000
2003
0000
0000
0000
3001
0000
1000
0010
1000
0000
0001
0100
0010
0000
0100
0000
0001
0000
0000
0000
0100
0000
0000
0000
,
0202
0000
0303
0000
0001
0000
0000
0000
0100
0000
0000
0000
0010
0000
1000
0001
2000
0000
0000
0000
3020
0000
0000
0000
0230
0000
0000
0000
0301
0000
0000
0000
,
1002
0000
0000
0000
0203
0000
0000
0000
0320
0000
0000
0000
1030
0000
0001
0100
0020
0000
0030
0000
1000
0000
0001
0000
0100
0000
0000
0000
0020
0000
0030
0000
,
1010
1000
0001
0100
0010
0000
2000
3000
1001
0000
0002
0000
0103
0000
0010
1000
,
0002
0000
0000
0000
0103
0000
0000
0000
0110
0000
0000
0000
0010
0000
1000
0001
2000
0000
0000
3000
0000
0000
0000
0000
0020
0000
0000
0000
1030
0000
0000
0000
,
2020
3030
2000
3002
0203
0320
2030
3002
,
0103
0000
0000
0000
0010
1000
0010
0000
0200
0000
0000
0000
0301
0000
1000
0000
,
1020
0230
0302
2003
3020
0230
0310
0010
,
0200
0000
0000
0000
0300
0000
0000
0000
MMMM
0000
0000
0000
1001
0000
0001
0100
,
0010
0000
1000
0000
0001
0100
0010
0000
1000
0000
0001
0010
0001
0000
2000
3000
,
0001
0100
0001
0000
0100
0000
0010
1000
0010
0000
0100
0000
0001
0010
0001
0000
,
1000
0100
0010
0100
1000
0010
0100
0001
1000
0100
0010
0001
1000
0010
0100
0010
,
1000
0001
1000
0100
0010
0001
0100
0010
1000
0100
0010
0001
0100
0010
1000
0100
,
0010
0100
1000
0001
1000
0100
0010
0001
0100
0010
1000
0100
0010
0001
0100
0010
,
1000
0100
1000
0001
0010
0100
1000
0010
1000
0001
0010
0100
1000
0010
1000
0010
,
1000
0010
0100
0001
1000
0010
0100
0001
1000
0100
1000
0100
1000
0100
0010
0001
,
0100
0010
1000
0100
1000
0010
0100
0001
0100
0010
1000
0100
0010
0001
0100
0010
,
1000
0100
1000
0001
0100
0001
1000
0100
0010
0001
1000
0010
1000
0100
0010
0001
,
1000
0010
1000
0100
1000
0001
1000
0010
0100
0001
0100
0010
0100
0001
1000
0100
,
0010
0001
0100
0010
1000
0100
1000
0100
1000
0100
0010
0001
0100
0010
1000
0001
,
1000
0010
1000
0010
1000
0010
0100
0001
0010
0001
1000
0100
0010
0000
0001
0100
,
0010
1000
0020
0030
0100
0001
1000
0100
2000
3000
0010
0100
0001
1000
0020
0000
,
0000
0000
0000
0000
1030
0100
0010
0001
1000
0100
0010
0001
1000
0000
0001
0000
,
0100
0010
0100
0010
1000
0100
0010
0001
2000
0000
3001
0000
0110
0000
1000
0001
,
1000
0000
0001
0000
1000
0010
1000
0000
0001
0000
0100
0010
0100
0000
0001
0000
,
1000
0010
0100
0000
0001
0000
1000
0010
0100
0000
0001
0000
1000
0100
0010
0000
,
0001
0000
0100
0010
1000
0001
0100
0000
0010
1000
0001
0000
2001
0000
0010
0000
,
3001
0000
0200
0000
0301
0100
0010
0000
1010
0000
1001
0000
2000
0000
0100
0000
,
3001
1000
0010
1000
0001
0100
0010
1000
0010
0000
2000
0000
3001
0000
0011
0000
,
0101
0000
0010
1000
0100
1000
0002
0000
2003
0000
3010
0000
0220
0000
0000
0000
,
0000
0000
0000
0330
,
0000
0220
0000
0000
,
0330
0000
0000
0000
;
