#TITLE:Brute Force;
#SUBTITLE:;
#ARTIST:Cardboard Box;
#TITLETRANSLIT:;
#SUBTITLETRANSLIT:;
#ARTISTTRANSLIT:;
#GENRE:;
#CREDIT:;
#MUSIC:Brute Force.ogg;
#BANNER:;
#BACKGROUND:;
#CDTITLE:;
#SAMPLESTART:37.967;
#SAMPLELENGTH:10.000;
#SELECTABLE:YES;
#OFFSET:0.000;
#BPMS:0.000=250.000;
#STOPS:;
#BGCHANGES:;
#FGCHANGES:;

//--------------- dance-single - ----------------
#NOTES:
     dance-single:
     :
     Beginner:
     5:
     1,0,0.172,1,1:
0000
0000
0000
0000
,
0000
0000
0000
0000
,
0000
0000
0000
0000
,
0000
0000
0000
0000
,
0000
0000
0000
0000
,
0000
0000
0000
0000
,
0000
0000
0000
0000
,
0000
0000
0000
0000
,
1001
0000
0000
0002
,
0000
0003
0000
2000
,
0000
3000
0000
0020
,
0000
0030
0000
0000
,
1001
0000
0000
0002
,
0000
0003
0000
2000
,
0000
3000
0000
0002
,
0000
0003
0000
0000
,
1001
0000
0000
1001
,
0000
0000
0000
0110
,
0000
0000
0000
0110
,
0000
0000
0000
0100
,
0100
0000
0000
0110
,
0000
0000
0000
1001
,
0000
0000
0000
1001
,
0000
0000
0000
1000
,
2000
0000
0000
0000
,
3000
0000
0001
0000
,
0200
0000
0300
0010
,
0000
0000
1000
0000
,
1001
0000
0000
0000
,
0000
0000
0001
0000
,
1001
0000
0000
0000
,
1000
0000
0001
0000
,
0220
0000
0000
0000
,
0330
0000
0001
0000
,
1001
0000
0000
1000
,
0000
0000
0001
0000
,
1000
0000
0000
0020
,
0000
0030
0100
0000
,
1001
0000
0000
0000
,
1000
0000
0001
0000
,
2002
0000
0000
0000
,
3003
0000
1000
0000
,
0002
0000
0000
0000
,
0003
0000
1000
0000
,
0001
0000
0000
1000
,
0000
0000
0110
0000
,
0220
0000
0330
0000
,
0100
0000
0001
0000
,
2002
0000
0000
0000
,
3003
0000
0001
0000
,
2000
0000
0000
0000
,
3000
0000
0001
0000
,
2002
0000
0000
0000
,
3003
0000
1000
0000
,
0002
0000
0003
0000
,
1000
0000
0001
0000
,
0100
0000
0000
0100
,
0000
0000
0010
0000
,
1000
0000
0000
0001
,
0000
0000
0100
0000
,
0100
0000
0000
0010
,
0000
0000
1000
0000
,
1000
0000
0000
0001
,
0000
0000
0001
0000
,
1000
0000
0000
0001
,
0000
0000
1000
0000
,
1001
0000
0000
0001
,
0000
0000
0100
0000
,
0110
0000
0000
0010
,
0000
0000
1000
0000
,
1001
0000
0000
0001
,
0000
0000
1000
0000
,
1001
0000
0000
1001
,
0000
0000
0000
1001
,
0000
0000
0000
1001
,
0000
0000
0000
0100
,
0100
0000
0000
0010
,
0000
0000
0000
1001
,
0000
0000
0000
0110
,
0000
0000
0000
0100
,
0100
0000
0000
0002
,
0000
0003
0000
2000
,
0000
3000
0000
0002
,
0000
0003
0000
0100
,
0200
0000
0300
0020
,
0000
0030
0000
2000
,
0000
3000
0000
0002
,
0000
0003
0000
1000
,
1000
0000
0000
0001
,
0000
0000
0000
0100
,
0000
0000
0000
0010
,
0000
0000
0000
0000
,
1001
0000
0000
1000
,
0000
0000
0000
0001
,
0000
0000
0000
0100
,
0000
0000
0000
0010
,
0010
0000
0000
1000
,
0000
0000
0000
0001
,
0000
0000
0000
0100
,
0000
0000
0000
0010
,
0010
0000
0000
1000
,
0000
0000
0000
0001
,
0000
0000
0000
1000
,
0000
0000
0000
0001
,
0001
0000
0000
0100
,
0000
0000
0000
0010
,
0000
0000
0000
1001
,
0000
0000
0000
0001
,
0001
0000
0000
1001
,
0000
0000
0000
0110
,
0000
0000
0000
1001
,
0000
0000
0000
1000
,
1000
0000
0000
1001
,
0000
0000
0000
0110
,
0000
0000
0000
1001
,
0000
0000
0000
0100
,
0100
0000
0000
1001
,
0000
0000
0000
0110
,
0000
0000
0000
1001
,
0000
0000
0000
0000
,
1000
0000
0000
1001
,
0000
0000
0000
0000
,
0001
0000
0000
1001
,
0000
0000
0000
0000
,
0100
0000
0000
0110
,
0000
0000
0000
0000
,
0010
0000
0000
1000
,
0000
0000
0000
0000
,
0001
0000
0000
1000
,
0000
0000
0000
0000
,
0100
0000
0000
0010
,
0010
0000
0000
0001
,
0000
0000
1000
0000
,
0000
0001
0000
0000
,
0100
0000
0002
0000
,
0003
0000
0000
0000
,
1001
0000
0000
0000
;

//--------------- dance-single - ----------------
#NOTES:
     dance-single:
     :
     Easy:
     9:
     1,0,0.172,1,1:
0000
0000
0000
0000
,
0000
0000
0000
0000
,
0000
0000
0000
0000
,
0000
0000
0000
0000
,
0000
0000
0000
0000
,
0000
0000
0000
0000
,
0000
0000
0000
0000
,
0000
0000
0000
0000
,
2002
0000
3003
0202
,
0000
0000
0303
2002
,
0000
0000
3003
2020
,
0000
0000
3030
1000
,
2002
0000
3003
0202
,
0000
0000
0303
0220
,
0000
0000
0330
2020
,
0000
0000
3000
1030
,
2002
0000
3003
0202
,
0000
0000
0303
0000
0000
0001
2000
0000
,
0000
0000
0000
0000
3000
0001
0200
0000
,
0000
0000
0300
0010
,
2002
0000
3003
0202
,
0000
0000
0000
0303
0000
0001
0200
0000
,
0000
0000
0000
0000
0300
0010
2000
0000
,
0000
0000
3000
0001
,
2002
0000
0000
0000
,
3003
0000
1000
0001
,
0201
0000
0000
0302
,
0000
0000
2003
3000
,
1001
0000
0000
0001
0000
0000
0200
0000
,
0000
0000
0310
1000
,
1002
0000
0000
0003
,
1000
0001
0100
0010
,
2020
0000
0000
0000
,
3030
0000
1000
0100
,
0021
0000
0000
0032
,
0000
0000
1003
0000
,
1001
0000
0000
1000
0000
0000
0020
0000
,
0000
0000
1030
0001
,
0201
0000
0000
0310
,
1000
0001
0100
0010
,
2020
0000
0000
0000
,
3030
0000
1000
0100
,
0010
0001
0100
0010
,
1000
0001
0011
0000
,
0101
0000
0000
0001
0000
0000
0100
0000
,
0000
0010
0000
0000
1000
0000
0010
0000
,
2010
0000
0000
3000
,
0001
0100
0010
1000
,
2020
0000
0000
0000
,
3030
0000
0101
0001
,
0100
0010
1000
0100
,
0010
0001
0100
0010
,
1000
0100
1000
0001
,
0010
0100
1000
0001
,
2000
0000
0000
3001
,
0100
0010
1000
0100
,
0011
0000
0000
0001
0000
0000
0100
0000
,
0000
0010
0000
0000
1000
0000
0001
0000
,
1001
0000
0000
1000
0000
0000
0010
0000
,
0000
0100
0000
0000
0001
0000
0100
0000
,
0101
0000
0000
0001
0000
0000
0100
0000
,
0000
0010
0000
0000
1000
0000
1000
0000
,
1010
0000
0000
0010
0000
0000
0100
0000
,
0000
0001
0000
0000
0100
0000
0001
0000
,
1000
0000
0000
0001
0000
0000
1000
0000
,
0000
0010
1000
1000
,
1000
0000
0000
0001
0000
0000
0100
0000
,
0000
0010
0000
0000
1000
0000
1000
0000
,
1000
0000
0000
0001
0000
0000
0010
0000
,
0000
0100
0000
0000
1000
0000
1000
0000
,
1000
0000
0000
0001
0000
0000
0100
0000
,
0000
0010
0000
0000
1000
0000
0001
0000
,
2002
0000
3003
0202
,
0000
0000
0303
0220
,
0000
0000
0330
2020
,
0000
0000
3030
1000
,
2002
0000
3003
0202
,
0000
0000
0303
0202
,
0000
0000
0303
2002
,
0000
0000
3003
1000
,
0010
0000
0000
1000
0000
0000
2002
0000
,
0000
0000
0000
3003
0000
0001
2000
0000
,
0000
0000
0000
3000
0000
0010
2000
0000
,
0000
0000
3000
0001
,
0202
0000
0303
0220
,
0000
0000
0000
0330
0000
1000
0002
0000
,
0000
0000
0000
0003
0000
0100
0020
0000
,
0000
0000
0030
1000
,
0001
0000
0000
0100
0000
0000
0010
0000
,
0000
1000
0001
1000
,
0000
0010
0100
0001
,
0000
0100
0010
1000
,
1010
0000
0000
0100
0000
0000
0101
0000
,
0000
0001
0100
0101
,
0000
0100
0010
0110
,
0000
0010
1000
0010
,
1010
0000
0000
1000
0000
0000
1001
0000
,
0000
0001
0100
0101
,
0000
0010
1000
1010
,
0000
1000
0100
0010
,
0011
0000
0000
0001
0000
0000
0101
0000
,
0000
0010
1000
0100
,
0000
0010
0001
0100
,
0000
0010
1000
0001
,
2000
0000
0000
0001
0000
0000
3100
0000
,
0000
0010
0001
0011
,
0000
0100
1000
1100
,
0000
1000
0001
0100
,
0020
0000
0000
1000
0000
0000
0130
0000
,
0000
1000
0001
1001
,
0000
0010
0100
0110
,
0000
1000
0001
0100
,
0002
0000
0000
1000
0000
0000
1003
0000
,
0000
0010
1000
1010
,
0000
0100
0001
0101
,
0000
0001
1000
0001
,
2000
0000
0000
0100
0000
0000
3100
0000
,
0000
0010
0001
0100
,
0000
0010
1000
0010
,
0000
0100
0001
0100
,
1010
0000
0000
1000
0000
0000
0001
0000
,
0000
0100
0010
1000
,
0001
0000
0000
0010
0000
0000
0100
0000
,
0000
1000
0010
0100
,
0001
0000
0000
0100
0000
0000
0010
0000
,
0000
1000
0100
0010
,
0001
0000
0000
1000
0000
0000
0001
0000
,
0000
0100
0010
1000
,
0001
0000
0000
1000
0000
0000
0010
0000
,
0000
0100
0001
0100
,
0010
0000
0000
1000
0000
0000
0100
0000
,
0100
0000
0000
0010
0000
0000
0100
0000
,
0000
1000
0000
0000
0001
0000
0000
0100
,
0000
0000
0010
0000
0000
1000
0000
0000
,
0001
1000
0002
0000
,
0000
0000
0000
0003
,
1001
0000
0000
0000
;

//--------------- dance-single - ----------------
#NOTES:
     dance-single:
     :
     Medium:
     13:
     1,0,0.172,1,1:
0000
0000
0000
0000
,
0000
0000
0000
0000
,
0000
0000
0000
0000
,
0000
0000
0000
0000
,
0000
0000
0000
0000
,
0000
0000
0000
0000
,
0000
0000
0000
0000
,
0000
0000
0000
0000
,
1001
0000
0001
0100
0000
0001
0200
0000
,
0000
0310
1000
2010
,
0000
3001
0100
0201
,
0000
0301
1000
0001
,
1001
0000
0000
0001
0000
0000
0102
0000
,
0000
0103
0010
0120
,
0000
1030
0001
1200
,
0000
1300
0001
0100
,
0110
0000
0000
0010
0000
0000
2020
0000
,
0000
0000
3030
0000
0000
1000
0002
0000
,
0000
0000
0003
0000
0000
0001
2000
0000
,
0000
3000
0000
0101
,
0011
0000
0000
0001
0000
0000
0220
0000
,
0000
0000
0330
0000
0000
1000
0002
0000
,
0000
0000
0000
0000
0003
1000
0200
0000
,
0000
0300
0000
0011
,
1001
0000
1000
0010
0000
1000
0010
0000
,
0100
0001
0000
0000
1000
0000
0001
0000
,
2001
0000
0000
3002
,
0000
0000
0013
0000
,
0001
1000
0001
1000
0100
1000
0002
0000
,
0000
0000
0103
0010
,
1020
0000
0000
1030
,
0001
0100
0010
1000
,
1010
0000
0000
0010
0000
0000
0100
0000
,
0000
0001
0000
0000
0100
0000
0010
0000
,
1020
0000
0000
2030
,
0000
0000
3200
0000
,
1300
0010
1000
0001
0100
0001
2000
0000
,
0000
0000
3001
0100
,
0102
0000
0000
2003
,
3002
0203
0320
1030
,
1001
0000
0001
0100
0000
0010
1000
0000
,
0001
0100
0000
0000
0010
0000
1000
0000
,
0001
1000
0001
0000
0100
0010
0100
0000
,
0001
0010
0001
0000
1001
0000
1000
0001
,
1000
0000
0000
0010
0000
0000
0100
0000
,
0000
0001
0000
0000
0100
0000
0010
0000
,
0220
0000
0000
0000
0330
0000
1000
0100
,
1000
0100
0010
0001
0010
0001
0100
0001
,
2000
0000
0000
0001
0000
0000
0100
0000
,
0000
0001
0000
0000
3100
0000
0010
0000
,
1000
0100
1000
0000
0001
0000
0100
0000
,
0010
1000
0010
0000
0101
0000
0001
0000
,
0010
0001
0010
0000
0100
0000
1000
0000
,
0001
1000
0001
0000
1000
0000
0010
0000
,
1002
0000
0000
1003
,
0010
0000
0100
0000
0001
0100
0001
0000
,
1000
0001
0000
0100
0010
0000
1000
0100
,
0000
0010
0001
0000
1001
0000
1000
0000
,
0001
0100
0000
0010
1000
0000
0001
0010
,
0000
0100
1000
0000
1001
0000
0001
0000
,
1000
0010
0000
0100
0001
0000
1000
0100
,
0000
0010
0001
0000
1001
0000
1000
0000
,
0001
0010
0000
0100
1000
0000
0001
0100
,
0000
0010
1000
0000
1001
0000
0001
0000
,
1000
0100
0000
1000
0100
0000
1000
0100
,
0000
1000
0100
0000
0010
0000
0001
0000
,
0100
0010
0000
0100
0010
0000
0100
0010
,
0000
0100
0001
0000
0100
0000
0010
0000
,
1000
0001
0000
0100
0010
0000
1000
0001
,
0000
0010
0100
0000
1000
0000
0001
0000
,
1000
0100
0000
0010
0001
0000
0100
0010
,
0100
0010
1000
0100
0010
0000
0001
0000
,
2002
0000
3003
0202
,
0000
0000
0303
0202
,
0000
0000
0303
2020
,
0000
0000
3030
1001
,
2020
0000
3030
0202
,
0000
0000
0303
0202
,
0000
0000
0303
1200
,
0000
0000
0000
1300
,
1001
0000
0001
0100
0000
0010
0200
0000
,
0000
0000
0301
0000
0100
0010
1000
0000
,
0001
0000
1000
0000
0001
0100
0001
0000
,
1000
0100
0010
0001
,
0011
0000
0100
0010
0000
1000
0001
0000
,
0100
0000
0010
0000
1000
0001
1000
0000
,
0010
0000
0100
0000
0001
0010
0001
0000
,
0100
0010
1000
0001
,
1000
0000
0000
0100
0000
0000
1100
0000
,
0000
0010
0001
0011
,
0000
0100
1000
1100
,
0000
1000
0001
0100
,
0110
0000
0000
0010
0000
0000
1010
0000
,
0000
1000
0001
0101
,
0000
0100
0010
1010
,
0000
1000
0100
0010
,
0011
0000
0000
0001
0000
0000
0101
0000
,
0000
0100
0010
1010
,
0000
1000
0001
1001
,
0000
0100
0010
1000
,
1001
0000
0000
0100
0000
0000
1001
0000
,
0000
0010
0010
1001
,
0000
0100
0100
1001
,
0000
1000
0100
0010
,
0011
0001
0100
1010
,
0010
0100
0001
0011
,
0001
0100
0010
1010
,
1000
0100
0010
0001
,
0101
0100
0010
1010
,
1000
0100
0010
0011
,
0001
0100
0010
1010
,
1000
0100
0010
0001
,
1001
1000
0010
0101
,
0001
0010
0100
1100
,
1000
0001
0100
0110
,
0010
1000
0100
0010
,
0011
0001
0100
0110
,
0010
1000
0100
1001
,
0001
0100
0010
1001
,
0100
0000
0010
0000
0001
0000
0100
0010
,
0100
0000
0000
0001
0000
0000
1000
0000
,
0000
0100
0010
0001
,
0101
0000
0000
0100
0000
0000
0110
0000
,
0000
0010
1000
0100
,
0110
0000
0000
0010
0000
0000
1001
0000
,
0000
0100
0010
1000
,
0001
0000
0000
1000
0000
0000
1001
0000
,
0000
0001
1000
0001
,
0101
0000
0000
0100
0000
0000
0110
0000
,
0000
0010
1000
0001
,
0110
0000
0000
1000
0000
0000
0001
1000
,
0001
0000
0100
0010
0000
1000
0100
0000
,
0010
0001
0000
0100
0010
0000
1000
0100
,
0000
0010
0001
0000
0100
0010
0000
1000
,
0100
0010
0001
1000
0200
0000
0000
0000
,
0000
0000
0000
0300
,
1001
0000
0000
0000
;

//--------------- dance-single - ----------------
#NOTES:
     dance-single:
     :
     Hard:
     17:
     1,0,0.097,1,1:
0000
0000
0000
0000
,
0000
0000
0000
0000
,
0000
0000
0000
0000
,
0000
0000
0000
0000
,
0000
0000
0000
0000
,
0000
0000
0000
0000
,
0000
0000
0000
0000
,
0000
0000
0000
0000
,
1001
0000
1000
0001
0000
1000
1100
0000
,
0010
0001
0100
0000
0010
0000
1010
0000
,
1000
0001
1000
0000
0010
1000
1001
0000
,
0001
0100
0010
0000
0010
0000
1000
0000
,
1001
0000
0001
1000
0000
0010
2020
0000
,
3030
1000
0001
0000
0100
0000
2010
0000
,
0000
3001
0100
0000
0010
1000
1010
0000
,
0100
0001
0010
0000
0002
0000
1003
0000
,
1001
0000
0001
0100
0000
0010
2020
0000
,
3030
1000
0001
0000
0100
0010
2010
0000
,
3000
0001
0100
0000
0010
1000
1020
0000
,
0030
1000
0001
0000
0010
0000
0011
0000
,
1001
0000
1000
0001
0000
0100
0210
0000
,
0300
0010
1000
0000
0001
1000
0200
0000
,
0300
1000
0010
0000
0100
0001
0202
0000
,
0303
0000
0100
0010
1000
0000
1001
0000
,
0101
0000
0001
0100
0000
0010
1000
0000
,
0001
0100
0000
0010
2000
0000
3001
0000
,
1002
0000
0000
1003
,
0001
1000
0000
0001
2000
0000
0000
0000
,
3001
0100
0010
0100
0001
1000
0020
0000
,
1030
0001
1000
0000
0020
0000
0130
0000
,
0101
0000
0001
0100
0000
0010
1000
0000
,
0002
0203
0320
1030
,
1010
0000
1000
0100
0000
0010
0001
0000
,
0100
0010
0000
1000
0002
0000
0103
0000
,
0101
0000
0100
0010
0000
1000
0010
0000
,
0100
0001
0000
0100
0020
0000
1030
0000
,
0001
0100
0001
1000
0010
0100
0001
0000
,
1000
0100
1000
0001
0100
0000
0010
0000
,
2010
0000
3001
0100
0000
0010
1000
0000
,
0002
0000
0203
0000
0310
1000
0001
0000
,
1001
0000
1000
0010
0000
1000
0100
0000
,
0010
0001
0000
0100
0020
0000
1030
0000
,
0001
0100
0001
0100
0010
1000
0010
1000
,
0001
0010
0100
1000
0020
0000
1030
0100
,
1000
0001
0100
0001
1000
0100
1000
0001
,
0100
0010
1000
0100
0020
0000
0031
0000
,
2000
0000
0000
0000
0000
0000
3001
0100
,
0001
0010
0001
0100
0010
1000
0010
0100
,
0002
0000
1003
0100
0000
0010
0001
0000
,
0100
0010
0000
0000
1001
0000
0001
0000
,
1000
0100
1000
0010
1000
0010
1000
0100
,
1000
0001
0100
0001
0010
0001
0100
0010
,
0100
0001
0010
0100
1000
0010
0100
0001
,
1000
0100
0010
0001
1000
0010
0100
0001
,
2000
0000
0000
0000
0000
0000
3001
0100
,
0001
0010
0100
1000
0010
0100
0001
1000
,
0001
0100
1000
0100
0001
0100
0010
1000
,
0100
0010
0001
0100
0020
0000
1030
0000
,
0001
0010
1000
0010
0100
1000
0010
0100
,
0001
1000
0100
0010
0200
0000
1300
0000
,
0001
0010
0100
1000
0010
0100
0001
1000
,
0100
0001
0100
1000
0020
0000
0130
0000
,
0001
0010
0001
1000
0100
1000
0001
0100
,
0001
1000
0100
1000
0001
0000
1000
0000
,
0001
0100
0001
1000
0100
1000
0001
0100
,
0001
1000
0100
1000
0020
0000
1030
0000
,
0001
0010
0001
1000
0100
1000
0001
0100
,
0001
1000
0100
1000
0002
0000
1003
0000
,
0001
0010
0001
0100
0010
1000
0001
0010
,
0001
0100
0010
0100
0002
0000
1003
0000
,
0001
0100
0001
1000
0100
1000
0001
0010
,
0100
1000
0010
0100
0001
1000
0001
0000
,
2002
0000
3003
0202
,
0000
0000
0303
0220
,
0000
0000
0330
2020
,
0000
0000
3030
1001
,
0202
0000
0303
2002
,
0000
0000
3003
2020
,
0000
0000
3030
0220
,
0000
0000
0330
0011
,
1001
0000
0001
0100
0000
0010
1010
0000
,
1000
0001
0000
0100
0010
1000
1010
0000
,
0100
0001
0000
0100
0010
0000
1010
0000
,
1000
0001
0000
0010
0100
0000
1000
0000
,
1100
0000
1000
0010
0000
0100
0101
0000
,
0001
0010
0000
0100
1000
0010
1010
0000
,
1000
0010
0000
0100
0001
0000
0101
0000
,
0010
1000
0000
0010
0100
0000
0001
1000
,
0001
0010
0001
1000
0100
1000
0001
0100
,
0001
1000
0100
1000
0001
0100
0001
0010
,
0100
1000
0100
1000
0001
0100
0001
0100
,
0010
1000
0100
1000
0001
0010
0100
1000
,
0001
0100
0001
0010
0001
0010
0001
0100
,
0010
1000
0100
1000
0001
0010
0100
1000
,
0100
0010
0100
1000
0100
0010
0001
0100
,
0001
0100
0010
1000
0010
1000
0001
0010
,
0100
1000
0010
1000
0100
1000
0001
0010
,
0001
0100
0010
0100
0001
0010
0100
1000
,
0001
0100
0010
0100
0001
0010
0100
1000
,
0010
1000
0100
0010
0001
0100
0010
1000
,
0001
0010
0100
1000
0010
0100
0001
0010
,
0001
0100
0010
0100
0001
0010
0001
0100
,
0010
1000
0100
0010
0001
0100
0010
1000
,
0010
0100
0001
0100
0010
1000
0100
0010
,
0002
0000
1003
0010
0000
0100
0002
0000
,
1003
0010
1000
0000
0001
1000
0002
0000
,
0103
0000
0010
0000
1000
0001
0200
0000
,
0310
1000
0001
0000
0100
0000
0010
0000
,
1010
0000
1000
0001
0000
0100
0020
0000
,
1030
0100
1000
0010
0100
0001
0020
0000
,
0031
0100
0010
0000
1000
0001
2000
0000
,
3001
0100
0010
0000
1000
0000
0100
0000
,
1100
0000
1000
0010
0100
0001
0200
0000
,
0310
1000
0100
1000
0010
0100
0002
0000
,
1003
0100
0010
0000
0001
0010
0002
0000
,
0000
0000
0000
1003
,
0101
0000
0010
1000
0010
0100
0002
0000
,
1003
0100
0010
0001
0100
0010
2000
0000
,
3001
0010
0100
1000
0010
0100
0001
0010
,
0001
1000
0010
1000
0001
0010
0100
1000
,
0010
0100
0001
0010
0100
1000
0010
1000
,
0010
0100
0001
0100
0001
0010
0001
1000
,
0100
0010
0001
0100
0010
1000
0001
0010
,
0100
0010
0001
0100
0010
1000
0001
0010
,
0100
1000
0100
1000
0010
0100
0001
0010
,
0100
1000
0001
0100
0010
0100
0001
0010
,
0001
0100
0010
1000
0001
0100
0001
0010
,
0100
1000
0001
0010
0100
1000
0001
0010
,
0001
0100
0010
1000
0010
0100
0001
0010
,
0100
1000
0010
0100
0001
0010
0001
0100
,
0001
0000
1000
0000
0100
0000
1000
0000
0010
0000
0100
0000
0001
1000
0001
1000
,
0001
0010
0100
0010
0001
1000
0010
0100
,
0001
0010
0100
1000
0010
0100
0001
0010
,
0100
1000
0010
0100
0001
0100
0010
1000
,
0001
0010
0100
1000
0002
0000
0000
0000
,
0000
0000
0000
0003
,
0010
0000
0000
0000
;
