#TITLE:Break Me Down;
#SUBTITLE:;
#ARTIST:Red;
#TITLETRANSLIT:;
#SUBTITLETRANSLIT:;
#ARTISTTRANSLIT:;
#GENRE:;
#CREDIT:;
#MUSIC:Break Me Down.ogg;
#BANNER:;
#BACKGROUND:;
#CDTITLE:;
#SAMPLESTART:68.213;
#SAMPLELENGTH:12.000;
#SELECTABLE:YES;
#OFFSET:-0.300;
#BPMS:0.000=52.980
,10.000=105.960
;
#STOPS:;
#MENUCOLOR:;
#LISTSORT:;
#TICKCOUNT:0.000=2;
#BGCHANGES:;
#FGCHANGES:;

//--------------- dance-single - ITG 1 ----------------
#NOTES:
     dance-single:
     ITG 1:
     Beginner:
     3:
     0,0,0,0,0:
0000
0000
0000
0000
,
0000
0000
0000
0000
,
0000
0000
1000
0000
,
0000
0000
0001
0000
,
0100
0000
0010
0000
,
0000
0000
1000
0000
,
0001
0000
0000
1000
,
0000
1000
0000
0001
,
0000
0001
0000
0100
,
0000
0100
0000
0010
,
0000
0000
1001
0000
,
0001
0000
1000
0000
,
0001
0000
0100
0000
,
0010
0000
1000
0000
,
0001
0000
1001
0000
,
1000
0000
0010
0000
,
0100
0000
0001
0000
,
1000
0000
0100
0000
,
0010
0000
0001
0000
,
1000
0000
0001
0000
,
0100
0000
0000
0000
,
0001
0000
0000
0000
,
1000
0000
0001
0000
,
1000
0000
0000
0000
,
0000
0000
0000
0000
,
0010
0000
0000
0000
,
0100
0000
0001
0000
,
1001
0000
0100
0000
,
1001
0000
0010
0000
,
1001
0000
0100
0000
,
1001
0000
0100
0000
,
0110
0000
0010
0000
,
0110
0000
0010
0000
,
1000
0000
0001
0000
,
1000
0000
1001
0000
,
0001
0000
1000
0000
,
0010
0000
0100
0000
,
0001
0000
1000
0000
,
0100
0000
1001
0000
,
0010
0000
0100
0000
,
0001
0000
1000
0000
,
0010
0000
1000
0000
,
0001
0000
1000
0000
,
0000
0000
1001
0000
;

//--------------- dance-single - ITG 4 ----------------
#NOTES:
     dance-single:
     ITG 4:
     Easy:
     6:
     0,0,0,0,0:
0000
0000
0000
0000
,
0000
0000
0000
0000
,
0000
0000
1000
0000
0001
0000
0000
1000
,
0000
0001
1000
0010
,
1000
0001
0100
0010
,
1000
1000
0001
1000
,
0001
0100
0010
2000
,
3002
2003
3020
0230
,
0302
0203
0302
2003
,
3020
2030
3002
0203
,
0320
0030
1010
1000
,
0002
1003
0020
1030
,
0001
0100
0101
0010
,
1000
0001
1001
0100
,
0010
0000
1000
0001
2000
0000
3100
0000
,
0020
0031
0200
0310
,
2000
3001
1001
0100
,
0010
1000
0001
0100
,
0010
0000
1000
0001
1000
0000
0000
0001
,
0200
0000
0300
0020
0000
0030
1000
0002
,
0000
0003
0000
0000
,
1000
0001
0000
2000
0000
3000
0000
0001
,
0000
0100
0000
0010
0000
0000
0000
0000
,
1000
0000
0000
0001
0000
0000
2000
0000
0000
0000
3002
0000
0000
0000
0203
0000
,
0000
0320
0000
2030
0000
3000
0000
0000
,
0001
0000
0000
1000
0000
0000
0010
0000
0000
0000
0000
0000
0000
0000
1000
0000
,
0000
0001
0100
0000
0020
0000
0030
0000
,
1010
0000
0002
0003
,
0110
0000
2000
3000
,
1001
0000
0020
0030
,
1001
0000
2000
3000
,
0001
0000
1000
0010
0100
0000
0000
0000
,
0002
0000
1003
0010
2000
0000
3000
0000
,
0001
0000
0100
0000
0010
0000
1000
0001
,
0100
0000
1001
0001
,
1000
0000
0010
1000
0000
0001
0000
0100
,
0000
0010
0000
1000
0000
0000
1001
0000
,
1000
0001
0000
1000
0000
0010
0000
0100
,
0000
0001
0000
1000
0001
0000
0000
1000
,
0010
0000
0100
0002
0000
0003
1000
0001
,
1000
0000
0010
1000
0200
0000
0300
0010
,
0001
0000
0010
0100
0010
0000
0000
0001
,
0000
1000
0000
0002
0000
0000
0000
0000
,
0003
1000
1001
0000
;

//--------------- dance-single - ITG 6 ----------------
#NOTES:
     dance-single:
     ITG 6:
     Medium:
     9:
     0,0,0,0,0:
0000
0000
0000
0000
,
0000
0000
0000
0000
,
0000
0001
2000
3001
,
1000
0000
0001
0000
0001
0010
0001
0000
,
1000
0000
0100
0000
0010
0001
0010
0000
,
0100
0100
1000
1000
0001
0010
0100
0000
,
1000
0100
0010
0000
0001
0000
1000
0100
,
1000
0100
1000
0001
0010
0000
0002
0003
,
2000
3000
0002
0003
0010
0000
0001
0010
,
0001
0010
0001
0000
2000
0000
3200
0000
,
0320
0000
0000
0000
0031
0000
0000
0000
1001
0000
0000
0000
1000
0000
0000
0100
,
0000
0000
0010
0000
0001
0000
0000
0000
1001
0000
0000
0000
1000
0000
0000
0100
,
0000
0000
0010
0000
0001
0000
0000
0000
0120
0000
0000
0000
0130
0000
0000
0010
,
0000
1000
0002
0000
0013
0100
1000
0100
,
0010
0000
0001
0000
1000
0000
0001
0000
1002
0000
0000
0000
1003
0000
0000
0100
,
0000
0000
0001
0000
0100
0000
0000
0000
1100
0000
0000
0000
1000
0000
0000
0010
,
0000
0000
0100
0000
0001
0000
0100
0000
0201
0000
0000
0000
0301
0000
0000
1000
,
0000
0100
0001
0000
0100
1000
0010
0100
,
0001
1000
0100
1000
0001
1000
0001
0100
,
0020
0000
1030
0001
2000
0000
3010
0000
,
0100
0001
1000
0001
,
1000
0001
1000
0010
0100
0000
0001
1000
,
0000
0001
0000
0100
0010
1000
0010
0000
,
0100
0001
0100
0000
0010
1000
0010
0000
,
1000
0100
1000
0000
0001
0010
0001
0100
,
0001
1000
0100
1000
0010
0000
0000
0100
,
0000
0001
1000
0000
1001
0000
0000
1000
,
1001
0000
0000
0001
0000
0000
0100
0000
0020
0000
0000
0000
0030
0000
1000
0000
,
1001
0000
0000
0001
0200
0000
0300
0010
,
1010
0000
0000
1000
0000
0000
0001
0000
0200
0000
0010
0000
0300
0000
0001
0000
,
2001
0000
3000
0000
2000
0000
3000
0010
,
2010
0000
3001
0100
0010
0000
0000
1000
,
1002
0000
1003
0100
0001
0000
0000
0100
,
1100
0000
1000
0001
0100
0000
0010
1000
,
2020
0000
0000
0000
3030
0000
0000
0000
1100
0000
0000
0000
1000
0000
0000
0001
,
0000
0000
0100
0000
0010
0000
0000
0000
1010
0000
0000
0000
1000
0000
0000
0001
,
0000
0100
0010
1000
0001
0100
0001
1000
,
0001
0010
0011
0000
0001
0100
0010
1000
,
0100
0010
0001
0100
0101
0000
0001
1000
,
0200
0000
1300
0010
2000
0000
3001
0100
,
0020
0000
1030
0001
2000
0000
3001
0010
,
0002
0000
1003
0010
1020
0000
1030
0001
,
0100
0010
1000
0002
0000
0000
0000
0000
,
0003
0000
0000
1000
0001
1000
0000
0000
1001
0000
0000
0000
0000
0000
0000
0000
;

//--------------- dance-single - ITG 8 ----------------
#NOTES:
     dance-single:
     ITG 8:
     Hard:
     11:
     0.614,0.723,0.191,0.2,0.834:
0000
0000
0000
0000
,
00M0
0000
0M00
0000
,
00M0
0000
0000
0000
0000
0000
0000
0000
0000
0000
0001
1000
0000
0010
1000
0000
0001
0000
0000
0000
1000
0000
0100
0000
1000
0000
0010
0000
1000
0000
0000
0000
,
0001
0010
0001
0100
0001
0000
1000
0000
1010
0000
0010
0000
0100
0000
0001
0000
,
0100
0000
0100
0000
0001
0000
0001
0000
1000
0100
1000
0010
1000
0000
0001
0000
,
0100
0010
0100
0000
0001
1000
0001
0000
0100
0000
0010
0000
1000
0000
0001
0000
,
1000
0000
1000
0010
0100
0000
0000
0000
1010
0000
0000
0000
2000
0000
0000
0000
,
3001
0100
0010
0000
1000
0001
1000
0000
0002
0000
0000
0000
2003
0000
0000
0000
,
0001
3200
0000
0320
,
0031
1000
0001
0000
1000
0100
1000
0000
0200
0000
0000
0000
0320
0000
0000
0000
,
0032
0000
0000
0000
1003
0000
0000
0000
1001
0000
0000
0001
0100
0000
0010
1000
,
0000
0001
0100
0000
0220
0000
0330
0000
1010
0000
0000
1000
0001
0000
0100
0010
,
0000
1000
0001
0000
0202
0000
0303
0000
0110
0000
0000
0010
1000
0000
0010
1000
,
0000
0001
0100
0000
0020
0000
0030
0000
1010
0000
1000
0000
0001
0000
0100
0001
,
0000
0100
0010
0000
1000
0001
1000
0001
0100
0000
0000
0010
1000
0000
0001
0100
,
0000
0010
1000
0000
2200
0000
3300
0000
0011
0000
0000
0001
0100
0000
0010
1000
,
0000
0001
1000
0000
2200
0000
3300
0000
0011
0000
0000
0001
0100
0000
0001
0100
,
0000
0010
1000
0000
2100
0000
0000
0000
3001
0000
0100
0010
0100
0000
0001
1000
,
0000
0010
1000
0000
0001
1000
0001
1000
0020
0000
0000
0000
0000
0000
1000
0000
,
2030
0000
0000
3002
0000
0000
0013
0010
,
0100
1000
0001
0100
0010
1000
0100
1000
,
0001
0001
0100
0001
0100
0010
1000
0001
,
0100
0000
1000
0000
0100
0000
0001
0000
1000
0010
1000
0000
0001
0100
0001
0000
,
1000
0010
1000
0010
0100
0001
0100
0001
,
1000
0100
1000
0100
0010
0001
0010
0001
,
1000
0010
1000
0010
0100
0001
0010
0001
,
0100
0010
1000
0001
2000
0000
3000
0010
,
1010
0000
0000
1000
0000
0000
0001
0000
1001
0000
2000
0000
0000
0000
3001
0000
,
0101
0200
0000
0310
1000
0000
0000
0001
,
1001
2000
0000
3001
1000
0010
0000
0100
,
0001
0002
0000
0003
2002
0000
3003
1000
,
0020
0000
0130
0010
1010
0000
0000
1000
,
1002
0000
0013
0100
0110
0000
0000
0010
,
0001
0100
0010
1000
0002
0000
0103
0010
,
0100
0000
0001
0000
0000
0000
1000
0000
1001
0000
0001
0100
0001
0000
1000
0010
,
0000
0100
0001
0000
0101
0000
0100
0000
0110
0000
0010
1000
0010
0000
0100
0001
,
0000
0100
0010
0000
1000
0000
0001
0000
1000
0100
1000
0010
0100
0000
0000
0000
,
0001
0000
1000
0010
1000
0000
0001
0100
0001
0000
1000
0010
0100
0000
0001
0010
,
0001
0100
0010
1000
0001
0100
0001
0100
0001
0000
0010
0100
1000
0000
0001
0010
,
0000
0100
1000
0000
1010
0000
0010
0100
0010
0000
1000
0010
0100
0000
0001
0000
,
1000
0000
0001
0000
1001
0000
1000
0001
1000
0000
0010
0100
0001
0000
0100
0000
,
0010
0000
1000
0000
1010
0000
0010
0000
0100
0000
0001
0100
0010
0000
2000
0000
,
0000
0000
3001
0000
1000
0010
2000
0000
0000
0000
0000
0000
0000
0000
0000
0000
,
3000
0000
0000
1000
0010
0100
0000
0000
0101
0000
0000
0000
0000
0000
0000
0000
;

//--------------- dance-double - ----------------
#NOTES:
     dance-double:
     :
     Hard:
     12:
     0,0,0,0,0:
00000000
00000000
00000000
00000000
,
00000000
00000000
00000000
00000000
,
00000000
00000000
00000000
00000000
00000000
00000000
00000000
00000000
00000000
00000000
00010000
00001000
00000000
00010000
00001000
00000000
00010000
00000000
00000000
00000000
00001000
00000000
00100000
00000000
00001000
00000000
00010000
00000000
00001000
00000000
00000000
00000000
,
00010000
00000100
00001000
00000100
00010000
00000000
00001000
00000000
00010000
00000000
00000100
00000000
00001000
00000000
00000010
00000000
,
00000100
00000000
00000001
00000000
00000010
00000000
00000001
00000000
00001000
00000000
00000010
00001000
00000010
00000000
00010000
00001000
,
00010000
00001000
00010000
00000000
00001000
00100000
00001000
00000000
10000000
00100000
10000000
00010000
01000000
00000000
00100000
00000000
,
10000000
00000000
00010000
00000000
10010000
00000000
10000000
00000000
00010000
00100000
00010000
00000000
10000000
00000000
00000000
00000000
,
00010000
00001000
00000001
00001000
,
00010000
10000000
00010000
01000000
,
00001000
00010000
00000100
00000000
00002000
00000000
00003002
00000000
,
00001003
00000000
00000000
00000000
00000000
00000000
00000000
00000000
00001100
00000000
00000100
00010000
00000100
00000000
00010000
00001000
,
00010000
00001000
01000000
00000000
00100000
00000000
00000000
00000000
10100000
00000000
10000000
00010000
10000000
00000000
00100000
01000000
,
00001000
00010000
00001000
00000000
00010000
00000000
00000100
00000000
00001100
00000000
00001000
00000001
00001000
00000000
00000010
00001000
,
00000100
00001000
00000010
00000000
00001010
00000000
00000000
00000000
00011000
00000000
00010000
00000010
00010000
00000000
00000010
00001000
,
00000001
00000100
00000010
00000000
00010000
00001000
00010000
00001000
01000000
00000000
00100000
10000000
00100000
00000000
01000000
00010000
,
00100000
00010000
00100000
00000000
00011000
00000000
00000000
00000000
00010000
00000000
00000100
00001000
00000010
00000000
00000100
00000001
,
00000100
00000010
00010000
00000000
00001000
00000000
00100000
00000000
00110000
00000000
00010000
10000000
00010000
00000000
10000000
00100000
,
01000000
00010000
10000000
00000000
00110000
00000000
00100000
00000000
00001000
00000000
00010000
00001000
00010000
00000000
00000100
00010000
,
00001000
00100000
00001000
00000000
01000000
00010000
01000000
00000000
00010000
00000000
10000000
00100000
10000000
00000000
00100000
00000000
,
01000000
00001000
01000000
00010000
00100000
00001000
01000000
00100000
,
01000000
00001000
00010000
00000100
00010000
00000100
00001000
00000001
,
00001000
00000100
00001000
00000100
00010000
00001000
00010000
00001000
,
00100000
00001000
00010000
00001000
00100000
00010000
10000000
01000000
,
10000000
00010000
10000000
00100000
10000000
00010000
10000000
00100000
,
10000000
01000000
00100000
00001000
00010000
00000010
00000100
00000001
,
00000100
00000010
00001000
00000001
00001000
00000100
00001000
00000001
,
00001000
00000100
00010000
00000000
00011000
00000000
00001000
00100000
,
00110000
00000000
00000000
00010000
00000000
00000000
20000000
00000000
00010000
00000000
30010000
00000000
00000000
00000000
10000000
00000000
,
10010000
00010000
01000000
00001000
00020000
00000000
00030100
00001000
,
00001100
00000100
00000000
00010000
00002000
00010000
00013000
00001000
,
00102000
00200000
00003000
00300000
00002000
00000000
00103000
00001000
,
00021000
00000000
00030100
00001000
00000002
00000000
00001003
00000010
,
00002010
00000000
00003001
00000100
00000002
00000000
00001003
00000100
,
00010000
00001000
00100000
00010000
00200000
00000000
00301000
00010000
,
00011000
00000000
00001000
00000000
00000000
00000000
00010000
00000000
00010100
00000000
00000100
00010000
00000010
00000000
00000100
00000001
,
00000100
00000000
00000010
00000000
00001010
00000000
00001100
00000000
00000100
00010000
00000100
00010000
00000100
00000000
00010000
00001000
,
00100000
00000000
00010000
00000000
10010000
00000000
10000000
00000000
00010000
01000000
00010000
01000000
00001000
00000000
00010000
00001000
,
00010000
00000100
00001000
00000000
00001100
00000000
00000100
00000000
00010100
00000000
00010000
00000100
00001000
00000000
00000010
00000100
,
00000001
00000100
00000010
00010000
00001000
00100000
00001000
00010000
00000100
00000000
00001000
00000100
00001000
00000000
00000100
00000000
,
00001000
00000100
00001000
00000000
00000100
00000000
00001000
00000000
00001010
00000000
00000010
00000100
00000001
00000000
00000100
00000000
,
00000010
00001000
00000100
00000000
00001100
00000000
00000100
00000000
00010000
00001000
00010000
00001000
00100000
00000000
00010000
01000000
,
00100000
10000000
00010000
00000000
10000000
00000000
00010000
00000000
01000000
00001000
00010000
00001000
00100000
00000000
00001000
00010000
,
00001000
00000000
00010000
00000000
00001000
00010000
00000020
00000000
00000000
00000000
00000000
00000000
00000000
00000000
00000000
00000000
,
00000030
00000000
00000000
00010000
00001000
00010000
00000000
00000000
00011000
00000000
00000000
00000000
00000000
00000000
00000000
00000000
;
