#TITLE:Bounce;
#SUBTITLE:;
#ARTIST:Bon Jovi;
#TITLETRANSLIT:;
#SUBTITLETRANSLIT:;
#ARTISTTRANSLIT:;
#GENRE:;
#CREDIT:;
#MUSIC:Bounce.ogg;
#BANNER:;
#BACKGROUND:;
#CDTITLE:;
#SAMPLESTART:0.000;
#SAMPLELENGTH:0.000;
#SELECTABLE:YES;
#OFFSET:-0.042;
#BPMS:0.000=128.000
,33.000=64.000
,37.000=128.000
,75.000=256.000
,77.000=128.000
,159.000=256.000
,163.000=128.000
,235.000=64.000
,243.000=128.000
,257.000=256.000
,263.000=128.000
;
#STOPS:75.000=0.117
,75.500=0.117
,76.000=0.117
,76.500=0.117
,113.000=2.813
,159.000=0.117
,159.500=0.117
,160.000=0.117
,160.500=0.117
,161.000=0.117
,161.500=0.117
,162.000=0.117
,162.500=0.117
,257.000=0.117
,257.500=0.117
,258.000=0.117
,258.500=0.117
,259.000=0.117
,259.500=0.117
,260.000=0.117
,260.500=0.117
,261.000=0.117
,261.500=0.117
,262.000=0.117
,262.500=0.117
;
#DISPLAYBPM:64.000:128.000;
#BGCHANGES:;
#FGCHANGES:;

//--------------- dance-single - Jumps ----------------
#NOTES:
     dance-single:
     Jumps:
     Beginner:
     3:
     0,0,0,0,0:
0000
0000
0000
0000
,
0000
1000
0000
0000
,
0000
0001
0000
0000
,
0000
0100
0000
0000
,
0000
1001
0000
0001
,
0000
0100
0000
0010
,
0000
1000
0000
0100
,
0000
0010
0000
0001
,
0000
1001
0000
0000
,
0000
1001
1001
0000
,
0100
0000
0010
0000
,
0000
0001
0001
0000
,
0100
0000
0000
0000
,
0000
0010
0010
0000
,
1000
0000
0000
0000
,
0000
1001
0000
0000
,
0000
0100
0000
0000
,
0000
0010
0000
1000
,
0000
0001
0000
1000
,
0000
1001
0000
1001
,
0000
0100
0000
0010
,
0000
1001
0000
1001
,
0000
0000
0000
0100
,
0000
1001
0000
1001
,
0000
0010
0000
0010
,
0000
0100
0000
0001
,
0000
1001
0000
1000
,
0000
0001
0000
0100
,
0000
0001
0000
1000
,
1000
0000
1001
0000
,
0000
0000
0000
0010
,
0010
0000
1001
0000
,
0000
0000
0000
0100
,
0100
0000
1001
0000
,
0000
0200
0000
0300
,
0000
0000
0000
0000
,
0000
0001
0001
0000
,
0000
1000
0000
0000
,
0000
0001
0000
0100
,
0000
0010
0000
0001
,
0001
0001
0000
1001
,
0000
1001
0000
1000
,
0000
0001
0000
1001
,
0000
1001
0000
0000
,
0000
0000
0000
0010
,
0000
1000
0000
0001
,
0000
0000
0000
0100
,
0000
0010
0000
0110
,
0000
0000
0000
1000
,
0000
0001
0000
1001
,
0000
1000
0000
0000
,
0000
0001
0000
0000
,
0000
0100
0000
0001
,
0000
1000
0000
0100
,
0000
0010
0000
0001
,
0000
1000
0000
0010
,
0000
0100
0000
0001
,
0000
1000
0000
0100
,
0000
0010
0000
1001
,
0000
1000
0000
0001
,
0000
0100
0000
1001
,
1001
0000
0000
0000
,
1001
0000
0000
1000
,
1000
0000
0000
0000
,
0000
0100
0100
0100
,
0100
0100
0000
1001
,
0000
1001
0000
0001
,
0000
0100
0000
1001
,
0000
1001
0000
0010
,
0000
1000
0000
1001
,
0000
0110
0000
0001
,
0000
0000
0000
1000
,
0000
0001
0000
0100
,
0000
0010
0000
1001
;

//--------------- dance-single - Jumps ----------------
#NOTES:
     dance-single:
     Jumps:
     Easy:
     5:
     0,0,0,0,0:
0000
0000
0000
0000
,
0000
1000
0000
0001
,
0000
1000
1000
0001
,
0001
0100
0100
0010
,
1001
1001
0001
0100
,
0010
1000
1000
0001
,
0001
0100
0001
1000
,
0001
0100
0100
0010
,
1000
1001
0000
0000
,
0000
1001
1001
0001
,
0100
0100
0010
1000
,
0000
1001
1001
0001
,
0100
0010
1000
0001
,
1000
1001
1001
0001
,
0100
0010
1000
0001
,
0001
1001
0000
1000
,
0000
1001
0000
0001
,
0000
1000
0100
0001
,
0100
1000
0001
0100
,
0100
1001
0000
1001
,
0000
1000
0001
0100
,
0010
1001
0000
1001
,
0000
1000
0001
0100
,
0100
1001
0000
1001
,
0000
0010
0010
0100
,
0100
0001
1000
0001
,
1000
0010
0110
0001
,
0100
0010
1000
0001
,
1000
1001
0000
1001
,
0110
0001
0001
1000
,
0010
1000
0001
1001
,
1001
0001
1001
1000
,
0010
0100
0001
1001
,
1001
1000
0010
0100
,
0001
1000
0010
1000
,
0001
0100
0010
1000
,
0010
1001
0000
1000
,
0000
0001
0000
0100
,
0000
1000
0010
0001
,
0100
1000
0001
1000
,
0010
1000
0001
1001
,
0000
0110
0000
1000
,
0100
0001
0100
1001
,
0000
1001
0000
1000
,
0000
0001
0001
1001
,
0000
1001
0000
1000
,
1000
0010
0010
1000
,
0001
1000
0100
1000
,
0010
1000
0001
1000
,
0001
1000
0100
1001
,
0000
1000
0001
0100
,
0010
1000
0100
1000
,
0001
0100
0100
0010
,
0010
1000
1000
0001
,
0001
1000
0010
0100
,
0001
0010
0100
0010
,
0001
1000
0010
1000
,
1000
0001
0001
0100
,
0100
0010
0010
1000
,
0000
1000
0000
1000
,
0000
1000
0000
0110
,
0110
0000
0000
0000
0000
1001
0000
0000
,
1001
0000
0000
1001
,
1001
0000
0000
0000
0000
1001
0000
0000
,
1001
1000
1000
1000
,
1000
1000
1000
0101
,
0000
0101
0000
0010
,
1000
1000
0001
1001
,
0000
1001
0000
1000
,
0000
1000
0000
1001
,
0000
0110
0000
1000
,
0001
0100
0010
1000
,
1000
0001
0001
0100
,
0100
0010
0010
1001
;

//--------------- dance-single - Jumps ----------------
#NOTES:
     dance-single:
     Jumps:
     Medium:
     9:
     0,0,0,0,0:
0000
0000
1000
0001
1000
0000
0010
1000
,
0010
2000
3002
0203
,
0302
0000
1003
0100
1000
0000
0001
0100
,
0010
0000
1000
0100
0010
0000
0100
0000
,
1001
0000
0101
0000
0001
0100
0010
0000
,
1010
0000
1000
0000
1001
0000
0001
0100
,
0010
0000
1010
0000
1000
0000
1000
0001
,
0100
0000
0010
0000
1010
0000
1000
0001
,
1000
0000
0000
0000
1001
0000
1000
0000
1000
0000
0000
0000
0001
0000
0000
1000
,
0000
0001
1001
0000
1001
0000
1000
0000
,
0001
0000
0100
0010
1000
0000
0001
0000
,
1000
1001
1001
0001
,
0100
0000
0010
1000
0001
0000
1000
0000
,
0001
0000
0101
0000
0101
0000
0100
0010
,
2000
0000
3001
1000
0001
0000
0100
0010
,
1000
1001
1001
0001
,
0100
1010
1010
0100
,
0001
2000
3200
0320
,
0032
0000
0203
0000
0320
0000
1030
0001
,
1000
0001
1001
0000
0010
0000
1001
0000
,
0100
0000
1000
0100
1000
0001
0010
0001
,
1000
1001
0010
1001
,
1000
0020
0000
0000
1030
0000
0001
0001
,
1000
1001
0010
1001
,
1000
0100
1000
0000
0001
0100
0010
1000
,
0001
0000
1000
1000
0100
0000
0010
0010
,
0001
0000
1000
0000
1001
0000
1000
0001
,
0100
0000
0010
0000
1000
0000
0001
1000
,
0001
1001
0000
0011
,
1100
0001
1001
1000
,
1010
0000
0001
0100
0010
0000
1010
0000
,
1001
0000
0001
0100
0010
0000
1000
0000
,
1010
0000
1000
0001
0100
0000
1010
0000
,
1001
0001
0101
0200
,
0320
2030
3002
1000
,
1003
0010
0100
0001
,
1000
1002
2003
3020
,
0130
0020
2030
3200
,
1300
0020
2030
3002
,
0203
0000
0320
0000
2030
0000
3001
0100
,
0001
0100
0010
1000
0010
1000
1010
0000
,
0001
0000
1010
0000
0001
0000
1000
0010
,
1000
0001
0010
0001
0100
0000
1010
0000
,
1000
0000
1010
0000
1000
0020
0000
0000
,
0130
0000
0010
1000
0010
0000
0110
0000
,
1000
0000
0110
0000
1000
0010
0100
0000
,
0001
0000
0100
0100
0100
0000
0001
1000
,
0010
0000
0100
0001
0100
0000
0010
0000
,
1100
0000
0001
0100
0010
0000
1000
0000
,
0100
0000
0010
0001
0100
0000
2002
0000
,
3003
0001
0100
0020
0000
2030
0000
0000
,
3000
0001
0200
0000
0302
0000
0000
2003
,
0000
3001
0100
0002
0000
0203
0000
0000
,
0310
0000
1000
0000
0001
0000
0001
0020
,
0000
0031
0100
0020
0000
2030
0000
0000
,
3000
0001
0200
0000
0302
0000
0000
0203
,
0000
0310
0001
0200
0000
0310
1000
0000
,
0010
0100
0001
1000
,
1001
1000
0001
1001
,
1000
0010
0100
0010
,
1000
0000
0010
0010
0010
0000
1010
0000
,
1010
0000
0000
0000
0000
1001
0000
0000
,
1001
0000
0000
0101
,
0101
0000
1000
0000
0000
1010
0000
0000
,
1001
0000
0001
1000
0001
1000
0001
1000
,
0001
1000
0001
1000
0001
1000
1001
0000
,
0001
0000
1001
0000
1000
0000
0010
0100
,
0001
0010
0001
1000
0010
0000
1010
0000
,
0100
0000
0101
0000
1000
0002
0000
0000
,
1003
0000
0001
0001
0001
0000
1001
0000
,
0001
0000
1001
0000
1000
0010
1000
0000
,
0001
0000
0100
0010
1000
0000
0001
0010
,
0001
0000
0100
0010
1000
0000
0001
0000
,
1001
0001
0100
1001
;

//--------------- dance-single - Jumps ----------------
#NOTES:
     dance-single:
     Jumps:
     Hard:
     12:
     0,0,0,0,0:
0000
0000
1000
0001
1000
0001
0100
0010
,
0100
0010
1000
0100
1000
0100
1000
0010
,
1000
0010
0100
0001
0100
0001
0010
0001
,
0010
0001
1000
0100
0010
0001
0100
0010
,
1010
1000
1001
0000
0101
0000
0001
0100
,
0110
0000
0010
0000
1010
0000
1000
0001
,
1001
0000
0001
0000
0101
0000
0100
0010
,
1010
0000
1000
0000
1001
0000
0001
0100
,
0010
0000
0000
0000
1010
0000
0010
0000
1000
0000
0000
0001
0100
0001
0000
1000
,
0000
0001
1000
0000
1001
0000
0001
0000
0100
0000
0010
0000
1000
0000
0100
0000
,
1000
0000
0001
1000
0010
0000
1000
0001
,
1001
0000
1010
0000
1010
0000
0001
0100
,
0010
0000
0010
1000
1010
0000
0100
0100
,
0001
0100
0020
0030
0020
0030
1000
0001
,
0101
0000
0001
0100
0010
1000
0100
1000
,
0001
1000
0100
0100
1000
0010
0100
0000
,
0101
0000
0001
0100
0010
1000
0010
0100
,
0001
1000
0001
0100
1000
0100
0001
0010
,
0100
1000
0010
0100
0001
1000
0010
0010
,
0010
0010
1010
0000
1001
0000
1001
0000
,
0101
0000
0001
0100
0010
1000
0001
0100
,
0010
0110
1001
0110
,
0010
0200
0000
0301
0100
0000
0010
0010
,
1010
2001
3010
1002
,
0103
0010
1000
0000
0001
0000
1000
0100
,
1000
0000
0001
0100
0002
0000
1003
0100
,
2000
0000
3001
0100
0110
0010
1000
0010
,
1000
0000
0001
0100
0010
1000
0100
0010
,
0001
0100
0010
0000
1000
0000
1000
0001
,
0101
0000
0100
0010
1010
0000
1000
0000
,
1001
0000
0001
0100
0010
1000
0100
0100
,
0010
0000
0001
0100
2020
3030
1000
0001
,
0100
0010
1000
0100
0001
0100
1100
0000
,
1100
0000
0001
0100
0002
0000
1003
0000
,
1100
0000
0001
0010
0001
0100
0001
0010
,
0001
1000
0010
1000
0100
1000
0001
0100
,
0010
1000
0001
0010
1000
0010
0100
1000
,
0001
0100
0010
1000
0100
0001
0100
1000
,
0001
0100
0020
0000
2030
0000
3100
0010
,
0200
0000
1300
0001
0100
0000
0001
0001
,
0001
0001
1000
1000
1000
1000
1001
0000
,
0101
0000
1010
0000
1001
0000
1000
0100
,
0001
0100
1000
0010
0100
0000
0101
0000
,
0001
0000
1001
0000
1000
0002
0000
1003
,
0010
0000
0100
0100
0001
0000
0101
0000
,
0010
0000
1010
0000
1000
0001
0100
0000
,
0101
0001
0100
0010
0010
0000
1000
0100
,
0010
0000
0100
1000
0001
0000
0100
0010
,
1000
1000
0001
0100
0010
0000
1000
0100
,
0001
0100
1000
0010
0100
0001
1001
0000
,
2000
0001
0001
3001
0010
0200
0000
0310
,
0001
0010
0200
0010
0310
0001
0100
0010
,
0000
1000
0001
0200
0000
0310
1010
0000
,
1001
0000
0001
0100
0010
1000
0100
2000
,
0010
3010
1000
0200
0310
0200
0300
0010
,
0001
1000
0010
1000
1010
0000
1000
0001
,
0100
0000
0010
0000
1000
0000
1000
0000
0001
0000
1000
0010
1000
0000
0001
1000
,
0001
0000
1000
0000
0010
0000
1000
0000
0010
0000
0100
0000
0001
0000
1000
0010
,
0100
0000
0010
0000
1000
0000
0001
0000
0100
0000
0010
0000
1000
0001
0000
0100
,
0000
0000
0000
0000
0000
0000
0010
0000
1000
0000
0000
0010
0000
0000
0010
0000
0100
0000
0000
1000
0001
0000
0100
0000
0010
0000
1000
0000
0000
0000
0001
0000
,
0200
0000
0300
0010
1000
0000
0000
0000
0001
0000
0000
0000
0100
0000
0000
0000
0010
0000
0000
1000
0001
0000
0000
0000
1010
0000
0000
0000
0010
0000
0000
0000
,
0110
0000
0000
0000
0001
0000
0000
1000
0001
0000
2001
0000
3002
0000
0103
0000
,
0101
0000
0010
0000
1000
0000
0000
0001
1000
0000
0001
0000
1001
0000
0000
0000
,
0101
0000
2000
0000
3010
1010
0010
0000
,
0110
0000
0100
0100
0100
0100
0010
0010
,
0010
0010
0100
0100
0100
0100
0101
0001
,
0100
0010
1010
1000
0001
0100
0010
0010
,
1000
0100
0001
0100
1000
0001
0101
0100
,
0010
0100
0110
0010
1000
0020
0000
1030
,
1001
0000
0001
0100
0010
1000
1010
0010
,
0100
0001
0101
0100
0010
1000
0100
0010
,
0001
0000
1000
0001
1000
0000
0001
0100
,
0010
0000
1000
0100
0010
0000
0001
0100
,
0110
0010
1000
0001
1000
0001
1001
0000
;

//--------------- dance-single - SJ ----------------
#NOTES:
     dance-single:
     SJ:
     Challenge:
     13:
     0,0,0,0,0:
0000
0000
0000
0000
,
0000
0000
1000
0100
0010
0001
1000
0010
,
0100
0001
1000
0100
1000
0010
0100
0001
,
0010
0001
0100
0010
1000
0001
1000
0010
,
1010
1000
1001
0001
0100
0100
0010
0010
,
1010
0000
0001
0100
1000
0100
0001
1000
,
1010
0010
1000
0010
0001
0010
1000
0001
,
1001
1000
0100
0001
0100
1000
0010
0100
,
0001
0000
0000
0000
1M01
0000
0001
0000
1000
0000
0000
0010
0100
0001
0000
1000
,
0000
1001
01M1
0100
0110
0010
1000
0001
,
2001
0000
3001
0100
0010
1000
0100
0010
,
0010
0001
1001
1000
1010
0010
1000
0100
,
0120
0000
0031
0100
0010
1000
0002
0000
,
1003
0010
1010
1000
1001
0001
0100
0100
,
0120
0000
1030
0001
0100
0010
1000
0000
,
0001
1000
1010
0010
0100
0010
1000
0100
,
0001
0100
1000
0100
0010
0001
0100
0010
,
1000
0000
1002
1000
0103
0010
0100
1000
,
0001
0100
0010
1000
0010
1000
0010
0010
,
1000
1000
1001
0001
0100
0010
0110
0100
,
1000
0001
1001
1000
0100
0010
0001
1000
,
0200
0300
0110
0010
0001
0100
0110
0010
,
1000
0002
0100
0000
1003
0000
0010
1000
,
0010
0000
1001
1000
0010
0100
0110
0010
,
0001
1000
0020
0000
1030
0100
0010
0001
,
1000
0000
1001
0001
0100
0000
1010
1000
,
0001
0000
0100
0010
1010
1000
0001
0010
,
0001
1000
0100
0001
0100
1000
0010
1000
,
0001
1000
00M0
0000
1000
0000
1001
0001
,
0101
0100
0010
1000
1020
0000
1030
0100
,
0010
0000
0001
0000
0001
1000
1100
0100
,
0110
0010
0001
1000
1002
0000
1003
0010
,
0100
0001
0100
0010
1010
1000
1001
0000
,
0101
0000
0100
0010
2010
0000
3001
0100
,
0010
1000
1010
0010
1000
0100
1000
0001
,
0010
0001
0100
0010
1000
0001
0010
0100
,
1000
0000
1001
0001
0101
0100
0010
1000
,
1001
0000
0001
0100
0010
1000
0100
0010
,
2001
0000
3010
1000
0010
1000
0100
1000
,
0001
0100
0010
1000
0001
1000
0001
0001
,
0100
0100
0010
0010
1000
1000
1001
0001
,
0100
0010
1010
1000
0100
0001
0100
1000
,
0010
0100
0001
0010
0100
0010
0110
0100
,
1000
0001
1001
1000
0010
0100
0001
0010
,
0001
1000
0100
0010
0001
0000
1001
1000
,
0010
1000
1001
0001
0100
0010
1000
0100
,
0010
0100
1000
0001
1000
0000
0101
0100
,
0010
0000
1010
1000
0001
0000
1000
0100
,
0010
0001
0100
0010
1000
0001
0010
0100
,
1000
0010
0100
0001
1000
0001
1000
0010
,
2000
0001
0100
3001
0100
0020
1000
0100
,
1030
0000
0001
0000
0100
0010
0100
0010
1000
0000
0001
0000
1000
0000
0100
0000
,
0010
0000
0001
0000
0100
0010
0100
0000
0001
0000
1000
0000
0001
0000
0100
0000
,
0110
0000
0010
0000
1000
0000
0001
0100
0010
0000
1000
0000
1001
0000
0001
0000
,
0100
0010
1000
1000
0001
0200
0010
0010
,
0310
0000
1000
0000
0001
0100
0010
1000
0001
0010
0002
0000
1003
0000
0010
0000
,
0100
0000
0001
0000
1000
0000
0100
0000
1000
0000
0001
0010
0100
0000
1000
0010
,
0100
0000
0001
0100
0010
0000
1000
0001
2000
0000
0000
0000
3010
0000
0100
0001
,
1000
0000
0001
0010
0001
0000
1000
0000
0001
0000
1000
0000
1M02
0000
0000
0000
,
0203
0000
0000
0000
0000
0000
0310
0000
1000
0000
0000
0001
0000
0000
1000
0000
0010
0000
0000
1000
0010
0000
0000
0000
0100
0000
0001
0000
0000
0000
1000
0000
,
0010
0000
0000
1000
0001
0000
0000
0000
1000
0000
0000
0000
0100
0000
0000
0000
0010
0000
0000
0001
1000
0000
0000
0000
1001
0000
0000
0000
0001
0000
0000
0000
,
0101
0000
0000
0000
0100
0000
0000
0010
1000
0000
1010
0000
0010
0000
0100
0000
,
0101
0000
0001
0000
1000
0000
0000
0010
1000
0000
0001
0000
1001
0000
0000
0000
,
1010
0000
0000
0000
0110
0000
0000
0001
0100
0000
0110
0000
0020
0000
0030
0000
,
1010
0000
1000
1000
0001
0001
0100
0100
,
0010
0010
1000
1000
0001
0001
1001
1000
,
0010
0100
0110
0010
0100
0001
1000
0100
,
0010
0001
1000
0001
0100
0000
1010
1000
,
0100
0010
0011
0001
0100
0010
1000
0100
,
0010
0100
1000
0001
0100
0010
0110
0100
,
1000
0001
0101
0100
0010
1000
0001
0010
,
0100
1000
0010
1000
0001
0000
1001
1000
,
0010
0000
0110
0100
0001
0000
1000
0010
,
0110
0100
0001
1000
0001
0000
1001
0000
;

//--------------- dance-double - Jumps ----------------
#NOTES:
     dance-double:
     Jumps:
     Hard:
     13:
     0,0,0,0,0:
00000000
00000000
00010000
00001000
00010000
00000100
00001000
00000100
,
00010000
00001000
01000000
00100000
01000000
00001000
01000000
00100000
,
01000000
00001000
00010000
00001000
00010000
00000010
00010000
00001000
,
00010000
00000010
00001000
00000001
00000100
00000001
00001000
00000100
,
00001100
00001000
00001001
00000001
00000100
00000010
00010000
00001000
,
00010000
00000100
00100000
00010000
01000000
00001000
00100000
00010000
,
01000000
00001000
10000000
01000000
10000000
00100000
01000000
00010000
,
01000000
00100000
01000000
00001000
01000000
00010000
00100000
00001000
,
00010000
00000000
00000100
00000000
00010100
00000000
00010000
00000000
00000100
00000000
00000000
00010000
00000100
00010000
00000000
00000010
,
00000000
00000110
00000101
00000001
00001001
00001000
00000100
00001000
,
00001100
00000000
00001000
00100000
00001000
00000000
00010000
00000100
,
00001000
00000100
01000100
01000000
01100000
00000000
10000000
00010000
,
20010000
00000000
30100000
01000000
00010000
00000000
00100000
00001000
,
00010000
00001000
00011000
00010000
00110000
00000000
00100000
00001000
,
00021000
00000000
00031000
00010000
00000010
00000000
00001000
00000001
,
00001000
00000000
00000001
00000010
00000001
00000010
00001000
00000010
,
00001000
00000010
00000001
00001000
00000100
00010000
00001000
01000000
,
00010000
01000000
10000000
01000000
00010000
00001000
00000010
00000001
,
00000010
00001000
00000010
00000100
00000001
00001000
00000100
00000100
,
00000100
00000100
00010100
00010000
00001000
01000000
01010000
00010000
,
10000000
01000000
10000000
01000000
00010000
00001000
00000010
00000001
,
00000100
00000010
00010010
00010000
00001000
00100000
00101000
00001000
,
01000000
00010000
00100000
01000000
00100000
00010000
01000000
00001000
,
00010000
00000000
00010100
00000100
00001000
00000001
00000011
00000010
,
00000001
00000100
00000010
00001000
00000100
00010000
00001000
00010000
,
00012000
00000000
01003000
00100000
10000000
00010000
00100000
00001000
,
00010000
00000100
00001000
00000001
00000011
00000010
00000100
00001000
,
00000010
00000100
00000001
00001000
00000100
00001000
00000001
00000010
,
00000001
00001000
00001001
00000000
01000000
00000000
10010000
00010000
,
10010000
10000000
00010000
00100000
00011000
00000000
00001000
00000000
,
00010000
00000000
00000010
00000100
00000001
00000100
00000110
00000010
,
00001010
00001000
00000100
00010000
00011000
00000000
00001000
00100000
,
00010000
01000000
00100000
01000000
00010000
10000000
11000000
01000000
,
01100000
00000000
00100000
00001000
00110000
00000000
00020000
00000000
,
10030000
00000000
10010000
00010000
01000000
00010000
00100000
00001000
,
00010000
00000100
00010000
00001000
00100000
00010000
10000000
01000000
,
10000000
00010000
10010000
10000000
01000000
10000000
00100000
01000000
,
00010000
10000000
01000000
00100000
00010000
01000000
00100000
01000000
,
00001000
00010000
00001000
00001000
00100000
00100000
00010000
00010000
,
10000000
01000000
10000000
00100000
01000000
00001000
01000000
01000000
,
00100000
00100000
01000000
01000000
00100000
00100000
10010000
10000000
,
00010000
00100000
00101000
00001000
00010000
00000010
00000100
00000001
,
00000100
00001000
00000100
00000010
00010000
00000100
00011000
00001000
,
00100000
00010000
10010000
10000000
01000000
00100000
00010000
01000000
,
00100000
10000000
00010000
00010000
01000000
00010000
01010000
01000000
,
00001000
00100000
00110000
00010000
10000000
01000000
10000000
00100000
,
01000000
00001000
00100000
01000000
00100000
00001000
00010000
00000100
,
00010000
00000010
00001000
00000001
00001000
00000001
00000010
00001000
,
00000010
00000100
00010000
00001000
01000000
10000000
01000000
00100000
,
01000000
00010000
01000000
00100000
10000000
00010000
20010000
00000000
,
30100000
01000000
00010000
00100000
00001000
00010000
00001000
00010000
,
00001000
00100000
00020000
00000000
20030000
00000000
30010000
00100000
,
00001000
00010000
00000100
00001000
00000010
00000100
00000001
00000010
,
00000100
00001000
00010000
00100000
01000000
10000000
00010000
01000000
,
00001000
00010000
00001000
01000000
00100000
10000000
00010000
00100000
,
00001000
00010000
00001000
00010000
00000100
00010000
00001000
01000000
,
00100000
00000000
10000000
00000000
01000000
00000000
00100000
00000000
00010000
00000000
01000000
00100000
01000000
00000000
00010000
10000000
,
00010000
00000000
10000000
01000000
10000000
00000000
00010000
01000000
00010000
00000000
10000000
01000000
00100000
00000000
00010000
01000000
,
00100000
00000000
10000000
00100000
01000000
00000000
00010000
01000000
00100000
00000000
10000000
00000000
20010000
00000000
00000000
00000000
,
30100000
00000000
00000000
00000000
01000000
00000000
00000000
00000000
00010000
00000000
00000000
00000000
00100000
00010000
00000000
00100000
,
00000000
00001000
00010000
00000100
00001000
00000001
00001001
00001000
,
00001100
00000000
00001000
00000000
00000100
00000000
00000000
00010000
00001000
00000000
00011000
00000000
00001000
00000000
00100000
00000000
,
00110000
00000000
00010000
00000000
10000000
00000000
00000000
00010000
01000000
00000000
00100000
00000000
10100000
00000000
10000000
00000000
,
11000000
00000000
00100000
00000000
00010000
00110000
00100000
00001000
,
00101000
00000000
00010000
00010000
00001000
00001000
00010000
00010000
,
00001000
00001000
00010000
00010000
00001000
00001000
00011000
00010000
,
00000100
00001000
00001100
00000100
00001000
00000001
00000100
00000010
,
00000100
00000001
00000010
00000100
00001000
00000010
00001010
00001000
,
00000100
00010000
00011000
00001000
00100000
00001000
00010000
00000010
,
00000100
00000010
00001000
00000100
00010000
00000100
00010100
00010000
,
00001000
00010000
00011000
00001000
00100000
00010000
00100000
00001000
,
00010000
00000010
00000100
00000010
00001000
00000100
00010000
00001000
,
00010000
00001000
01000000
00100000
01000000
00001000
00010000
00001000
,
00100000
00001000
00010000
00001000
01000000
00000100
00011000
00000000
;
