#VERSION:0.83;
#TITLE:Blackout;
#SUBTITLE:;
#ARTIST:Milk Inc;
#TITLETRANSLIT:;
#SUBTITLETRANSLIT:;
#ARTISTTRANSLIT:;
#GENRE:;
#CREDIT:Braeden;
#MUSIC:Milk Inc. - Blackout!.ogg;
#BANNER:ban.png;
#BACKGROUND:bg.png;
#CDTITLE:;
#SAMPLESTART:46.857;
#SAMPLELENGTH:12.000;
#SELECTABLE:YES;
#OFFSET:-0.238;
#BPMS:0.000=139.000
,65.500=69.500
,73.000=139.000
,185.000=69.500
,189.000=139.000
;
#STOPS:65.500=0.216;
#SPEEDS:0.000=1.000=0.000=0;
#SCROLLS:0.000=1.000;
#TICKCOUNTS:0.000=4;
#TIMESIGNATURES:0.000=4=4;
#LABELS:0.000=Song Start;
#ATTACKS:TIME=28.510:LEN=7.000:MODS=*99 50% Stealth,*99 Dark,*99 100% Cover :TIME=83.550:LEN=5.000:MODS=*99 50% Stealth :TIME=83.550:LEN=5.000:MODS=*99 Cover :TIME=83.550:LEN=5.000:MODS=*99 Dark :TIME=87.000:LEN=5.000:MODS=*99 No Stealth, *99 No Cover, *120 No Dark :TIME=35.200:LEN=5.000:MODS=*99 No Stealth, *99 No Dark, *143 No Cover :TIME=135.350:LEN=5.000:MODS=*99 Stealth, *99 Cover, *242 Dark
;
#COMBOS:0.000=1;
#ORIGIN:;
#PREVIEWVID:;
#JACKET:;
#CDIMAGE:;
#DISCIMAGE:;
#BGCHANGES:;
#FGCHANGES:;

//--------------- dance-single - ----------------
#NOTEDATA:;
#STEPSTYPE:dance-single;
#DESCRIPTION:;
#DIFFICULTY:Beginner;
#METER:3;
#RADARVALUES:0,0,0,0,0;
#NOTES:
0000
0000
0000
0000
,
0000
0001
0000
0000
,
0000
0100
0000
0000
,
0000
0000
0000
0000
,
0000
0020
0000
0030
,
0000
0200
0000
0300
,
0000
0002
0000
0003
,
0000
0100
0000
0000
,
0000
1001
0000
0000
,
0000
0002
0000
0003
,
0000
0200
0000
0300
,
0000
0001
0000
0000
,
0000
2000
0000
3000
,
0000
0020
0000
0030
,
0000
2000
0000
3000
,
0000
0001
0000
0000
,
0000
1001
0000
0001
,
0000
1000
0000
0010
,
0000
0100
0000
0100
,
0000
0010
0000
0010
,
0000
1000
0000
0001
,
0000
1000
0000
0010
,
0000
1001
0000
1000
,
0000
0001
0000
0100
,
0000
0001
0000
1000
,
0000
0000
0000
0001
,
0000
1000
0000
0010
,
0000
1000
0000
0001
,
0000
0100
0000
0010
,
0000
1000
0000
0001
,
0000
1001
0000
0100
,
0000
0010
0000
0100
,
0000
0001
0000
1000
,
0000
0001
0000
0100
,
0000
0001
0000
1000
,
0000
0010
0000
0100
,
0000
0001
0000
1000
,
0000
0100
0000
0010
,
0000
1001
0000
0001
,
0001
0001
0000
0000
,
0000
1000
0000
0000
,
0000
0010
0000
0100
,
0000
0010
0000
0100
,
0100
0100
0000
0000
,
0000
0010
0000
0000
,
0000
0100
0000
0000
,
0000
1001
0000
0000
,
0000
0001
0000
0001
,
0000
0100
0000
0100
,
0000
0010
0000
0010
,
0000
0100
0000
0100
,
0000
0110
0000
0100
,
0000
0000
0000
0001
,
0000
0000
0000
0100
,
0000
0000
0000
0010
,
0000
0000
0000
0100
,
0000
0000
0000
0001
,
0000
0000
0000
0100
,
0000
0000
0000
0000
,
0000
0010
0000
1000
,
0000
0001
0000
0100
,
0000
0010
0000
1000
,
0000
0100
0000
0010
,
0000
0001
0000
0100
,
0000
0010
0000
1000
,
0000
0001
0000
0100
,
0000
0010
0000
1000
,
0000
1001
0000
0001
,
0000
0200
0000
0300
,
0000
0002
0000
0003
,
0000
2000
0000
3000
,
0000
0020
0000
0030
,
0000
2000
0000
3000
,
0000
0020
0000
0030
,
0000
1000
0000
0001
,
0000
1001
0000
0000
;

//--------------- dance-single - ITG 4 ----------------
#NOTEDATA:;
#STEPSTYPE:dance-single;
#DESCRIPTION:ITG 4;
#DIFFICULTY:Easy;
#METER:5;
#RADARVALUES:0.188365,0.17655,0.028154,0.070386,0,281,275,6,15,0,0,0,0,0,0.188365,0.17655,0.028154,0.070386,0,281,275,6,15,0,0,0,0,0;
#CHARTNAME:;
#CHARTSTYLE:;
#CREDIT:;
#NOTES:
0000
0000
1000
0000
0000
0001
0000
0000
,
1000
0000
0010
0000
0000
0100
0000
0000
,
0001
0000
1000
0000
0000
0100
0000
0000
,
1000
0001
1000
0001
,
0100
0000
0020
0000
0000
2030
0000
0000
,
3001
0000
0200
0000
0000
0320
0000
0000
,
0130
0000
0002
0000
0000
2003
0000
0000
,
3001
0100
0010
1000
,
0001
1001
1000
0001
,
0100
0000
0020
0000
0000
1000
0000
1000
,
0000
1030
0000
0000
0000
0001
0000
0000
,
1000
0001
0100
0010
,
1000
0100
0010
0001
,
0100
0000
0002
0000
0000
1003
0000
0000
,
0001
1000
0001
0100
,
0010
1000
0001
1000
,
0001
0000
1000
1000
0000
0000
1000
0000
,
1000
1000
1000
1000
,
1000
0010
1000
0000
1000
0000
0001
0000
,
0000
0100
0010
1000
,
0001
0100
0010
1000
,
0000
0001
1000
0010
,
1000
1001
0001
1000
,
0001
0100
0010
1000
,
0000
0001
1000
0100
,
0010
0100
1000
0001
,
0001
0100
0010
0010
,
1000
0001
0001
1000
,
0000
0001
0001
1000
,
0010
0100
0001
1000
,
0001
0000
0200
0000
0000
0301
0000
0000
,
1000
0000
0020
0000
0000
0130
0000
0000
,
0001
0000
1000
0000
0000
0001
0000
0000
,
1000
0001
0100
0010
,
1000
0000
0002
0000
0000
0103
0000
0000
,
0010
0000
2000
0000
0000
3001
0000
0000
,
0100
0000
0020
0000
0000
1030
0000
0000
,
0001
0000
0200
0000
0000
0310
0000
0000
,
0100
1001
0001
0100
,
0010
1000
0001
0100
,
0010
1000
0100
0010
,
0100
1000
0001
0100
,
0010
1000
0001
1000
,
0001
1000
0010
0100
,
0001
1000
0100
1000
,
0001
0010
0001
0100
,
0010
1000
1000
1000
,
1000
1000
0001
1000
,
0000
0010
0100
0010
,
1000
0001
0100
0010
,
0010
1000
0001
0010
,
0001
1001
1000
0010
,
0100
0001
1000
0001
,
0100
0010
1000
0100
,
0010
0100
1000
0001
,
0100
0010
0100
0001
,
1000
0100
1000
0001
,
0010
0001
0100
0010
,
1000
0100
0010
0100
,
1000
0000
0002
0000
0000
1003
0000
0000
,
0010
0000
1000
0000
0000
0010
0000
0000
,
1000
0000
0001
0000
0000
1000
0000
0001
,
0000
1000
0000
0000
0001
0000
1000
0000
,
0100
0000
1000
0000
0000
0001
0000
0000
,
1000
0000
0001
0000
0000
0100
0000
0000
,
0010
0000
1000
0000
0000
1000
0000
0000
,
0001
1000
0100
0100
,
0100
1001
0010
1000
,
0010
0100
0001
0010
,
1000
0010
0001
0100
,
1000
0100
0001
0010
,
0001
1000
0100
0001
,
0010
0001
0100
1000
,
0001
0100
0001
1000
,
0100
0010
0100
1000
,
0001
1001
0000
0000
;

//--------------- dance-single - ITG 7 ----------------
#NOTEDATA:;
#STEPSTYPE:dance-single;
#DESCRIPTION:ITG 7;
#DIFFICULTY:Medium;
#METER:9;
#RADARVALUES:0.240651,0.265265,0.056308,0.497391,0.04927,359,347,12,106,0,0,0,0,0,0.240651,0.265265,0.056308,0.497391,0.04927,359,347,12,106,0,0,0,0,0;
#CHARTNAME:;
#CHARTSTYLE:;
#CREDIT:;
#NOTES:
0000
0000
2000
0000
0000
0001
0000
0000
,
3010
0000
0200
0000
0000
0010
0000
0000
,
0301
0000
0002
0000
0000
1000
0000
0000
,
0013
0000
0100
0001
1000
0000
1000
0000
,
0001
0000
2000
0000
0000
3001
0000
0000
,
0010
0000
0200
0000
0000
0301
0000
0000
,
1000
0000
0002
0000
0000
0103
0000
0000
,
1001
0000
0001
0100
0010
1000
0100
0010
,
0001
2000
3002
2003
,
3002
0000
0203
0000
0000
0010
0000
1000
,
0000
0310
0200
0000
0000
0001
0000
0000
,
0310
0000
0200
0000
0301
2000
0000
3002
,
0000
1003
0010
0000
2000
0000
0001
0000
,
3010
0000
0200
0000
0000
0001
0000
0000
,
1300
0100
0002
0000
0203
0000
0320
0000
,
2030
0000
3001
0000
0100
0002
0000
2003
,
0000
3000
0001
0001
0000
0000
1000
0000
,
0001
0000
0100
0000
0010
0000
1000
0001
,
1000
0000
0001
0000
1000
0000
0000
0010
0000
0000
0100
0000
0001
0000
0000
0000
,
1001
0000
0000
0000
0001
0000
0000
0100
0000
0000
0010
0000
1000
0000
0000
0001
,
0000
0000
0100
0000
0010
0000
0000
1000
0000
0000
0100
0000
0010
0000
0000
0000
,
1001
0000
0000
0000
0001
0000
0000
0100
0000
0000
0010
0000
1000
0000
0000
0000
,
1001
0000
0001
0000
2000
0000
3002
0003
,
0200
0000
0001
0000
0301
0000
0000
0000
1000
0000
0000
0000
0001
1000
0000
0001
,
0000
0000
2000
0000
0000
3010
0100
0000
,
0001
0020
0000
0000
0000
0000
0032
0000
,
0000
1003
0002
0000
0003
0100
0020
0000
,
1030
0000
0010
0000
0100
0000
0000
0001
0000
0000
1000
0000
0001
1000
0000
0001
,
0000
1000
0001
0000
0101
0000
0100
0010
,
1000
0100
0000
0010
0000
0000
0001
0000
,
0100
0000
0101
0002
0000
0203
0000
0302
,
0000
0203
0000
0320
0000
1030
0001
0000
,
1000
0010
1000
0020
0000
0230
0000
0320
,
0000
0130
0010
0000
1000
0000
0001
0000
,
0000
1000
0001
0200
0000
0320
0000
2030
,
0000
3200
0000
2300
0000
3020
0000
0030
,
0000
0100
0010
0200
0000
0302
0000
0203
,
0000
0302
0000
2003
0000
3200
0000
0310
,
0001
1001
0200
0001
,
0010
0000
0302
0000
0000
1000
0000
0010
,
0000
1000
1003
0010
0010
0100
0001
0001
,
1000
0000
0002
0000
0103
0020
0000
1030
,
0100
0010
0001
0000
2000
0000
0010
0000
,
0001
0000
3200
0000
0000
1000
0000
0000
,
0010
0310
1000
0000
0001
0000
0100
0000
,
0001
0000
2000
0000
3001
2000
0000
3010
,
0000
0000
0000
0000
1000
1000
0000
0000
0001
0001
0000
0000
1000
0000
0001
0000
,
0100
0000
0010
0000
1000
0000
0000
0001
0000
0000
0100
0000
0010
0000
0000
0000
,
1010
0000
0000
0000
0001
0000
0000
0010
0000
0000
0001
0000
0100
0000
0000
0010
,
0000
0000
1000
0000
0100
0000
0000
1000
0000
0000
0001
0000
0010
0000
0000
0000
,
0011
0000
0000
0000
0001
0000
0000
0100
0000
0000
0010
0000
1000
0000
0000
0000
,
0001
1001
2000
3002
,
1003
0000
0010
0000
2000
0000
0000
0000
3002
0000
0000
0000
0103
0010
0000
0100
,
0000
0000
0002
0000
0000
0203
0000
0000
,
0301
0002
0100
0000
0000
0000
0013
0000
,
0000
0100
0100
0000
0010
0000
0002
0000
,
0000
0000
1003
0000
2000
0000
0000
0000
3010
0000
0000
0000
0100
0001
0000
1000
,
0000
0000
0002
0000
0203
0000
0301
1000
,
0010
0100
0020
0000
2030
0000
3002
0000
,
0013
0000
0100
0020
0000
0230
0000
2300
,
0000
3002
0000
0203
0000
0320
0000
0000
,
1030
0001
0100
0002
0000
0203
0000
0320
,
0000
2000
0000
3030
0000
0000
1000
0000
,
0001
0100
0001
0020
0000
0230
0000
2300
,
0000
3020
0000
0230
0000
0302
0000
0003
,
0000
0010
1000
0020
0000
2030
0000
3200
,
0000
0320
0000
0230
0000
0320
0000
0130
,
1000
2001
0001
0001
,
3010
0000
0200
0000
0000
0010
0000
1000
,
0000
0310
0100
0001
1000
0100
0010
0001
,
0100
0010
2000
0000
3001
2000
0000
3010
,
1000
0001
0100
0000
0002
0000
2003
0000
,
3002
0000
2003
0000
0000
3020
0000
0000
,
0130
1000
0001
1000
0010
1000
0001
0100
,
0010
1000
0002
0003
0002
1000
0003
0001
,
0000
0000
1001
1000
0000
0000
0000
0000
;

//--------------- dance-single - ITG 9 ----------------
#NOTEDATA:;
#STEPSTYPE:dance-single;
#DESCRIPTION:ITG 9;
#DIFFICULTY:Hard;
#METER:13;
#RADARVALUES:0.382763,0.371372,0.07977,0.164233,0.20881,571,554,17,35,0,0,0,0,0,0.382763,0.371372,0.07977,0.164233,0.20881,571,554,17,35,0,0,0,0,0;
#CHARTNAME:;
#CHARTSTYLE:;
#CREDIT:;
#NOTES:
0000
0000
2000
0000
0000
3002
0000
0000
,
0103
0000
0020
0000
0000
2030
0000
0000
,
3001
0000
2000
0000
0000
3200
0000
0000
,
0310
0000
0001
1000
0001
0000
0101
0000
,
1010
0000
1000
0100
0100
0010
0001
0001
,
0100
0010
1000
0100
0100
0010
0001
0001
,
0100
0010
1000
0100
0100
0010
0001
0001
,
0100
0010
1000
0100
0010
0100
1000
0001
,
1000
0000
0001
1000
0001
0000
0000
0000
0020
0000
0000
0000
0032
0000
0000
0000
,
0203
0000
0302
0000
0000
1000
0000
0010
,
0000
0103
0010
1000
0001
0010
0001
1000
,
0010
0100
0002
0000
0013
0002
0000
0103
,
0001
0100
0020
0000
1030
0020
0000
0130
,
0001
1000
0020
0000
0130
0002
0000
0013
,
0001
1000
0200
0000
0310
0001
0100
0010
,
1000
0001
2000
0000
3001
2000
0000
3010
,
0000
0000
1010
1010
0100
0000
0001
0000
,
1000
0000
0001
1000
0001
1000
0010
0100
,
0001
1000
1000
1000
0001
0010
0000
0001
0000
0000
1000
0010
1000
0000
0001
1000
,
0001
0000
0000
0000
1000
0100
0000
1000
0000
0001
0010
0000
0100
1000
0000
0010
,
0000
0000
2000
0000
3001
0100
0000
0001
0000
0000
1000
0010
1000
0000
0001
0100
,
0010
0000
0000
0000
1000
0001
0000
0100
0000
0000
0010
1000
0010
0000
0100
0001
,
0000
0000
1000
0000
1001
0000
0000
0001
0000
0000
0100
0000
0020
0000
0000
0000
,
1030
0000
0001
0000
0100
0000
0000
0010
0000
0000
0010
0000
1000
0100
0000
0010
,
0000
0001
2001
0000
0000
3010
0010
0000
,
0100
0000
0100
0000
0002
0000
0000
0000
0000
0000
0103
0000
0010
0000
1000
0001
,
1000
0000
0001
0100
0002
0000
0000
0000
0003
0000
0001
0000
0100
0000
0010
1000
,
0010
0000
1000
0000
0001
0000
0000
1000
0000
0000
0010
0000
0100
0001
0000
0100
,
0000
0010
2000
0000
0000
3100
0010
0100
,
1000
0010
0100
0001
0000
1000
0000
0010
,
1000
0000
1010
0010
1000
0010
1000
0100
,
0010
0001
1000
0001
0010
0001
0100
0010
,
1000
0001
0100
0010
1000
0100
0010
0001
,
0100
0010
1000
0000
0010
0000
1000
0000
,
0001
0010
0100
0100
0010
0001
0001
0100
,
0010
1000
0001
0001
0100
0010
0010
1000
,
0100
1000
0001
0001
0100
0010
0010
1000
,
0100
0010
0001
0100
0010
1000
0001
0010
,
0001
1000
1001
0000
0101
0000
1010
0000
,
1020
0000
0000
0000
1030
0000
0001
0100
0001
0000
1000
0000
0100
0000
0001
0000
,
0100
1000
0001
0100
0100
0010
1000
1000
,
0001
0100
0020
0000
1030
0020
0000
0230
,
0000
0000
0301
0000
1000
0000
0001
0100
0001
0000
0100
0000
0010
0000
1000
0010
,
1000
0000
0001
0000
0100
0000
0010
1000
0010
0000
1000
0000
0001
0000
0010
0001
,
0010
0000
0100
0000
0010
0000
0100
1000
0100
0000
0010
0000
0001
0000
1000
0001
,
1000
0010
0100
0000
0001
2000
0000
3002
,
0000
0000
0000
0000
1003
0001
0000
0000
0100
0010
0000
0000
1000
0000
0001
0000
,
1000
0100
0100
0100
1000
0010
0000
0100
0000
0000
0001
0100
0001
0000
1000
0010
,
0100
0000
0000
0000
0001
0010
0000
0100
0000
0000
1000
0001
1000
0000
0001
0100
,
0000
0000
0020
0000
1030
0001
0000
1000
0000
0000
0001
0100
0001
0000
0100
0010
,
1000
0000
0000
0000
0001
0100
0000
0010
0000
0000
1000
0001
1000
0000
0010
0100
,
0000
0000
0001
0000
1001
0000
0000
1000
0100
0000
0000
0100
0010
0000
0000
0010
,
0001
0000
0000
0001
0100
0000
0000
0100
0010
0000
0000
0000
1000
0010
0000
0100
,
0000
0000
0001
0000
1001
0000
0000
1000
0100
0000
0000
0100
0010
0000
0000
0010
,
0100
0000
0000
0100
1000
0000
0000
1000
0001
0000
0000
0001
1000
0000
0000
1000
,
0001
0000
1000
0100
1000
0000
0000
0001
0100
0000
0000
0010
1000
0000
0000
0001
,
0010
0000
0000
0100
1000
0000
0000
0001
0100
0000
0000
0000
0010
1000
0000
0001
,
0000
1000
2001
0000
0000
3001
0100
0010
,
1000
0001
0010
0001
0100
0010
1000
0000
,
0001
0000
1001
1000
0100
0001
0100
0010
,
0001
0000
1000
0010
1000
0000
0001
0000
0100
0000
0010
1000
0010
0000
0100
0000
,
0001
0000
1000
0000
0100
0000
0001
0000
0100
0000
1000
0000
0001
0000
0100
0010
,
0100
0000
0010
0000
1000
0000
0001
1000
0001
0000
0100
0000
0010
0000
1000
0000
,
0010
0000
0010
0000
1000
0000
0001
0100
0001
0000
0100
0000
0010
0000
1000
0010
,
1000
0000
0001
0000
0100
0000
0010
0100
0010
0000
1000
0000
0001
0000
1000
0010
,
0100
0000
0001
0000
1000
0000
0010
1000
0010
0000
0001
0000
0100
0000
0010
0100
,
0010
1000
0001
0000
1000
0000
0001
0000
,
0100
0000
0101
0001
0100
1000
0100
0001
,
0100
0010
1000
0100
0001
0100
1000
0001
,
0100
0010
0001
0010
1000
0010
0001
0100
,
0010
1000
0020
0000
0130
0002
0000
1003
,
0001
0100
0001
0001
0001
0100
0100
0100
,
0010
1000
0100
0100
0100
0010
0010
0010
,
0100
1000
0001
0100
0001
1000
0010
1000
,
0001
0100
0010
1000
0100
0010
0001
0100
,
0010
1000
1001
0001
0000
0000
0000
0000
;

//--------------- dance-single - ITG 10 ----------------
#NOTEDATA:;
#STEPSTYPE:dance-single;
#DESCRIPTION:ITG 10;
#DIFFICULTY:Challenge;
#METER:15;
#RADARVALUES:0.49471,0.477478,0.150156,0.089155,0.358966,738,706,32,19,0,0,0,0,0,0.49471,0.477478,0.150156,0.089155,0.358966,738,706,32,19,0,0,0,0,0;
#CHARTNAME:;
#CHARTSTYLE:;
#CREDIT:;
#NOTES:
0000
0000
0001
0100
1000
0001
0010
1000
,
0001
1000
0001
0100
1000
0001
0010
1000
,
0001
1000
0001
0100
0010
1000
0100
0010
,
0001
1000
0001
0100
0001
0010
0001
1000
,
0200
0010
0310
0001
0010
0001
0100
0001
,
1000
0010
1000
0100
0001
1000
0010
0001
,
1000
0010
1000
0001
0100
0001
1000
0010
,
1000
0100
0010
0001
0010
0001
0010
0001
,
0010
0000
0100
1000
0002
0000
0000
0000
1003
0000
0100
0000
0001
0000
0100
0000
,
1000
0100
0020
0001
0031
1000
0010
1000
,
0100
1000
0001
0100
0010
1000
0001
0010
,
0010
0010
0002
0000
1003
0200
0000
2300
,
0000
3001
1000
1000
0100
0001
0001
0100
,
1000
0010
1000
1000
0100
0010
0010
0001
,
0100
0010
1000
1000
0100
0010
0010
0001
,
1000
0100
2000
0000
3001
0020
0000
0002
,
0033
0000
1001
0110
0001
0001
1000
1000
,
0100
0100
0010
0010
0001
0001
1000
0001
,
1000
0100
0100
0100
1000
0010
0000
1000
0000
0001
1000
0100
0010
0000
0001
0010
,
0100
0000
0000
0000
1000
0001
0000
1000
0100
0000
0010
0001
1000
0100
0000
0100
,
1000
0000
0001
0000
0100
0010
0000
1000
0000
0001
0010
0001
1000
0000
0001
0100
,
0001
0000
1000
0000
0001
0100
0000
0010
0000
1000
0001
0010
0100
0000
1000
0001
,
0000
0000
0001
0000
0101
0000
0000
0001
0000
0000
0100
0000
0010
0000
1000
0001
,
1000
0000
0001
0100
0010
0000
1000
0001
1000
0000
0010
0100
0001
1000
0000
0001
,
0000
1000
0001
0000
2000
0000
0100
0000
3100
0000
0020
0000
0100
0000
0130
0000
,
1000
0010
1000
0010
0100
0000
0001
1000
0001
0000
1000
0010
0100
0000
0001
1000
,
0001
0000
1000
0010
2000
0000
0100
0000
3100
0000
1000
0000
0010
0000
0100
0001
,
0100
0000
0010
1000
0010
0000
1000
0100
0010
0000
0001
0100
0010
1000
0000
0001
,
0000
0000
1000
0010
1000
0000
0001
0000
0100
0000
0110
0000
0010
0000
1000
0001
,
0100
0000
0010
0100
0001
0000
1000
0100
1000
0000
0001
0100
0001
0000
1000
0010
,
0100
0000
0001
0000
1001
0000
1000
0010
0100
0000
0001
1000
0001
0000
0100
0010
,
1000
0001
0100
0010
0100
0000
0001
0010
0001
0000
1000
0010
1000
0000
0001
0100
,
0010
0000
1000
0000
1100
0000
0100
1000
0001
0000
0011
0000
0010
0000
0100
1000
,
0001
0000
0010
0100
1000
0000
0001
0100
0001
0000
0010
0000
1100
0000
0000
0000
,
1001
0000
0001
0000
1000
0000
0001
0100
0001
0000
1000
0000
0100
0000
0010
0100
,
0010
0000
0001
0000
1000
0000
0100
1000
0100
0000
0010
0000
0001
0000
0100
0001
,
0100
0000
0010
0000
1000
0000
0001
0010
0001
0000
1000
0000
0100
0000
0010
0100
,
0010
0000
0001
0000
1000
0000
0001
0100
0001
0000
1000
0000
0100
0000
0010
0001
,
0010
0000
0011
0001
1000
1100
0100
0010
,
0110
0000
0010
0001
1000
0000
0100
0010
0100
0000
1000
0010
1000
0000
0001
0100
,
0001
0010
0110
0100
1000
1100
0100
0010
,
0110
0000
0100
0000
0010
0000
0001
1000
0001
0000
0020
0000
0000
0000
0230
0000
,
0000
0000
1300
0000
0001
0000
0010
0100
1000
0000
0100
0000
1000
0000
0010
1000
,
0001
0000
0010
0000
0110
0000
0100
1000
0010
0000
1010
0000
0100
0000
0001
1000
,
0100
0000
0010
0000
0011
0000
0001
1000
0100
0000
1100
0000
0010
0000
0001
1000
,
0001
0000
0010
0000
0100
0000
1000
0010
1000
0000
0001
0000
1000
0000
0100
0010
,
0100
0000
1000
0000
0001
0010
0000
0000
0001
0010
0000
0000
0100
0000
1000
0000
,
0100
0010
0010
0010
0001
0100
0000
0010
0000
1000
0001
1000
0001
0000
0100
0010
,
0100
0000
0000
0000
0001
0010
0000
0001
0000
0100
0010
1000
0100
0000
1000
0100
,
0010
0000
0100
0000
1000
0001
0000
0010
0000
0100
1000
0010
1000
0000
0001
0100
,
0001
0000
0000
0000
1000
0001
0000
0010
0000
0100
1000
0010
0100
0000
0001
1000
,
0010
0000
1000
0100
1000
0000
0010
0100
0010
0000
1000
0001
0100
0000
0010
1000
,
0001
0000
1000
0100
1000
0000
0001
0010
0001
0000
1000
0010
1000
0100
1000
0010
,
0100
0000
0001
0010
0001
0000
1000
0000
0010
0000
1010
0000
0100
0000
0100
0000
,
0001
0000
0200
0000
0010
0000
0310
0000
1000
0000
0001
0000
1000
0000
0010
1000
,
0010
0000
0100
0001
0100
0000
0001
0010
0001
0000
1000
0100
1000
0000
0001
0100
,
0010
0000
1000
0100
0020
0000
0000
0031
0000
0000
0100
0000
0010
1000
0000
0010
,
0100
0000
0001
0000
1001
0000
1000
0010
0000
0000
0010
0000
0100
0000
0001
1000
,
0001
0000
1000
0100
1000
0000
0001
0010
0001
0000
1000
0010
1000
0000
0001
1000
,
0010
0000
0100
0000
0101
0000
0001
0000
1000
0000
1010
0000
0010
0000
0100
0010
,
0100
0000
0001
0010
0001
0000
1000
0000
0010
0000
1010
0000
1000
0000
0001
0100
,
0010
0000
1000
0100
1000
0000
0001
0000
0100
0000
0110
0000
0010
0000
1000
0010
,
0100
0000
0001
1000
0010
0000
0100
0001
0100
0000
0010
0000
1010
0000
0000
0000
,
0110
0000
0000
0000
0101
0000
0010
1000
0001
0000
0100
0010
0100
0000
0010
1000
,
0010
0000
0100
0001
0100
0000
0010
1000
0100
0000
0010
0001
1000
0000
0010
1000
,
0100
0000
0010
0001
0100
0000
0010
1000
0100
0000
0010
0001
1000
0000
0010
1000
,
0010
0000
0100
0001
0100
0000
0001
0010
0001
0000
1000
0100
1000
0000
0001
0010
,
0001
1000
1001
0001
0100
1000
0100
0001
,
1000
0010
1000
0100
0001
0100
1000
0001
,
0010
0001
1000
0100
0001
0100
1000
0001
,
0100
0010
0210
0000
0310
0200
0000
0320
,
0000
0130
0010
0010
0010
1000
1000
1000
,
0100
0010
0001
0001
0001
0100
0100
0100
,
0010
1000
0100
0100
0100
0010
0010
0010
,
0001
0100
0010
1000
0010
1000
0001
0100
,
0010
1000
1001
0110
0000
0000
0000
0000
;

//--------------- dance-single - ITG 13 24 8 16 ----------------
#NOTEDATA:;
#STEPSTYPE:dance-single;
#DESCRIPTION:ITG 13 24 8 16;
#DIFFICULTY:Edit;
#METER:18;
#RADARVALUES:0.683075,0.583584,0.018769,0.023462,1.034667,1019,1015,4,5,0,0,0,0,0,0.683075,0.583584,0.018769,0.023462,1.034667,1019,1015,4,5,0,0,0,0,0;
#CHARTNAME:;
#CHARTSTYLE:;
#CREDIT:;
#NOTES:
0000
0000
0001
0100
1000
0001
0010
1000
,
0001
1000
0001
0100
1000
0001
0010
1000
,
0001
1000
0001
0100
0010
1000
0100
0010
,
0001
1000
0001
0100
0001
0010
0001
1000
,
0200
0010
0310
0001
0010
0001
0100
0001
,
1000
0010
1000
0100
0001
1000
0010
0001
,
1000
0010
1000
0001
0100
0001
1000
0010
,
1000
0100
0010
0001
0010
0001
0010
0001
,
0010
0000
0100
1000
0001
0000
0001
0000
1000
0000
0100
0000
0001
0000
0100
0000
,
1000
0100
0020
0001
0031
1000
0010
1000
,
0100
1000
0001
0100
0010
1000
0001
0010
,
0010
0010
0001
0100
1000
0100
0001
1000
,
1000
0001
1000
1000
0100
0001
0001
0100
,
1000
0010
1000
1000
0100
0010
0010
0001
,
0100
0010
1000
1000
0100
0010
0010
0001
,
1000
0100
2000
0000
3001
0020
0000
0002
,
0033
0000
1001
0110
0001
0001
1000
1000
,
0100
0100
0010
0010
0001
0001
1000
0001
,
1000
0000
0100
0000
0100
0000
0100
0000
1000
0000
0010
0000
0000
0000
1000
0000
0000
0000
0001
0000
1000
0010
0100
0001
1000
0000
0000
0000
0001
0000
0010
0000
,
0100
0000
0000
0000
0000
0000
0000
0000
1000
0000
0001
0000
0000
0000
1000
0100
1000
0000
0000
0000
0010
0100
0001
1000
0001
0000
0100
0000
0000
0000
0100
0000
,
1000
0000
0000
0000
0001
0000
0000
0000
0100
0000
0010
0000
0000
0000
1000
0000
0000
0000
0001
0000
1000
0010
0100
0001
1000
0000
0000
0000
0001
0000
0100
0000
,
0001
0000
0000
0000
1000
0000
0000
0000
0001
0000
0100
0000
0000
0000
0010
0000
0000
0000
1000
0000
0001
0010
0100
1000
0001
0000
0000
0000
1000
0000
0001
0000
,
1000
0000
0001
0000
1000
0100
1000
0001
0010
0001
1000
0010
0100
0001
1000
0100
,
0010
0001
1000
0010
1000
0001
0100
0010
1000
0001
0010
0100
1000
0100
1000
0001
,
0100
0010
1000
0100
1000
0010
0100
0001
1000
0100
1000
0100
0010
0001
0100
0010
,
1000
0100
1000
0100
0010
0001
0100
0010
1000
0001
0010
0001
1000
0100
0010
0001
,
0100
0010
1000
0001
1000
0100
0010
0001
0100
0010
1000
0001
1000
0100
0010
0001
,
0100
0010
1000
0100
0010
0100
1000
0001
1000
0100
0010
0001
0100
0010
1000
0100
,
0010
0001
1000
0010
1000
0100
0010
0001
0100
0010
1000
0001
0010
0001
0100
0010
,
1000
0001
1000
0100
0010
0001
0100
0010
1000
0001
0010
0100
1000
0010
0100
0001
,
1000
0000
0001
0100
0001
0010
0100
1000
0010
0100
0001
0010
0100
1000
0010
0100
,
0001
0010
0001
0100
0010
0100
0001
0010
0001
0100
0001
0010
0100
1000
0010
0100
,
0001
0010
0001
1000
0001
0010
0100
1000
0010
0100
0001
1000
0100
1000
0001
0100
,
0010
1000
0100
0010
0001
0100
0010
0100
0001
0010
0001
1000
0100
0010
0001
0100
,
0001
0010
0100
1000
0001
0010
0100
0010
0001
0100
0010
1000
0100
1000
0001
0100
,
0010
1000
0001
0100
0001
0010
0100
1000
0001
1000
0001
0100
0010
1000
0100
0010
,
0001
0100
0010
1000
0001
1000
0100
1000
0001
0100
0010
1000
0100
0010
0001
0100
,
0010
1000
0100
0010
0001
0100
0010
1000
0001
0010
0100
1000
0010
0100
0001
1000
,
0010
0000
0000
0000
0100
0001
0100
0001
0010
0100
1000
0001
0100
0010
0100
0001
,
1000
0100
0010
0001
1000
0100
1000
0001
0100
0010
1000
0100
0010
0001
1000
0010
,
0100
0001
1000
0100
0010
0001
0100
0010
1000
0100
1000
0100
0010
0001
0100
0010
,
1000
0001
0010
0001
1000
0010
0100
0001
1000
0100
1000
0010
0100
0001
0010
0100
,
1000
0010
0100
0001
1000
0100
1000
0100
0010
0001
1000
0010
1000
0010
0100
0001
,
1000
0100
1000
0010
0100
0001
0100
0001
0010
0100
1000
0010
1000
0100
0010
0001
,
1000
0010
1000
0100
0010
0100
1000
0001
0100
0010
0100
0001
1000
0100
0010
0100
,
1000
0001
0100
0010
0100
0001
0010
0100
1000
0010
0100
0001
1000
0100
0010
0001
,
0100
0010
1000
0000
0001
0010
0000
0000
0001
0010
0000
0000
0100
0000
1000
0000
,
0100
0000
0010
0000
0010
0000
0010
0000
0001
0000
0100
0000
0000
0000
0010
0000
0000
0000
1000
0000
0001
0010
0100
0010
0001
0000
0000
0000
0100
0000
0010
0000
,
0100
0000
0000
0000
0000
0000
0000
0000
0001
0000
0010
0000
0000
0000
0001
0000
0000
0000
0100
0000
0001
1000
0010
0100
0001
0000
0000
0000
1000
0000
0100
0000
,
0010
0000
0000
0000
0100
0000
0000
0000
1000
0000
0001
0000
0000
0000
0010
0000
0000
0000
0100
0000
1000
0010
0100
0001
1000
0000
0000
0000
0001
0000
0100
0000
,
0001
0000
0000
0000
0000
0000
0000
0000
1000
0000
0001
0000
0000
0000
0010
0000
0000
0000
0100
0000
1000
0010
0100
0001
0100
0000
0000
0000
0001
0000
1000
0000
,
0010
0000
1000
0100
1000
0010
0100
0001
1000
0100
0010
0100
1000
0001
0100
0010
,
1000
0100
1000
0001
0010
0100
0010
0001
1000
0001
1000
0100
1000
0001
0100
0010
,
1000
0100
1000
0001
0100
0010
1000
0001
1000
0010
0100
0010
1000
0001
1000
0100
,
1000
0001
0010
0001
0100
0010
1000
0001
0010
0100
1000
0010
0100
0001
1000
0100
,
1000
0001
1000
0100
1000
0010
0100
0001
1000
0100
0010
0100
1000
0001
0100
0010
,
1000
0100
0010
0100
1000
0001
0100
0010
1000
0001
0100
0010
1000
0001
0010
0001
,
1000
0100
0010
0100
1000
0010
0100
0001
1000
0100
1000
0010
0100
0001
0010
0001
,
1000
0100
0010
0001
0100
0010
1000
0001
0010
0100
1000
0010
1000
0100
0010
0001
,
1000
0010
1000
0100
0010
0001
0010
0001
0100
0010
1000
0100
0010
0001
1000
0010
,
0100
0001
1000
0100
0010
0001
1000
0010
0100
0001
1000
0100
0010
0001
0100
0010
,
1000
0001
1000
0100
0010
0001
0100
0010
1000
0001
0010
0100
1000
0010
0100
0001
,
0010
0100
1000
0010
1000
0001
1000
0100
0010
0001
0100
0010
1000
0001
0010
0100
,
1000
0010
0100
0001
1000
0100
0010
0001
0100
0010
1000
0100
0010
0001
1000
0100
,
1000
0010
0100
0001
1000
0100
0010
0100
1000
0001
0100
0010
1000
0100
1000
0001
,
0010
0001
0100
0010
1000
0100
1000
0001
0010
0100
1000
0010
0100
0001
1000
0100
,
0010
0100
1000
0001
1000
0100
1000
0001
0010
0001
0100
0010
1000
0001
0010
0100
,
1000
0000
0000
0000
0001
0100
0001
0100
0010
1000
0001
0010
0001
0010
0100
1000
,
0001
0100
0010
1000
0001
0010
0001
0010
0100
1000
0001
0100
0001
0100
0010
1000
,
0001
0010
0100
1000
0001
0100
0001
0100
0010
1000
0001
0010
0001
0010
0100
1000
,
0001
0100
0010
1000
0100
0010
0100
0010
0001
1000
0010
0100
0010
0100
0001
1000
,
0100
0010
0001
1000
0010
0100
0001
0010
0100
1000
0001
1000
0100
0010
0001
0100
,
0010
1000
0001
0010
0100
1000
0100
1000
0100
1000
0001
0100
0001
0100
0001
0100
,
0010
1000
0100
0010
0001
1000
0001
1000
0001
1000
0010
0100
0010
0100
0010
0100
,
0001
0010
0100
1000
0001
0010
0100
0010
0001
0100
0010
1000
0100
1000
0001
0100
,
0010
0000
1001
0110
0000
0000
0000
0000
;

//--------------- dance-double - ----------------
#NOTEDATA:;
#STEPSTYPE:dance-double;
#DESCRIPTION:;
#DIFFICULTY:Challenge;
#METER:15;
#RADARVALUES:0,0,0,0,0;
#NOTES:
00000000
00000000
00001000
00100000
10000000
00010000
01000000
10000000
,
00010000
00000000
00100000
00001000
00010000
00000100
00000001
00000100
,
00001000
00000000
00000100
00010000
00001000
00001000
00010000
00000100
,
00010000
00001000
01000000
00100000
01000000
00000000
01010000
00000000
,
01100000
00000000
00100000
10000000
10000000
00010000
01000000
01000000
,
00002000
00000000
00013000
00000100
00000100
00001000
00000010
00000010
,
00002000
00000000
00003001
00000100
00000100
00001000
00010000
00100000
,
10000000
00000000
00010000
10000000
00100000
01000000
00001000
00010000
,
00001000
00000000
00010000
00000100
00020000
00000000
00001000
00000000
00031000
00000000
00100000
00000000
00010000
00000000
01000000
00000000
,
00001000
00100000
00020000
00000000
00000000
10000000
00000000
00100000
,
00000000
01030000
00100000
00100000
00100000
01000000
01000000
01000000
,
00001000
00010000
00000200
00000000
00001300
00000010
00000100
00000001
,
00001000
00000100
00010000
00100000
10000000
00010000
01000000
10000000
,
00010000
00100000
00001000
00000100
00000001
00000100
00001000
00010000
,
00001000
01000000
00100000
01000000
00100000
01000000
00001000
00010000
,
00000100
00001000
00000020
00000000
00000130
00000001
00000000
00001000
,
00000000
00000000
00011000
00101000
00001000
01000000
00001000
01000000
,
00010000
10000000
01000000
00100000
00001000
00010000
00000010
00000100
,
00000001
00001000
00001000
00001000
00000100
00010000
00000000
00001000
00000000
00010000
00001000
01000000
00100000
00000000
10000000
01000000
,
00100000
00000000
00010000
00000000
01000000
00010000
00000000
00100000
00000000
00001000
00010000
00001000
00010000
00001000
00000000
00010000
,
00000000
00000000
00010100
00000000
00000100
00001000
00000000
00000010
00000000
00001000
00000010
00000100
00000010
00000000
00001000
00000010
,
00010000
00000000
00000100
00000000
00001000
00000001
00000000
00000100
00000000
00000010
00010000
00000010
00001000
00000000
00000100
00001000
,
00000000
00000000
00000100
00010000
00011000
00000000
00001000
01000000
00100000
00000000
10000000
00100000
10000000
00000000
00010000
01000000
,
00010000
00000000
00100000
00001000
00010000
00000000
00001000
00100000
00010000
00000000
00100000
00001000
01000000
00010000
00000000
01000000
,
00100000
00000000
10000000
01000000
10000000
00000000
00010000
01000000
00010000
00000000
10000000
01000000
00100000
00000000
00001000
00010000
,
00001000
00000000
00010000
00000100
00010000
00000000
00001000
00010000
00000100
00000000
00001000
00000010
00001000
00000000
00000001
00000100
,
00000001
00000000
00001000
00000100
00002000
00000000
00000010
00000000
00000010
00000000
00003010
00000000
00000100
00000000
00000000
00000000
,
00000000
00000000
00000101
00000000
00000001
00000000
00000000
00000000
00001000
00000000
00000100
00000000
00010000
00001000
00000000
00010000
,
00001000
00000000
00100000
00010000
00100000
00000000
00010000
10000000
00010000
00000000
10000000
01000000
00100000
00000000
00010000
01000000
,
00010000
00000000
10000000
01000000
10000000
00000000
00010000
01000000
00100000
00000000
10000000
01000000
00100000
00000000
00001000
00010000
,
00001000
00000000
00010000
00000000
00011000
00000000
00001000
01000000
00100000
00000000
10100000
00000000
10000000
00000000
00010000
00100000
,
00010000
00000000
01000000
00000000
01010000
00000000
00010000
00100000
00001000
00000000
00011000
00000000
00010000
00000000
00000100
00001000
,
00000100
00000000
00001000
00000000
00001010
00000000
00000010
00000100
00000010
00000000
00010000
00001000
00010000
00000000
00001000
00100000
,
00010000
00000000
01000000
00100000
10000000
00000000
00010000
00000000
01000000
00000000
00001000
00000000
00011000
00000000
00010000
00000000
,
00110000
00000000
00100000
00000000
01100000
00000000
01000000
10000000
00010000
00000000
00100000
00010000
00100000
00000000
00001000
00010000
,
00001000
00000000
00010000
00000000
00010100
00000000
00000100
00001000
00000001
00000000
00000010
00000001
00000010
00000000
00000100
00001000
,
00000100
00000000
00000010
00000001
00000100
00000000
00000010
00001000
00000001
00000000
00000100
00000010
00000100
00000000
00000001
00001000
,
00000100
00000000
00010000
00001000
00010000
00000000
00000100
00001000
00000010
00000000
00010000
00000000
00000100
00000000
00010000
00000000
,
00000100
00000000
00010100
00000100
00000100
00010000
00010000
00010000
,
00000100
00100000
00010000
00010000
00010000
01000000
01000000
01000000
,
00100000
00000000
10000000
01000000
00100000
00000000
00010000
00000000
00010000
00000000
00100000
00000000
00001000
00000000
00001000
01000000
,
00010000
00010000
00210000
00000000
00001000
00001000
00000000
00310000
,
00000000
01000000
00100000
00100000
00100000
10000000
10000000
10000000
,
00001000
00000000
00100000
00000000
00010000
00000000
00010000
00000000
00010000
00000000
01000000
00000000
01000000
00000000
01000000
00100000
,
10000000
00000000
00010000
00000000
01000000
00000000
01000000
00000000
01000000
00000000
00001000
00000000
00001000
00000000
00001000
00010000
,
00000100
00000000
00001000
00000000
00000100
00000000
00000100
00000000
00000100
00000000
00000010
00000000
00000010
00000000
00000010
00000001
,
00001000
00000000
00000000
00000000
00000100
00000000
00000000
00000000
00001100
00000000
00001000
00000000
00000000
00000000
00000000
00000000
00001000
00000000
00000000
00000000
00000100
00000000
00000000
00000000
00010000
00001000
00000000
00010000
00000000
00001000
00010000
00000000
,
00000100
00001000
00000100
00001000
00000001
00000100
00000000
00000010
00000000
00001000
00000010
00001000
00000100
00000000
00000010
00000001
,
00001000
00000000
00000000
00000000
00000100
00010000
00000000
00001000
00000000
00010000
00000100
00001000
00000100
00000000
00010000
00001000
,
00000000
00000000
00200000
00000000
00310000
01000000
00000000
00100000
00000000
10000000
01000000
00100000
00010000
00000000
01000000
00100000
,
10000000
00000000
00010000
00000000
01000000
00100000
00000000
01000000
00000000
00010000
00100000
00010000
01000000
00100000
00000000
10000000
,
00100000
00000000
01000000
00000000
00001000
00000000
00010000
00001000
00010000
00000000
00000010
00000100
00000001
00000000
00001000
00000100
,
00001000
00000000
00000010
00010000
00000010
00000000
00001000
00000100
00001000
00000000
00000010
00000000
00001000
00000100
00000000
00010000
,
00001000
00000000
00010000
00001000
00010000
00000000
00001000
00000000
00100000
00000000
00110000
00000000
00100000
00000000
00010000
00000000
,
10010000
00000000
10000000
00100000
01000000
00000000
00010000
00100000
00010000
00000000
00100000
00010000
00100000
00000000
01000000
10000000
,
00010000
00000000
01000000
00000000
01001000
00000000
00001000
00100000
00010000
00000000
00100000
00010000
01000000
00000000
00100000
10000000
,
01000000
00000000
00100000
00010000
10000000
00000000
00010000
01000000
00010000
00000000
00100000
00000000
00001000
00100000
00000000
00001000
,
01000000
00000000
00001000
00010000
00001000
00000000
00010000
00000100
00001000
00000000
00000001
00000010
00000001
00000000
00001000
00000100
,
00000010
00000000
00000001
00000100
00000010
00000000
00001000
00000100
00000010
00000000
00000001
00000000
00002000
00000000
00000000
00000000
,
00003100
00000000
00000000
00000000
00001100
00000000
00001000
00000010
00000100
00000000
00000110
00000000
00000010
00000000
00001000
00000100
,
00010000
00000000
00001000
00010000
00000100
00000000
00001000
00000010
00001000
00000000
00000010
00000100
00000010
00000000
00001000
00000100
,
00001000
00000000
00000010
00000000
00001010
00000000
00001000
00000000
00010000
00000000
00011000
00000000
00000100
00000000
00010000
00001000
,
00100000
00000000
00010000
00000000
10010000
00000000
10000000
00100000
10000000
00000000
00010000
00000000
00110000
00000000
00000000
00000000
,
00011000
00000000
00000000
00000000
00011000
00000000
00010000
00000100
00001000
00000000
00000010
00000100
00000001
00000000
00000100
00000001
,
00000100
00000000
00000010
00010000
00000100
00000000
00010000
00000100
00001000
00000000
00000100
00001000
00000010
00000000
00000100
00000001
,
00000010
00000000
00000100
00000000
00001100
00000000
00001000
00000010
00010000
00000000
00001000
00000000
00010000
00000000
00001000
00000000
,
00200000
00010000
00000000
00010000
00300000
00000000
00110000
00000000
,
10010000
00000000
00000000
00000000
10100000
00000000
10000000
01000000
10000000
00000000
00010000
00000000
00010000
00000000
01000000
00010000
,
01000000
00000000
00001000
00000000
00001000
00000000
00100000
00010000
00100000
00000000
00001000
00000000
00001000
00000000
00010000
00001000
,
00010000
00000010
00001000
00000100
00001000
00000001
00000010
00000001
,
00000100
00000010
00000200
00000000
00000301
00000100
00000000
00000010
,
00001000
00000001
00001001
00001000
00001000
00000010
00000010
00000010
,
00001000
00000010
00010000
00010000
00010000
00001000
00001000
00001000
,
00100000
00010000
00100000
00100000
00100000
00001000
00001000
00001000
,
00010000
00000100
00010000
00000000
00001000
00100000
00000000
00010000
,
00000000
00000000
00011000
00011000
00000000
00000000
00000000
00000000
;
