#TITLE:August;
#SUBTITLE:;
#ARTIST:iCONiSM;
#TITLETRANSLIT:;
#SUBTITLETRANSLIT:;
#ARTISTTRANSLIT:;
#GENRE:;
#CREDIT:;
#MUSIC:August.ogg;
#BANNER:;
#BACKGROUND:;
#CDTITLE:;
#SAMPLESTART:33.874;
#SAMPLELENGTH:11.960;
#SELECTABLE:YES;
#OFFSET:-0.020;
#BPMS:0.000=170.000;
#STOPS:;
#BGCHANGES:;
#FGCHANGES:;

//--------------- dance-single - ----------------
#NOTES:
     dance-single:
     :
     Beginner:
     2:
     0,0,0,0,0:
0000
0000
0000
0000
,
0000
0000
0000
0000
,
0000
0000
0000
0000
,
1000
0000
0001
0000
,
1001
0000
1000
0000
,
0001
0000
0100
0000
,
0010
0000
1000
0000
,
0100
0000
0010
0000
,
0001
0000
0000
0000
,
1000
0000
0000
0000
,
0001
0000
0000
0000
,
0100
0000
0000
0000
,
0010
0000
0000
0000
,
1000
0000
0000
0000
,
0001
0000
0000
0000
,
1000
0000
0000
0000
,
1001
0000
0000
0000
,
0001
0000
0000
0000
,
0100
0000
0000
0000
,
0010
0000
0000
0000
,
1001
0000
0000
0000
,
0100
0000
0000
0000
,
0010
0000
0000
0000
,
1000
0000
0000
0000
,
1001
0000
0000
0000
,
0001
0000
0000
0000
,
0100
0000
0000
0000
,
0010
0000
0000
0000
,
1000
0000
0000
0000
,
0001
0000
0000
0000
,
0100
0000
0000
0000
,
0001
0000
0000
0000
,
1000
0000
0001
0000
,
1000
0000
0001
0000
,
1000
0000
0001
0000
,
1000
0000
0001
0000
,
0100
0000
0010
0000
,
0100
0000
0001
0000
,
1000
0000
0010
0000
,
0100
0000
0000
0000
,
1001
0000
0000
0000
,
0100
0000
0000
0000
,
1001
0000
0000
0000
,
0010
0000
0000
0000
,
1001
0000
0000
0000
,
0100
0000
0000
0000
,
1001
0000
0000
0000
,
0100
0000
0000
0000
,
0010
0000
0000
0000
,
0000
0000
0000
0000
,
0100
0000
0000
0000
,
0000
0000
0000
0000
,
0001
0000
0000
0000
,
0000
0000
0000
0000
,
0100
0000
0000
0000
,
0000
0000
0000
0000
,
1001
0000
0000
0000
;

//--------------- dance-single - ----------------
#NOTES:
     dance-single:
     :
     Easy:
     6:
     0,0,0,0,0:
0000
0000
0000
0000
,
0000
0000
0000
0000
,
0001
0000
1000
0000
,
0001
0000
1000
0001
,
1001
1000
0100
0010
,
0001
0100
0010
1000
,
0100
0010
0001
1000
,
0002
0003
1000
0001
,
1001
0000
0000
1000
0000
0000
0100
0000
,
0010
0000
0000
0001
0000
0000
0100
0000
,
0010
0000
0000
1000
0000
0000
0100
0000
,
0010
0000
0000
0001
0000
0000
1000
0000
,
0100
0000
0000
0010
0000
0000
0001
0000
,
0100
0000
0000
0010
0000
0000
1000
0000
,
0100
0000
0000
0010
0000
0000
0001
0000
,
1000
0000
0000
0001
0000
0000
1000
0000
,
0002
0000
0000
2003
0000
0000
0100
0000
,
3020
0000
0000
0032
0000
0000
1000
0000
,
0203
0000
0000
0320
0000
0000
0001
0000
,
0032
0000
0000
2003
0000
0000
3010
0000
,
2001
0000
0000
3001
0000
1001
0000
0000
,
2010
0000
0000
3100
0000
0011
0000
0000
,
2001
0000
0000
3010
0000
0110
0000
0000
,
0101
0000
0000
0001
0000
0000
1000
0000
,
0001
0000
0000
1000
0000
0100
0000
0000
,
0010
0000
0000
0001
0000
0100
0000
0000
,
0010
0000
0000
1000
0000
0001
0000
0000
,
1000
0000
0000
0100
0000
0010
0000
0000
,
0001
0000
0000
0100
0000
0010
0000
0000
,
1000
0000
0000
0001
0000
0100
0000
0000
,
0010
0000
0000
1000
0000
0001
0000
0000
,
1000
0000
0000
0001
0000
0001
0000
0000
,
2000
0001
0100
3001
,
0200
0001
0010
0301
,
2000
0001
0010
3100
,
0020
0001
0100
0031
,
0200
0010
0001
0310
,
2000
0001
0001
3100
,
0020
0100
1000
0130
,
1000
0000
0000
0001
0000
0000
0100
0000
,
2001
0000
3010
0000
,
0210
0000
0301
1000
,
2001
0000
3010
0000
,
0102
0000
1003
0001
,
2001
0000
3100
0000
,
0012
0000
1003
0000
,
0210
0000
0301
0000
,
0102
0000
1003
0001
,
1000
0000
0001
0000
0100
0000
0000
0010
,
0000
1000
0100
0010
,
0001
0000
0100
0000
0010
0000
0000
1000
,
0000
0001
1000
0010
,
0100
0000
0001
0000
0010
0000
0000
0001
,
0000
0100
0010
1000
,
0100
0000
0100
0000
0100
0000
0000
0010
,
0000
0100
0000
0000
1000
0000
0001
0000
,
1001
0000
0000
0000
;

//--------------- dance-single - ----------------
#NOTES:
     dance-single:
     :
     Medium:
     9:
     0,0,0,0,0:
0000
0000
0000
0000
,
0000
0000
0000
0000
,
0001
0000
1000
0000
,
0001
0000
1000
0000
0001
0100
0001
0000
,
0102
1000
0010
0103
,
0120
1000
0001
1030
,
2100
0001
0010
3001
,
0100
0000
0010
0000
1000
0001
1000
0000
,
0001
0000
0000
0100
0000
0000
0001
0000
0000
0100
0000
0000
0001
0000
0000
0000
,
1000
0000
0000
0010
0000
0000
0100
0000
0000
0001
0000
0000
0100
0000
0000
0000
,
0001
0000
0000
0100
0000
0000
0010
0000
0000
1000
0000
0000
0001
0000
0000
0000
,
1000
0000
0000
0100
0000
0000
1000
0000
0000
0001
0000
0000
0100
0000
0010
0000
,
0100
0000
0000
0001
0000
0000
0010
0000
0000
0001
0000
0000
0100
0000
0000
0000
,
0010
0000
0000
1000
0000
0000
0100
0000
0000
1000
0000
0000
0001
0000
0000
0000
,
0100
0000
0000
0001
0000
0000
0010
0000
0000
0001
0000
0000
0100
0000
0000
0000
,
0010
0000
0000
1000
0000
0000
0001
0000
0000
0000
0000
0000
1000
0000
0000
0000
,
1002
0000
0000
2003
0000
0000
0001
0000
,
3200
0000
0000
0320
0000
0000
0100
0000
,
0230
0000
0000
0302
0000
0000
1000
0000
,
0203
0000
0000
0320
0000
0000
0130
0000
,
1001
0000
0002
1000
0000
0100
0103
0000
,
0110
0000
0020
1000
0000
0001
0031
0000
,
1010
0000
2000
0001
0000
0010
3010
0000
,
0100
0000
0000
0001
0000
0000
0100
0000
0000
0000
0000
0000
0010
0000
0000
0000
,
2010
0000
0001
0001
0000
3100
0000
0010
,
2000
0000
0001
0001
0000
3100
0000
0010
,
0200
0000
0001
0001
0000
0310
0000
1000
,
0200
0000
0010
0010
0000
0301
0000
0010
,
2000
0000
0001
0001
0000
3100
0000
0010
,
0200
0000
0001
0001
0000
1300
0000
0100
,
0002
0000
0010
0010
0000
1003
0000
0100
,
0001
0100
0001
0100
0000
0010
0000
1000
,
0002
0000
1003
0000
0001
0010
0010
0000
,
1000
0000
0001
0000
0100
0100
1000
0000
,
0001
0000
1000
0000
0100
0100
0001
0000
,
0010
0000
0001
0000
0010
0010
1000
0000
,
0001
0000
1000
0000
0100
0100
0001
0000
,
1000
0000
0001
0000
0010
0010
0100
0000
,
0001
0000
1000
0000
0100
0100
0001
0000
,
0100
0000
0000
0010
0000
0000
0100
0000
0000
0000
0001
0000
1000
0000
0010
0000
,
0200
0000
0301
0000
1001
0000
1000
0010
,
0000
0100
0001
0000
0021
0000
0130
0000
,
1020
0000
1030
0000
1001
0000
0001
0100
,
0000
0010
1000
0000
2001
0000
3010
0000
,
0120
0000
0130
0000
0101
0000
0001
1000
,
0000
0010
0100
0000
0201
0000
0310
0000
,
1020
0000
1000
0000
0031
0000
1000
0010
,
0000
0100
0000
0001
0100
0000
0010
0000
,
1000
0000
0001
0000
1000
0000
0010
0100
,
0000
0001
0100
0000
0010
0000
1000
0000
,
0100
0000
0010
0000
0100
0000
0001
0100
,
0000
0001
0100
0000
0010
0000
1000
0000
,
0100
0000
0010
0000
0001
0000
1000
0100
,
0000
0001
0100
0000
1000
0000
0010
0000
,
0100
0000
0001
0000
1000
0000
0100
0010
,
0000
0001
0000
0100
0010
1000
0001
1000
,
1001
0000
0000
0000
;

//--------------- dance-single - ----------------
#NOTES:
     dance-single:
     :
     Hard:
     12:
     0,0,0,0,0:
0000
0000
0000
0000
,
0000
0000
0000
0000
,
1000
0000
0000
0001
0000
0001
0000
0000
0010
0000
0000
0100
0000
0100
0000
0000
,
1000
0000
0000
0000
0001
0000
1000
0000
0001
0010
0001
0010
0100
1000
0100
1000
,
0001
0000
0000
0010
0000
0010
0000
0000
1000
0000
0000
0010
0000
0010
0000
0000
,
0001
0000
0000
0100
0000
0100
0000
0000
1000
0000
0000
0100
0000
0100
0000
0000
,
0001
0000
0000
0010
0000
0100
0000
0000
1000
0000
0000
0001
0000
0010
0000
0000
,
0100
0000
0000
0000
1000
0000
0001
0000
0010
0100
0010
0100
1000
0001
1000
0001
,
0010
0000
0000
0100
0000
0000
1000
0000
0000
0010
0000
0000
1000
0000
0001
0000
,
1000
0000
0000
0100
0000
0000
0010
0000
0000
0001
0000
0000
1000
0000
0010
0000
,
1000
0000
0000
0010
0000
0000
0001
0000
0000
0010
0000
0000
1000
0000
0001
0000
,
1000
0000
0000
0100
0000
0000
0001
0000
0000
0100
0000
0000
0010
0000
0001
0000
,
1000
0000
0000
0100
0000
0000
0010
0000
0000
0001
0000
0000
1000
0000
1000
0000
,
0001
0000
0000
0010
0000
0000
0100
0000
0000
1000
0000
0000
0010
0000
0010
0000
,
0100
0000
0000
0001
0000
0000
0010
0000
0000
0100
0000
0000
1000
0000
0001
0000
,
1001
0000
0000
1100
0000
0000
0110
0000
0000
0000
0010
0000
0001
0000
0010
0000
,
0100
1000
0010
2000
0000
3001
0010
0001
,
0100
0001
0010
0200
0000
1300
0001
0010
,
0001
0100
0001
0020
0000
0031
0100
0001
,
1000
0100
0010
0002
0000
1003
0010
1000
,
2010
0000
3010
0100
0000
0110
0000
0000
,
0021
0000
0031
1000
0000
1100
0000
0000
,
0120
0000
0031
1000
0000
1000
0100
0010
,
0011
0000
0000
0110
0000
0000
1100
0000
0000
0000
1000
0000
0001
0000
1000
0000
,
0001
0100
1000
0200
0000
0302
0000
1003
,
0010
0001
0010
2000
0000
3200
0000
0310
,
0001
0100
0001
0020
0000
0230
0000
1300
,
0010
0001
0010
2000
0000
3002
0000
1003
,
0010
0001
0010
2000
0000
3200
0000
0310
,
0001
0010
1000
0020
0000
0032
0000
1003
,
0001
1000
0010
2000
0000
3002
0000
1003
,
0010
0001
0010
1000
0000
1001
0000
0001
,
0020
0000
0032
0000
1003
0010
0100
0000
,
1002
0000
2003
0000
3100
0010
0001
0000
,
0021
0000
0032
0000
1003
0010
0100
0000
,
0102
0000
2003
0000
3001
0010
0100
0000
,
2100
0000
3002
0000
1003
0010
0100
0000
,
0102
0000
2003
0000
3001
0010
0100
0000
,
2010
0000
3100
0000
0010
0001
0010
0000
,
1100
0000
0000
1010
0000
0000
1001
0000
0000
0000
0001
0000
0010
0000
0100
0000
,
1200
0000
1000
0000
0310
0000
1000
0100
,
0120
0000
0001
0000
0100
0000
0031
1000
,
1002
0000
1000
0000
1000
0000
0013
0001
,
0012
0100
1000
0103
,
0120
0000
0001
0000
0001
0000
0130
1000
,
2100
0000
0100
0000
0001
0000
3100
0010
,
0210
0000
0010
0000
0001
0000
1300
0001
,
1001
1000
0000
0001
0001
0010
0100
1000
,
0002
0000
2003
0000
3020
0000
0130
0001
,
0000
0010
0200
0000
2300
0000
3020
0000
,
0230
0000
0302
0000
0023
0000
0130
1000
,
0000
0001
2000
0000
3002
0000
2003
0000
,
3002
0000
0023
0000
0230
0000
1300
0001
,
0000
1000
0020
0000
0230
0000
0302
0000
,
0023
0000
0230
0000
2300
0000
3001
0010
,
0000
0100
0000
1000
0010
0100
0001
1000
,
0110
0000
0000
0000
;

//--------------- dance-single - ----------------
#NOTES:
     dance-single:
     :
     Challenge:
     16:
     0.687,0.725,0.232,0.757,0.25:
0000
0000
0000
0000
,
0000
0000
0000
0000
,
0101
0000
0000
0010
0000
1000
0000
0000
1010
0000
0000
0010
0000
0100
0000
0000
,
0110
0000
0000
0000
0010
0000
0100
0000
0001
0010
0100
0010
0001
1000
0100
1000
,
0001
0000
0010
0100
0010
0001
0100
0000
0010
0000
1000
0010
0100
0001
1000
0000
,
0001
0000
1000
0010
0100
0001
1000
0000
0001
0000
1000
0100
0010
0100
1000
0000
,
0001
0000
1000
0100
1000
0010
0100
0000
0001
0000
1000
0010
0100
0010
1000
0000
,
0001
0000
0000
1000
0000
0010
1000
0000
0001
1000
0010
0100
0001
0100
0010
1000
,
0010
0000
1000
0100
1000
0000
0010
0000
1000
0001
1000
0000
1100
0000
0010
0001
,
0010
0000
0100
1000
0010
0000
0100
0000
0001
1000
0001
0000
0011
0000
0100
1000
,
0100
0000
0010
0001
0010
0000
0100
0000
1000
0100
0010
0000
0110
0000
0100
1000
,
0010
0000
0100
0001
0010
0000
0100
0000
1000
0010
0100
0000
0101
0000
0001
1000
,
0010
0000
1000
0001
1000
0000
0010
0000
0100
0010
0100
0000
0110
0000
0010
1000
,
0001
0000
0010
0001
0010
0000
0100
0000
1000
0001
1000
0000
0010
0000
1000
0001
,
0010
0000
0000
0100
0000
0000
1000
0000
0000
0100
0000
0000
0010
0000
0001
0000
,
0101
0000
0000
1001
0000
0000
1001
0000
0000
0000
1000
0000
0001
0010
0100
1000
,
0200
0000
0310
0002
0000
0013
0100
1000
,
0001
1000
0100
0010
0000
0001
0010
0001
,
1000
0100
0001
0200
0000
1300
0100
0001
,
0100
0010
0001
2000
0000
3010
1000
0010
,
1010
0100
0001
0100
0000
0101
0001
0010
,
0011
0001
1000
0100
0000
1100
1000
0010
,
1010
0100
0001
0100
0000
0101
0001
0010
,
0011
0000
0000
0110
0000
0000
1100
0000
0000
0000
1000
0000
0100
0000
0010
0001
,
0010
0000
0001
0000
0100
0000
2000
0000
0000
0000
3100
0000
0001
1000
0001
0100
,
0010
0000
1000
0000
0100
0000
0020
0000
0000
0000
0130
0000
1000
0100
1000
0010
,
0100
0000
0010
0000
0001
0000
2000
0000
0000
0000
3001
0000
1000
0001
0010
0001
,
1000
0000
0010
0000
0001
0000
0020
0000
0000
0000
1030
0000
0100
0010
0001
0100
,
0001
0000
0100
0000
0010
0000
2000
0000
0000
0000
3100
0000
0010
0001
0010
0100
,
0010
0000
0001
0000
0010
0000
0200
0000
0000
0000
1300
0000
1000
0010
1000
0001
,
1000
0100
1000
0200
0000
0301
0010
0011
,
0110
0000
1100
0000
1001
0000
0001
0000
1000
0100
0010
0001
1000
0010
0100
0001
,
2000
0000
0010
0000
3010
0000
1000
0000
0010
0100
0001
0000
0011
0000
0001
1000
,
0020
0000
0100
0000
0130
0000
0001
0000
1000
0001
0100
0000
0110
0000
0010
1000
,
0002
0000
0010
0000
0013
0000
0001
0000
0010
0001
0100
0000
0101
0000
0010
1000
,
0002
0000
1000
0000
1003
0000
0100
0000
0010
0001
0100
0000
0110
0000
0010
0100
,
0002
0000
0100
0000
0103
0000
0010
0000
0100
0001
1000
0000
1001
0000
0001
0100
,
0010
0000
1000
0000
1010
0000
0010
0000
0100
0001
0010
0000
0011
0000
0001
0100
,
0010
0000
1000
0000
1100
0000
0010
0000
0001
0100
0010
0000
1010
0000
1000
0001
,
0100
0000
0000
0110
0000
0000
1000
0010
0100
0001
0010
0100
1000
0010
0100
0001
,
1000
0000
1000
0000
0001
0000
0100
0100
1000
0000
0010
0000
0010
0000
0100
0001
,
0100
0000
0001
0000
0001
0000
0100
0100
1000
0000
0010
0000
0100
0000
0001
1000
,
0001
0000
1000
0000
0100
0000
0010
0010
1000
0000
0001
0000
1000
0000
0010
0100
,
0001
0000
1000
0000
0100
0000
0010
0010
1000
0000
0001
0000
0100
0000
0010
1000
,
0010
0000
0100
0000
0001
0000
0100
0100
0010
0000
0001
0000
1000
0000
1000
0010
,
0100
0000
0001
0000
1000
0000
0100
0100
0010
0000
1000
0000
0010
0000
0100
0001
,
0100
0000
0010
0000
0010
0000
0100
0100
0001
0000
0100
0000
0010
0000
1000
0100
,
0010
0000
0001
0000
0000
0000
0010
0000
0001
0010
0100
1000
0010
0100
0001
0100
,
0020
0000
0230
0000
0302
0000
1003
0001
,
0000
1000
0001
0000
2000
0000
3200
0000
,
0320
0000
0032
0000
1003
0000
0100
0010
,
0000
0100
1000
0000
0200
0000
0320
0000
,
0230
0000
1300
0000
0200
0000
1300
0010
,
0000
0100
0010
0000
0010
0000
1000
0000
,
0001
0000
0020
0000
0031
0000
0100
0010
,
0000
0000
1000
0000
0000
0000
0010
0000
1000
0000
0100
0000
0010
0001
1000
0001
,
2000
0000
3000
0000
;

//--------------- dance-double - ----------------
#NOTES:
     dance-double:
     :
     Hard:
     14:
     0.682,0.65,0.501,0.574,0.073:
00000000
00000000
00000000
00000000
,
00000000
00000000
00000000
00000000
,
00010000
00000000
00000000
00001000
00000000
00001000
00000000
00000000
01000000
00000000
00000000
00100000
00000000
00100000
00000000
00000000
,
10100000
00000000
00000000
00000000
10000000
00000000
00010000
00000000
01000000
00001000
01000000
00001000
00100000
00001000
00010000
00001000
,
00010000
00000000
00000100
00001000
00000100
00000000
00001000
00000000
00000001
00000000
00000100
00000010
00000100
00000000
00000010
00000000
,
00010000
00000000
00001000
00010000
00001000
00000000
00010000
00000000
00001000
00000000
01000000
00100000
01000000
00000000
00100000
00000000
,
10100000
00000000
00000000
10000000
00000000
10000000
00000000
00000000
00100000
00000000
00000000
01000000
00000000
01000000
00000000
00000000
,
01010000
00000000
00000000
00000000
01000000
00000000
00001000
00000000
00010000
00001000
00010000
00000100
00001000
00000010
00000100
00000001
,
00000100
00000000
00000000
00000010
00000000
00000000
00100000
00000000
00000000
00000010
00000000
00000000
00100000
00000000
00001000
00000000
,
01000000
00000000
00000000
00000100
00000000
00000000
01000000
00000000
00000000
00000100
00000000
00000000
01000000
00000000
00001000
00000000
,
00010000
00000000
00000000
00000001
00000000
00000000
00010000
00000000
00000000
00000001
00000000
00000000
00010000
00000000
00001000
00000000
,
00001000
00000000
00000000
10000000
00000000
00000000
00001000
00000000
00000000
10000000
00000000
00000000
00001000
00000000
00010000
00000000
,
00001000
00000000
00000000
01000000
00000000
00000000
10000000
00000000
00000000
01000000
00000000
00000000
00001000
00000000
00010000
00000000
,
00010000
00000000
00000000
00000010
00000000
00000000
00000001
00000000
00000000
00000010
00000000
00000000
00010000
00000000
00001000
00000000
,
01000000
00000000
00000000
00100000
00000000
00000000
10000000
00000000
00000000
00010000
00000000
00000000
01000000
00000000
00010000
00000000
,
01010000
00000000
00000000
00110000
00000000
00000000
00011000
00000000
00000000
00000000
00010000
00000000
00000100
00000000
00001000
00000000
,
00000010
00000100
00000001
00002000
00000000
00003100
00010000
00001000
,
00010000
01000000
10000000
02000000
00000000
03100000
10000000
00010000
,
01000000
00001000
00010000
00002000
00000000
00013000
00000100
00000010
,
00000100
00010000
00001000
00200000
00000000
00310000
10000000
00010000
,
10010000
10000000
00010000
02000000
03000000
01010000
00010000
00100000
,
00101000
00001000
00010000
00000020
00000030
00000110
00000100
00000001
,
00001001
00001000
00000100
00020000
00030000
00011000
00001000
01000000
,
01100000
00000000
00000000
10100000
00000000
00000000
10010000
00000000
00000000
00000000
00010000
00000000
10000000
00000000
00001000
00000000
,
00020000
00001000
00001000
00001000
00000000
00030100
00000000
00001000
,
00000200
00000001
00000001
00000001
00000000
00000310
00000000
00000100
,
00020000
00001000
00001000
00001000
00000000
00030010
00000000
00100000
,
00020000
10000000
10000000
10000000
00000000
01030000
00000000
00100000
,
20000000
00010000
00010000
00010000
00000000
31000000
00000000
00100000
,
02000000
00010000
00010000
00010000
00000000
03001000
00010000
00001000
,
00010000
00001000
00000100
00000020
00000000
00010030
00000000
00001000
,
00010000
00100000
01000000
01100000
00000000
10010000
00000000
00010000
,
20010000
00001000
00010000
30001000
,
00021000
00000010
00001000
00030100
,
00010200
00001000
01000000
00001300
,
00021000
00000010
00000010
00030010
,
00020000
00000000
00031000
00000000
00010000
00011000
00001000
00000000
,
00200000
00000000
00310000
00000000
10000000
10010000
00010000
00000000
,
02010000
00001000
00000100
03001000
,
01001000
00000000
00000000
01100000
00000000
00000000
10100000
00000000
00000000
00000000
10000000
00000000
00010000
00000000
01000000
00000000
,
00020000
00000000
00000000
00000000
01030000
00000000
00000000
00000000
00011000
00000000
00000000
00000000
00010000
00000000
00000100
00001000
,
00000100
00001000
00000001
00000000
00001100
00000000
00000100
00001000
,
00001100
00000000
00000000
00000000
00000100
00000000
00010000
00001000
00100000
00000000
00000000
00000000
00010000
00000000
01000000
00000000
,
01010000
00010000
10000000
00000000
11000000
00000000
00010000
01000000
,
01020000
00000000
00130000
00000000
00011000
00000000
00010000
00000100
,
00010100
00000000
00010000
00000000
00001000
00000000
00000000
00000000
00010010
00000000
00000000
00000000
00001000
00000000
00000001
00000100
,
00000001
00000000
00001000
00000000
00000100
00000000
00010000
00001000
00010000
00000000
00000000
00000000
00001000
00000000
00100000
00000000
,
00101000
00001000
00000000
01000000
00100000
10000000
00010000
10000000
,
00010000
00000000
00001000
00000000
00000001
00000000
00001000
00000100
,
00000000
00100000
00010000
00000000
00200000
00000000
00320000
00000000
,
10030000
00000000
00010000
00000000
00001000
00000000
00000001
00001000
,
00000000
00000100
00010000
00000000
00001000
00000000
10000000
00000000
,
00010000
00000000
10000000
00000000
00001000
00000000
00010000
00000100
,
00000000
00001000
00000001
00000000
00000200
00000000
00000310
00000000
,
00000001
00000000
00001000
00000000
00010000
00000000
10000000
00010000
,
00000000
00100000
00000000
00001000
01000000
00100000
10000000
00100000
,
01010000
00000000
00000000
00000000
;
