#TITLE:All I Want;
#SUBTITLE:RMX;
#ARTIST:Kopophobia & Atajaa;
#TITLETRANSLIT:;
#SUBTITLETRANSLIT:;
#ARTISTTRANSLIT:;
#GENRE:;
#CREDIT:;
#MUSIC:All I Want RMX.ogg;
#BANNER:;
#BACKGROUND:;
#CDTITLE:;
#SAMPLESTART:0.000;
#SAMPLELENGTH:0.000;
#SELECTABLE:YES;
#OFFSET:-0.286;
#BPMS:0.000=210.000;
#STOPS:;
#BGCHANGES:;
#FGCHANGES:;

//--------------- dance-single - ----------------
#NOTES:
     dance-single:
     :
     Beginner:
     20:
     0,0,0,0,0:
0000
0000
0000
0000
,
1000
0100
0010
0001
1000
0010
0100
0001
1000
0100
0010
0001
1000
0010
0100
0001
,
1000
0100
1000
0001
0010
0001
1000
0100
1000
0001
0010
0001
0100
0010
0100
0010
,
1000
0100
0010
0001
1000
0010
0100
0001
1000
0100
0010
0100
1000
0001
0010
0100
,
1000
0001
1000
0010
0100
0010
1000
0001
1000
0010
0100
0001
1000
0100
0010
0001
,
1000
0100
1000
0100
0010
0001
1000
0010
1000
0100
0010
0001
1000
0010
0100
0001
,
1000
0010
0100
0001
1000
0100
0010
0001
1000
0100
0010
0001
1000
0100
1000
0010
,
1000
0100
0010
0001
1000
0100
1000
0010
0100
0001
1000
0100
0010
0001
0100
0010
,
1000
0001
0100
0010
1000
0100
0010
0001
1000
0010
1000
0100
1000
0001
0100
0010
,
1000
0010
0100
0001
1000
0100
0010
0100
1000
0001
0100
0001
1000
0100
0010
0001
,
1000
0010
0100
0001
1000
0100
0010
0001
1000
0100
0010
0100
1000
0010
0100
0001
,
1000
0100
1000
0100
0010
0001
1000
0010
1000
0010
0100
0001
0100
0010
1000
0001
,
0010
0100
1000
0100
0010
0001
0100
0010
1000
0100
1000
0010
0100
0001
1000
0010
,
1000
0100
0010
0001
1000
0010
0100
0010
0100
0001
0010
0100
1000
0001
0010
0100
,
1000
0010
0100
0001
1000
0100
0010
0001
0010
0001
0100
0010
1000
0100
1000
0001
,
1000
0010
0100
0001
1000
0100
0010
0001
1000
0010
0100
0001
1000
0100
1000
0010
,
0100
0001
1000
0100
1000
0001
0010
0100
0010
0001
1000
0010
1000
0001
0100
0010
,
0100
0001
0010
0100
0010
0001
1000
0010
0100
0001
0010
0100
1000
0010
0100
0001
,
1000
0100
0010
0001
0100
0010
1000
0100
0010
0001
0100
0010
1000
0100
0010
0100
,
2000
0000
0000
3000
,
0001
0000
1000
0010
,
1000
0010
1000
0010
0100
0001
0010
0100
1000
0001
0010
0100
1000
0001
0100
0001
,
0010
0100
1000
0001
1000
0010
0100
0001
1000
0100
0010
0100
1000
0001
0100
0001
,
1000
0100
0010
0001
1000
0010
0100
0001
1000
0100
0010
0001
1000
0100
0010
0100
,
1000
0010
0100
0001
1000
0100
0010
0001
0100
0010
0100
0001
0010
0100
1000
0010
,
0100
0001
1000
0100
0010
0100
1000
0010
1000
0001
0010
0100
1000
0010
0100
0001
,
1000
0010
0100
0001
1000
0100
0010
0001
1000
0010
0100
0001
0100
0010
1000
0001
,
1000
0100
0010
0001
1000
0010
0100
0001
1000
0100
0010
0001
1000
0010
1000
0100
,
0010
0001
1000
0100
0010
0100
1000
0001
0100
0010
0100
0001
0010
0001
1000
0010
,
0100
0001
1000
0100
0010
0100
1000
0001
0100
0010
1000
0100
1000
0001
0010
0100
,
1000
0010
0100
0001
1000
0100
0010
0001
0100
0010
1000
0100
0010
0100
1000
0001
,
1000
0100
1000
0001
0100
0010
1000
0100
1000
0001
0100
0010
1000
0001
1000
0001
,
0100
0010
1000
0100
0010
0001
0100
0010
1000
0100
0010
0001
0100
0010
1000
0001
,
1000
0100
1000
0100
0010
0001
0100
0010
1000
0001
0010
0100
0010
0001
1000
0100
,
1000
0001
0100
0001
1000
0100
0010
0001
0100
0010
0100
0001
1000
0100
0010
0001
,
1000
0100
0010
0001
0100
0010
0100
0001
1000
0100
0010
0100
1000
0010
0100
0001
,
1000
0100
1000
0100
0010
0001
0010
0001
1000
0010
0100
0001
1000
0100
0010
0001
,
1000
0100
1000
0010
0100
0001
0100
0010
0100
0001
1000
0100
0010
0100
1000
0001
,
1000
0001
0100
0001
1000
0010
0100
0001
1000
0100
0010
0100
1000
0001
1000
0010
,
1000
0001
0010
0100
1000
0010
1000
0010
0100
0001
1000
0001
0010
0001
0100
0010
,
0100
0001
0010
0100
1000
0010
0100
0010
1000
0001
0010
0001
1000
0100
0010
0001
,
0100
0010
1000
0001
0010
0001
1000
0010
1000
0001
0010
0100
0010
0001
1000
0010
,
0100
0001
0010
0100
1000
0010
0100
0001
1000
0100
0010
0001
1000
0100
0010
0100
,
0010
0001
0100
0010
1000
0100
0010
0001
1000
0010
0100
0001
1000
0100
1000
0100
,
0010
0001
0100
0010
0100
0001
1000
0100
0010
0100
1000
0001
1000
0100
1000
0001
,
0100
0001
0010
0100
1000
0010
1000
0001
0010
0100
1000
0001
0100
0010
0100
0001
,
1000
0100
0010
0001
1000
0010
1000
0001
0010
0100
1000
0010
0100
0001
1000
0010
,
1000
0000
0000
0000
0000
0000
0000
0000
0000
0000
0000
0000
0000
0000
0000
0000
0000
0000
0000
0000
0000
0000
0000
0000
0000
0000
0000
0000
0000
0000
0000
0000
0000
0000
0000
0000
0000
0000
0000
0000
0000
0000
0000
0000
0000
0000
0000
0000
0002
0003
0000
0000
0000
0000
0000
0000
0000
0000
0000
0000
0000
0000
0000
0000
0000
0000
0000
0000
0000
0000
0000
0000
0000
0000
0000
0000
0000
0000
0000
0000
0000
0000
0000
0000
0000
0000
0000
0000
0000
0000
0000
0000
0000
0000
0000
0000
0001
0000
0000
0000
0000
0000
0000
0000
0000
0000
0000
0000
0000
0000
0000
0000
0000
0000
0000
0000
0000
0000
0000
0000
0000
0000
0000
0000
0000
0000
0000
0000
0000
0000
0000
0000
0000
0000
0000
0000
0000
0000
0000
0000
0000
0000
0000
0000
0100
0000
0000
0000
0000
0000
0000
0000
0000
0000
0000
0000
0000
0000
0000
0000
0000
0000
0000
0000
0000
0000
0000
0000
0000
0000
0000
0000
0000
0000
0000
0000
0000
0000
0000
0000
0000
0000
0000
0000
0000
0000
0000
0000
0000
0000
0000
0000
,
0010
0000
0100
0001
,
1000
0100
0010
0001
1000
0100
1000
0001
0010
0100
0010
0001
1000
0100
1000
0010
,
0100
0001
1000
0100
0010
0001
1000
0100
1000
0010
0100
0010
1000
0100
0010
0100
,
1000
0010
0100
0001
1000
0100
0010
0001
1000
0100
1000
0010
1000
0001
0100
0001
,
0010
0100
1000
0010
0100
0001
0010
0100
1000
0001
0100
0001
1000
0100
0010
0100
,
1000
0100
0010
0001
1000
0010
0100
0010
1000
0100
0010
0001
1000
0010
0100
0001
,
1000
0100
1000
0010
0100
0001
0010
0001
0100
0010
1000
0010
0100
0010
1000
0100
,
0010
0100
1000
0010
0100
0001
0010
0001
1000
0001
0100
0010
1000
0100
0010
0100
,
1000
0001
1000
0001
0100
0010
1000
0100
0010
0001
1000
0001
0010
0100
0010
0001
,
0100
0000
0000
0000
1010
0000
0000
0000
1000
0000
0000
0001
0000
0000
1000
0001
,
1000
0100
0010
0001
0100
0010
1000
0100
0010
0100
1000
0001
0100
0010
1000
0100
,
1000
0010
0100
0001
0100
0010
1000
0100
0010
0001
0010
0001
1000
0010
1000
0001
,
0100
0010
1000
0010
0100
0001
0010
0100
1000
0010
1000
0010
0100
0001
0100
0010
,
1000
0100
0010
0001
0100
0010
1000
0001
0100
0010
0100
0001
1000
0100
1000
0001
,
0100
0010
0100
0001
1000
0100
0010
0001
1000
0010
1000
0001
0010
0001
0100
0010
,
1000
0010
0100
0001
,
1000
0001
1000
0001
,
1000
0000
0100
0000
0020
0030
0001
0000
,
0100
0000
0010
0000
2000
3000
0100
0000
,
0010
0000
0001
0000
0200
0300
0010
0000
,
1000
0001
0001
0100
,
0010
0100
0001
0010
0001
1000
0010
0100
0001
0010
0100
1000
0010
0100
0001
1000
,
0100
0010
0100
1000
0001
0100
0010
1000
0001
0010
0100
1000
0001
0100
0010
0100
,
0001
1000
0010
1000
0100
0010
0001
0100
0010
1000
0100
0010
0100
1000
0001
0100
,
0010
1000
0100
0010
0100
1000
0001
0010
0100
1000
0001
1000
0010
1000
0001
0010
,
0100
0010
0001
1000
0100
1000
0010
0100
0001
0010
0100
1000
0001
1000
0010
1000
,
0100
0010
0001
0100
0001
0010
0100
0010
0001
0100
0010
1000
0001
0010
0100
0010
,
0001
1000
0010
1000
0100
0010
0001
0100
0010
1000
0001
0010
0100
1000
0010
0100
,
0001
1000
0100
0010
0100
1000
0001
0100
0010
0100
0001
1000
0010
1000
0100
0010
,
0001
1000
0010
1000
0001
0010
0100
1000
0010
0100
0001
1000
0010
1000
0100
0010
,
0100
1000
0001
0100
0010
0100
0001
1000
0100
0010
0100
1000
0001
0100
0010
1000
,
0100
0010
0100
1000
0001
0010
0100
1000
0010
0100
0001
1000
0100
1000
0001
1000
,
0010
0000
0010
0000
0100
0000
0001
0000
0010
0100
1000
0001
0010
0100
1000
0001
,
0010
0000
0000
0000
;

//--------------- dance-single - ----------------
#NOTES:
     dance-single:
     :
     Easy:
     7:
     0,0,0,0,0:
0000
0000
0000
0000
,
1000
0001
1000
0001
,
2000
3000
0020
0030
,
0100
0001
0010
0001
,
1000
0000
0010
0000
,
1000
0000
0001
0000
,
0100
0010
0100
0000
,
0001
0000
1000
0000
,
0001
1000
0001
1000
,
1020
0000
0230
0000
,
0302
0000
0203
0000
,
0310
1000
0010
1000
,
0001
0000
0001
0000
,
2001
0000
3200
0000
,
0320
0000
0032
0000
,
0103
0000
0010
1000
,
2000
0000
0002
3003
,
1001
0000
0001
0000
,
0100
0000
0010
0000
,
1000
0000
0000
0000
,
0000
0000
0001
0000
,
1000
0010
1000
0010
,
1000
0000
0001
0100
,
0001
1000
0100
0010
,
0100
0000
1000
0001
,
0100
0010
1000
0100
,
0010
0100
1000
0001
,
0100
0010
1000
0100
,
0010
0010
0010
0010
,
0001
1000
0010
1000
,
1001
0000
0110
0000
,
0010
1000
0100
0010
,
0100
0000
1000
0000
,
0001
0000
0001
0000
,
1000
0010
1000
0000
,
0001
0100
0001
1000
,
0100
0100
0100
0000
,
0010
0001
0100
0010
,
1000
0100
0010
0000
,
0100
1000
0001
1000
,
0010
0010
0010
0000
,
2001
0000
3010
0000
,
0200
0000
0301
0000
,
2000
0000
3001
0000
,
0020
0000
0130
0000
,
2000
0000
3010
0000
,
0200
0000
0301
0000
,
0010
0000
0000
0000
,
0000
0000
1000
0000
,
0001
1000
0001
1000
,
0010
0000
1000
0001
,
1000
0010
0100
0001
,
0010
0001
1000
0100
,
0010
0000
0100
1000
,
0001
0000
0100
0100
,
0010
0000
1000
0000
,
0001
1000
0001
1000
,
0001
0000
1000
0000
,
0001
0000
0100
0000
,
0010
1000
0010
1000
,
0100
0010
0001
0001
,
0001
0100
0010
0010
,
0010
1000
0100
0010
,
0001
0100
0010
1000
,
0001
1000
0010
1000
,
0001
0000
0100
0000
,
0010
0000
1000
0000
,
0001
0000
0100
0000
,
0010
0000
1000
0000
,
0001
0000
1000
0000
,
0010
0000
1000
0000
,
0001
0000
1000
0000
,
0001
0000
1000
0100
,
0010
0001
0010
0001
,
1000
0100
1000
0100
,
0010
0001
0010
0001
,
0100
0010
0100
0010
,
1000
0100
0010
0001
,
0010
0100
1000
0010
,
0100
0001
1000
0100
,
0010
0010
0010
0010
,
1001
0000
0000
0000
;

//--------------- dance-single - ----------------
#NOTES:
     dance-single:
     :
     Medium:
     11:
     0,0,0,0,0:
0000
0000
0000
0000
,
2000
3020
0230
0302
,
1003
0000
0000
0010
0000
0000
0100
0000
0000
0001
0000
0000
1000
0000
0000
0000
,
0002
0203
0320
2030
,
3001
0000
0000
0100
0000
0000
0010
0000
0000
1000
0000
0000
0010
0000
0000
0000
,
1000
0100
0000
1000
0100
0000
0010
0000
,
0011
0000
0001
0000
1000
0010
1000
0000
,
0001
0100
0000
0100
0001
0000
1000
0000
,
0020
0230
0302
1003
,
1001
1000
0001
1000
,
0020
0000
0000
0000
,
0130
0001
1000
0001
,
1000
0010
1000
0000
0010
0000
0100
0000
,
0012
0203
0320
1030
,
2010
3002
0203
0310
,
2100
0000
3002
0000
0203
0000
0310
1000
,
0002
0000
0103
0000
,
1010
1000
0001
0100
,
0110
0010
1000
0001
,
1001
0000
0000
0000
,
0000
0000
0000
0000
,
1000
0000
0001
0000
0100
0010
0100
0010
,
1000
0000
0001
0000
1000
0100
1000
0100
,
2000
3002
0023
0031
,
1000
0001
1000
0001
1000
0001
1000
0001
,
0010
0100
0010
0001
,
1000
0000
0010
0000
0100
0001
0100
0001
,
0100
0010
1000
0010
,
1010
1000
0001
1000
,
1001
0000
0001
0000
0100
0010
0100
0000
,
0004
0000
0000
0000
,
1003
0000
0000
0010
0000
0000
0100
0000
,
1001
0000
1001
0000
1000
0001
1000
0000
,
0001
0100
0010
1000
,
0001
1000
0001
0100
0001
1000
0001
0100
,
0010
1000
0001
0100
,
0010
1000
0010
1000
0001
0000
0000
0000
,
2001
0000
3010
0000
,
0200
0302
2003
3002
,
1003
0000
0010
0000
0100
0001
0100
0000
,
0002
2003
3010
0100
,
1001
1000
0001
0010
,
0011
0001
1000
0100
,
1100
1000
0001
1000
,
1001
0001
0100
0010
,
0110
0100
0001
0010
,
0011
0001
1000
0010
,
0100
0000
0000
0000
,
0000
0000
0000
0000
,
0001
0000
1000
0100
1000
0010
1000
0000
,
0010
0000
0100
0001
0100
0000
0010
0000
,
1000
0001
1000
0001
,
0001
0000
0100
0000
0010
0000
1000
0001
,
1000
0000
0010
0000
0100
0000
0001
1000
,
0001
1000
0010
0100
,
0001
0000
1000
0000
0100
0010
0100
0010
,
2000
0000
0000
3000
,
1000
0000
0000
0000
0001
0000
0000
0000
0100
0000
0000
0100
0000
0000
0100
0000
,
0002
2003
3020
0130
,
0001
0000
1000
0000
0001
1000
0001
1000
,
0010
0000
1000
0000
1000
0100
0001
0100
,
1000
0000
0001
0000
0001
0010
1000
0010
,
0001
0100
0010
1000
,
0001
0100
0010
1000
,
1001
0000
0000
0000
,
0001
0000
1000
0000
,
0001
0000
0100
0100
,
0010
0000
1000
0000
,
0001
0000
1000
1000
,
0001
0000
1000
0000
,
0010
0000
0100
0100
,
0001
1000
0010
1000
,
0001
0000
1000
0000
,
0001
0010
0001
0010
0001
0010
0001
0010
,
0100
1000
0100
1000
0100
1000
0100
1000
,
0010
0100
0010
0100
0010
0100
0010
0100
,
0001
1000
0001
1000
0001
1000
0001
0000
,
1000
0001
1000
0001
0100
0010
0100
0010
,
1000
0001
0100
0001
1000
0100
0010
0001
,
1000
0010
0100
0001
1000
0010
0100
0001
,
1000
0000
1000
0000
0010
0100
0010
0100
,
1001
0000
0000
0000
;

//--------------- dance-single - ----------------
#NOTES:
     dance-single:
     :
     Hard:
     13:
     0,0,0,0,0:
0000
0000
0000
0000
,
1000
0100
1000
0000
0001
0010
0001
0000
,
1000
0000
0000
0010
0000
0000
1000
0000
0000
0010
0000
0000
1000
0000
0001
0000
,
1000
0100
1000
0100
0010
0001
0010
0001
,
1000
0000
0000
0010
0000
0000
0100
0000
0000
0001
0000
0000
1000
0000
0001
0000
,
1000
0100
0000
0010
0001
0000
1000
0000
,
0002
0000
0103
0000
0010
1000
0100
1000
,
0010
1000
0001
0010
0001
0000
1000
0000
,
0001
0000
0000
0010
0000
0000
0100
0000
1000
0000
0001
0000
1000
0000
0001
0000
,
1001
0000
1000
0000
0001
0100
0010
1000
,
0002
0000
0000
0000
0000
0000
0003
1000
,
0100
0010
0000
0001
0100
0000
0010
0000
,
1000
0100
1000
0100
1000
0000
0001
0000
,
2001
0100
0001
3010
,
0210
0001
0010
0301
,
2000
0000
3020
0000
2030
0000
3001
1000
,
1002
0013
0200
1300
,
1002
1003
0020
0130
,
0002
0203
0320
2030
,
3001
0000
0000
0000
,
0000
0000
1000
0001
,
1000
0000
0001
0000
1000
0100
0001
0100
,
1000
0000
1010
0000
0001
0100
0010
1000
,
0002
0103
1010
0101
,
0001
0010
0001
1000
0100
1000
0001
0010
,
0002
1003
1001
0011
,
0100
0000
1000
0000
0001
0100
0010
0100
,
0001
0101
1010
1001
,
0001
1000
0010
0100
,
0010
1000
0100
1000
0010
0100
0001
0000
,
2000
0000
0000
3002
0000
0000
1003
0000
,
0001
0000
0000
0100
0000
0000
0001
0000
0000
0100
0000
0000
0001
0000
1000
0000
,
0001
0000
1100
0000
0010
0001
0010
0001
,
1000
0010
0000
0010
0100
0000
0001
0000
,
1000
0100
0010
0001
0100
0010
1000
0001
,
1000
0010
0000
0010
1000
0000
0001
0000
,
1000
0100
1000
0100
0010
0000
0001
0000
,
0011
0001
0100
0010
,
2000
3020
0230
0301
,
0020
0000
0130
0000
0010
0001
0100
0010
,
0200
0000
0301
0000
1000
0001
1000
0000
,
0102
0203
0320
1030
,
0210
0302
0023
0031
,
0012
1000
0010
1003
,
2100
0100
0001
3001
,
0201
0320
2030
3010
,
0102
0013
0002
0103
,
0020
0000
0030
0000
,
0000
0000
1000
0001
,
1000
0000
0001
0010
0001
0100
0001
1000
,
0001
1000
0100
0010
0001
0100
0010
1000
,
0001
0000
0200
0000
0310
1000
0100
1000
,
0001
0000
0100
0000
0010
0000
1000
0001
,
1001
0000
1000
0000
0010
0100
0001
0000
,
0010
0000
0100
0000
1000
0010
0100
0001
,
0010
0001
0100
0010
,
2000
3200
0320
0130
,
0110
0000
0000
0000
0001
0000
0000
0000
1000
0000
0000
0010
0000
0000
0010
0000
,
2000
3020
2030
3020
,
1030
0000
0001
0000
1000
0100
0001
0100
,
1000
0000
0010
0000
0100
0100
0001
0001
,
0100
0000
0010
0000
1000
1000
0001
0001
,
0100
0010
0100
0010
,
1000
0001
1000
0001
,
0100
0010
0100
0010
,
1000
0000
1001
0000
,
0001
0000
0101
0000
,
0100
0000
0110
0000
,
0010
0000
1010
0000
,
1000
0001
1001
1000
,
0010
0100
0110
0100
,
0001
0010
0001
1000
,
0001
0000
1000
1000
,
0001
0010
0001
0010
0100
1000
0100
1000
,
0001
0100
0001
0100
0010
1000
0010
1000
,
0001
0010
0100
1000
0010
0100
0001
1000
,
0100
0010
0100
1000
0001
0100
0010
0100
,
0001
1000
0100
1000
0001
0010
0001
1000
,
0010
1000
0001
0010
0100
0010
0001
1000
,
0100
0010
0001
0100
0010
1000
0001
0010
,
0001
0100
0010
1000
0100
0010
0100
1000
,
1000
0000
0000
0000
;

//--------------- dance-single - ----------------
#NOTES:
     dance-single:
     :
     Challenge:
     18:
     0,0,0,0,0:
0000
0000
0000
0000
,
1000
0100
1000
0001
1000
0100
1000
0001
,
0100
0000
0000
0010
0000
0000
1000
0000
0000
0001
0000
0000
0100
0010
0100
0010
,
1000
0000
0001
0000
1000
0010
1000
0000
0001
0000
0100
0000
0010
0000
1000
0000
,
0001
0000
0000
0100
0000
0000
0010
0000
0000
1000
0000
0000
0001
1000
0001
0000
,
1000
1000
0100
0010
0010
0000
0011
0000
,
0002
0000
0000
0000
0203
0000
0000
0000
0310
1000
0100
1000
0001
0100
0010
1000
,
0001
0000
0100
0000
0010
1000
0010
0000
1000
0001
1000
0100
2000
0000
0000
0000
,
3004
0000
0000
0000
0403
0000
0000
0000
0310
0000
1000
0100
1000
0001
0100
0010
,
2000
0000
0000
0000
3001
0100
0010
0100
0001
1000
0100
1000
0001
0100
0010
1000
,
0200
0320
0032
2003
,
3001
0100
0000
0100
0001
0000
0100
0000
,
0001
1000
1001
0000
1000
0000
0010
0000
,
1010
1000
0100
0010
0002
0103
0020
0130
,
0110
0010
1000
0010
1000
0100
0010
0001
,
1001
0000
0000
0000
0004
0000
0000
0000
1003
0000
0010
0000
0100
0001
0100
0000
,
0102
0010
1000
0103
,
2010
0001
0100
3100
,
0012
0103
0010
1000
,
2002
0000
0000
3003
,
0001
0000
1000
0010
,
4000
0000
0000
0000
3100
0000
0000
0000
0010
0001
0100
0010
1000
0001
0010
0001
,
4000
0000
0000
0000
3002
0000
0000
0000
0103
0010
1000
0100
1000
0001
0100
0001
,
1000
0010
1010
0000
0101
0000
1001
0000
,
1000
0001
1000
0000
0001
0100
0010
0000
1000
0001
0010
0001
1000
0100
1000
0010
,
0200
0320
2030
3100
,
1100
0000
0000
0000
1001
0000
0000
0000
0001
0100
0010
1000
0100
0010
0100
1000
,
0001
0000
0202
0303
2002
3003
2020
3030
,
1000
0001
1000
0100
0010
0100
1000
0001
0100
0010
0100
0001
0010
0001
1000
0010
,
1000
0000
0001
0100
0001
0100
0001
0010
0100
0000
0010
0000
0001
0000
0000
0000
,
0400
0000
0304
4003
3040
0000
0230
0000
,
0301
0000
0000
0100
0000
0000
0001
0000
0000
0010
0000
0000
0001
1000
0001
1000
,
0002
0000
0000
0000
0103
0000
0000
0000
0010
0000
1000
0000
0100
0000
1000
0001
,
1000
0010
0000
0010
0100
0000
0101
0000
,
0001
1000
0100
1000
0001
0100
0010
1000
0100
0010
0100
1000
0001
0100
0010
1000
,
0001
0000
0100
0000
0010
1000
0001
1000
0002
0000
0000
0000
0103
0000
0000
0000
,
0010
0010
0100
0100
0001
0000
0100
0010
,
0110
0100
0000
0001
0100
0000
0010
0000
,
4000
3004
0403
0340
,
2030
0000
0000
0000
3002
0000
0000
0000
1003
0010
1000
0001
0010
0001
0100
0010
,
0200
0000
0000
0000
0320
0000
0000
0000
1030
0001
0010
0001
1000
0100
0010
0001
,
0200
0010
0001
0310
,
0001
1000
0010
0000
0200
0000
0000
0000
0302
0000
0000
0000
1003
0000
0000
0000
,
1002
2003
3020
0130
,
0101
0100
0001
0100
0020
0000
1030
0000
,
1001
0001
0100
0010
1000
0100
0010
0001
,
1001
1000
0010
0100
0001
1000
0100
0010
,
0100
0010
0001
0100
,
0010
0000
0100
0001
,
0200
0000
0000
0000
0301
1000
0001
1000
0001
0000
0100
0000
0010
1000
0010
1000
,
0010
0000
1000
0000
0001
0000
0100
0000
0001
0010
0100
0010
0001
0100
0010
0100
,
0002
0000
0000
0000
0103
0000
0000
0000
0010
1000
0010
0000
0100
0001
0010
0000
,
0002
0000
0000
0000
0203
0000
0000
0000
0310
1000
0100
1000
0001
0100
0010
0100
,
0001
0000
0000
0000
1000
0000
0000
0010
0000
0100
0001
0000
1000
0000
0010
0000
,
1010
0000
0000
0000
0101
0000
0000
0000
0001
1000
0100
1000
0001
0100
0010
0100
,
0001
0000
1000
0000
0020
0000
0000
0000
1030
0001
0100
0010
1000
0100
0010
0100
,
1000
0001
1000
0001
0100
0010
1000
0100
0010
0001
1000
0001
0010
0100
0010
0001
,
0100
0000
0000
0000
1010
0000
0000
0000
1000
0000
0000
0001
0000
0000
1000
0001
,
2000
3020
0230
0302
,
1003
0000
0000
0000
0010
0000
0000
0000
0100
0001
0010
0001
1000
0010
1000
0001
,
0200
0000
0310
0000
1000
1000
0001
0001
,
0100
0000
0010
0000
1000
1000
0001
0001
,
1000
0010
0100
0001
1000
0100
0010
0001
1000
0010
1000
0001
0010
0001
0100
0010
,
1000
0010
0100
0001
,
1000
0001
1000
0001
,
1000
0000
0100
0000
0020
0030
0001
0000
,
0100
0000
0010
0000
2000
3000
0100
0000
,
0010
0000
0001
0000
0200
0300
0010
0000
,
1000
0001
0001
0100
,
0010
0100
0001
0100
0010
1000
0100
1000
,
0001
0100
0010
1000
0001
0010
0001
1000
,
0010
1000
0001
0010
0001
1000
0010
1000
,
0001
0100
0010
0100
0001
1000
0010
1000
,
0010
0100
0001
0010
0001
1000
0100
0010
,
0100
1000
0001
0100
0010
0100
0001
0010
,
0100
1000
0010
0100
0001
0010
0001
1000
,
0100
0010
0100
1000
0001
0100
0010
0100
,
0001
1000
0010
0100
0001
0010
0100
1000
,
0001
0100
0010
0100
0001
0100
0010
0100
,
0001
1000
0100
1000
0010
1000
0100
1000
,
0001
0000
0001
0000
0100
0000
0100
0000
0010
1000
0100
1000
0010
0100
0001
0010
,
0001
0000
0000
0000
;
