#TITLE:Weeding Dress;
#SUBTITLE:;
#ARTIST:Taeyang;
#TITLETRANSLIT:;
#SUBTITLETRANSLIT:;
#ARTISTTRANSLIT:;
#GENRE:KPop;
#CREDIT:;
#BANNER:Wedding Dress.png;
#BACKGROUND:Wedding-Dress-bg.png;
#LYRICSPATH:;
#CDTITLE:;
#MUSIC:8774.mp3;
#OFFSET:0.040;
#SAMPLESTART:100.040;
#SAMPLELENGTH:12.000;
#SELECTABLE:YES;
#BPMS:0.000=134.000
;
#STOPS:
;
#BGCHANGES:;
#KEYSOUNDS:;
#ATTACKS:;

//---------------dance-single - ----------------
#NOTES:
     dance-single:
     :
     Hard:
     5:
     0.651,0.636,0.386,0.469,0.183,892.000,93.000,113.000,0.000,0.000,0.000,0.651,0.636,0.386,0.469,0.183,892.000,93.000,113.000,0.000,0.000,0.000: // measure 0
0000
1000
0001
1000
2002
0000
3003
1000
,  // measure 1
0002
0000
0013
0100
1010
0000
0100
0010
,  // measure 2
0100
0010
0100
0010
0110
0000
0100
1000
,  // measure 3
1100
0000
0010
0100
0020
0000
0030
0001
,  // measure 4
1000
0000
0001
1000
0000
0010
0100
0000
2000
0000
3010
0100
1000
0000
0010
0000
,  // measure 5
0110
0000
0010
0100
0000
0100
0010
0000
0100
0001
0100
0001
0100
0000
0100
0000
,  // measure 6
0110
0000
1000
0010
0000
1000
0010
0000
0100
0010
0100
0010
0100
0000
0010
1000
,  // measure 7
0000
1000
0020
0000
0000
0000
0000
0000
0130
0000
0000
0000
0100
0000
0010
0000
,  // measure 8
0100
0020
1000
1000
0030
2000
0000
3100
,  // measure 9
0020
0100
0000
0100
0130
0100
0010
0001
,  // measure 10
0010
0000
0100
0000
1000
0000
0100
0000
1010
0000
0010
0000
1000
0100
0010
0000
,  // measure 11
0100
0000
0000
0000
0110
0000
0010
0000
1000
0000
0000
0000
0100
0000
1000
0001
,  // measure 12
0000
0001
2000
0000
0000
0000
0000
0000
3200
0000
0000
0000
0300
0000
0010
0000
,  // measure 13
0200
0000
0300
0100
0100
0000
0100
1000
,  // measure 14
0100
0000
0010
0000
0100
0000
0001
0000
0010
0001
0010
0000
0011
0000
1000
0000
,  // measure 15
0200
0000
0000
0000
1300
0000
0000
0000
0020
0000
0000
0000
0130
0000
0010
0100
,  // measure 16
0020
0000
0030
0000
1000
0100
1000
0000
0010
0000
0100
0000
1000
0000
0220
0000
,  // measure 17
0000
0000
0330
0000
0001
1000
0001
0000
0100
0000
1000
0000
0100
0000
2000
0000
,  // measure 18
0000
0000
3000
0000
0110
0000
0010
0000
0100
0010
0001
0000
1000
0000
0100
0000
,  // measure 19
1000
0010
0100
0010
0100
2000
0000
3010
,  // measure 20
0110
0000
1000
0001
0010
0100
1000
0100
,  // measure 21
0010
0110
0000
1010
0000
0101
0000
0110
,  // measure 22
0010
0000
0000
0000
1000
0000
0100
0000
1000
0100
1000
0000
0001
0000
0010
0000
,  // measure 23
1000
1100
0000
1010
0000
0101
0000
1002
,  // measure 24
1003
0000
0000
0000
0001
0000
0010
0000
0100
0000
1000
0000
0001
1000
0000
0000
,  // measure 25
1001
0000
1000
0000
0100
0020
0000
0030
0100
0000
0010
0000
1000
0000
0220
0000
,  // measure 26
0000
0000
0330
0000
0001
0000
0010
0000
0100
0000
1000
0000
0100
0010
0000
0000
,  // measure 27
0110
0000
1000
0000
0100
1000
0000
0000
0110
0000
1000
0000
0100
0000
0010
0100
,  // measure 28
0010
0100
0000
0000
0100
0000
0010
0000
0001
0000
0200
0000
0000
0310
0000
0000
,  // measure 29
0010
0100
0010
0100
1000
0200
0000
0310
,  // measure 30
0110
2100
0000
0001
0000
3100
0000
2000
,  // measure 31
3001
0000
1100
0000
0010
0000
0001
1000
,  // measure 32
0001
1000
0002
0000
0000
0000
0000
0000
0000
0000
2003
0000
0000
0000
0000
0000
,  // measure 33
3000
1020
0000
0230
0000
0320
0000
0230
,  // measure 34
0000
2300
0000
3200
0000
2300
0000
3200
,  // measure 35
0000
0302
0000
0000
0003
0100
0010
0100
,  // measure 36
1000
0010
2020
0000
0000
0000
0030
0000
0000
0000
0001
0000
0000
0000
0000
0000
,  // measure 37
3000
0110
0000
1001
0000
0011
0000
1100
,  // measure 38
0000
1010
0000
0110
0000
0011
0000
1001
,  // measure 39
0000
0000
0110
0000
0010
1000
0010
0000
0110
0000
0100
0000
0010
0000
0100
0000
,  // measure 40
0000
2000
0000
0001
3001
0000
0100
0010
,  // measure 41
0100
0000
1000
0100
0010
0002
0000
1003
,  // measure 42
0110
0000
0100
0000
0010
0000
0100
0000
0001
0010
0100
0000
0010
0000
0100
0000
,  // measure 43
1000
0000
0000
0000
1010
0000
0000
0000
0100
0000
0010
0000
0010
0000
0100
0010
,  // measure 44
0000
0010
0100
0000
0010
0000
1000
0000
2000
0000
3000
0000
0100
0000
0010
0000
,  // measure 45
0200
0000
0300
0000
1000
0000
1000
0000
1001
0000
0100
0000
0000
0010
0100
0000
,  // measure 46
0010
0000
0100
0000
0010
0000
1000
0000
0100
0010
0100
0000
1100
0000
0010
0000
,  // measure 47
0100
0010
0100
0000
0001
0000
0010
0000
0100
0000
2000
0000
0000
0000
3001
1000
,  // measure 48
0001
1000
0001
0000
0100
0000
0001
0000
0020
0000
0000
0000
1030
0000
0100
0000
,  // measure 49
0010
0100
1000
0100
0010
1000
0000
0010
,  // measure 50
1000
0010
0100
0001
1001
1000
0100
0001
,  // measure 51
0010
0000
0100
0010
0100
2000
3000
0010
,  // measure 52
0100
0010
0100
0000
0100
0000
0010
0000
0200
0000
0000
0300
1000
0000
0100
0000
,  // measure 53
0010
0100
0010
0100
0010
1010
0000
0100
,  // measure 54
0020
0000
0000
0000
0130
0000
0010
0000
0100
0010
0100
0000
0010
0000
0100
0000
,  // measure 55
2002
0000
0000
3003
0100
0000
0010
0000
0100
0000
0001
0000
1000
0000
1000
0100
,  // measure 56
2000
0000
0000
3000
0001
1000
0001
0000
0100
0000
1000
0000
0100
0000
0202
0000
,  // measure 57
0000
0000
0303
0000
0001
0010
0001
0000
0100
0000
0010
0000
0100
0000
2002
0000
,  // measure 58
0000
3003
1000
0100
0010
0001
1000
0100
,  // measure 59
0010
0001
0100
0001
0010
0200
0000
0301
,  // measure 60
0100
0000
0010
0100
0010
0001
0100
2000
,  // measure 61
0001
3001
0000
0011
0000
0110
0000
1020
,  // measure 62
1030
0000
0000
0000
1000
0000
0100
0000
0010
0100
0010
0000
0010
0000
0001
0000
,  // measure 63
0010
0100
0020
0000
0000
0000
0230
0000
0000
0000
0301
0000
0000
0000
0100
0000
,  // measure 64
1010
0000
0000
0000
1000
0000
0100
0000
0010
0000
0100
0000
1000
0002
0000
0003
,  // measure 65
1000
0000
0100
0000
0001
2000
0000
3000
0100
0000
1000
0000
0100
0000
0220
0000
,  // measure 66
0000
0000
0330
0000
0100
0000
0010
0000
0100
0000
1000
0000
0100
0020
0000
0030
,  // measure 67
0100
0000
0110
0000
0010
2000
0000
3000
0010
0000
0100
0000
0001
0000
0101
0000
,  // measure 68
0100
0010
0100
0000
1000
0000
0010
0000
0100
0000
0100
0000
0000
0110
0000
0000
,  // measure 69
0010
0000
1000
0000
0100
0000
0010
0000
1000
0000
0100
0000
0000
1010
0000
0000
,  // measure 70
0100
0010
0100
0000
0000
0000
0011
0000
0000
0000
2000
0000
3000
0000
0100
0000
,  // measure 71
0010
0000
0100
0110
0100
0000
1000
0100
,  // measure 72
0010
0020
0000
0000
0030
0210
0000
0300
,  // measure 73
0000
0010
0000
0100
1000
0100
0000
0010
,  // measure 74
0000
0110
0000
1001
0000
0110
0000
1010
,  // measure 75
0000
0010
0000
1000
0000
0100
0010
0100
,  // measure 76
0001
0020
0000
0000
0030
2000
0000
0000
,  // measure 77
3000
0110
0000
1001
0000
1010
0000
0110
,  // measure 78
0000
2000
3000
0100
0010
1000
0000
0002
,  // measure 79
0000
0000
2003
0000
0000
0000
3000
0000
0010
0000
0100
0010
0100
0010
0100
0000
,  // measure 80
0010
0110
0000
1000
0100
0000
0100
0000
,  // measure 81
0020
0000
0100
0130
0000
0100
0010
0100
,  // measure 82
1000
0100
0010
0001
0010
0100
1000
0100
,  // measure 83
1001
0000
0000
0000
1000
0000
0100
0000
0010
0000
1000
0000
0100
0000
0010
0100
,  // measure 84
0010
0110
0000
0001
0100
0000
1000
0001
,  // measure 85
1000
0010
1000
0000
1010
0000
1000
0000
0100
0000
1000
0000
0010
0000
0001
0000
,  // measure 86
0100
0000
0110
0000
0010
0000
0010
0000
0010
0100
1000
0000
1000
0000
0100
0000
,  // measure 87
0010
0000
1000
0000
0100
0000
0010
0000
0100
0000
2000
0000
0000
0000
3001
1000
,  // measure 88
0001
1000
0002
0000
0000
0000
0003
0000
0110
0000
0000
0000
1000
0000
0100
0000
,  // measure 89
0000
0100
0000
0010
0100
0001
0000
0010
,  // measure 90
0100
1100
0000
0100
0010
0000
0100
0010
,  // measure 91
0001
1000
0001
0000
1000
0000
0100
0000
0010
0000
0002
0000
0000
0000
0103
0000
,  // measure 92
0010
1000
0010
0000
0000
0000
0010
0000
0100
0000
0001
0000
1000
0000
0100
0000
,  // measure 93
0010
0110
1000
0100
0001
0010
0000
0010
,  // measure 94
1000
0000
1010
0000
0100
0000
0010
0000
0100
0010
0100
0000
0001
0000
0010
0000
,  // measure 95
0100
1000
0100
0000
1000
0000
0010
0000
0100
0000
1000
0000
0101
0000
1001
0000
,  // measure 96
1000
0100
2000
0000
0000
0000
0000
0000
3002
0000
0000
0000
0003
0000
0020
0000
,  // measure 97
0100
0000
0230
0000
0000
0000
0000
0000
0000
0300
0000
0000
1000
0000
0001
0000
,  // measure 98
0010
1000
0100
1000
0020
0000
1030
0100
,  // measure 99
0002
0000
1003
0000
0010
0000
1000
0100
,  // measure 100
0010
2000
0000
0000
3000
0001
0000
0010
,  // measure 101
0200
0000
0000
0000
0300
1000
0000
0010
,  // measure 102
0100
1000
0100
0010
1000
0000
0100
0010
,  // measure 103
1000
0000
1010
1000
0100
0010
1000
0100
,  // measure 104
0001
0000
0100
0000
0010
0100
0010
0000
0100
0000
0010
0000
0100
0000
0002
0000
,  // measure 105
0000
0000
0103
0000
0100
0001
0100
0000
0100
0000
1000
0000
0100
0000
0220
0000
,  // measure 106
0000
0000
0330
0000
0001
0000
0010
0000
0100
0010
0001
0000
0001
0000
0100
0000
,  // measure 107
0010
0100
1000
0000
0010
0000
1000
0000
0100
0000
0010
0000
0000
0000
0100
0000
,  // measure 108
2020
0000
3030
0000
1000
0000
0010
0000
1000
0000
0100
0000
0010
1010
0000
0000
,  // measure 109
0001
0000
0001
0000
0100
0110
0000
0000
1100
0000
0100
0000
0010
0000
0100
0000
,  // measure 110
0020
0000
0130
0100
0020
0000
0000
0030
,  // measure 111
1000
0001
0010
0100
1000
0200
0010
0310
,  // measure 112
0010
0100
0020
0000
0000
0000
1030
0000
0020
0000
0000
0000
2030
0000
3000
0000
,  // measure 113
0200
0000
0310
0001
1000
0100
1000
0010
,  // measure 114
0000
0110
0100
1000
0100
0001
1000
0100
,  // measure 115
0010
0100
1000
0000
2000
0000
0000
0000
3100
0000
0000
0000
0010
0000
1000
0000
,  // measure 116
0010
1000
0010
0000
0000
0000
1000
0000
0120
0000
0000
0000
0100
0000
0030
0000
,  // measure 117
0100
1000
0100
0000
0100
0000
0001
0000
0010
0000
0100
0000
1000
0000
0110
0000
,  // measure 118
0000
0000
0010
0000
0100
0000
1000
0000
0100
0010
0001
0000
1000
0000
0100
0000
,  // measure 119
0020
0000
0000
0000
1030
0000
0100
0000
0010
0000
2000
0000
0001
0000
3001
0010
,  // measure 120
0100
1000
0001
0000
1000
0000
0100
0000
0010
0000
0000
0000
0100
0000
0010
0000
,  // measure 121
0001
0100
0010
0001
0100
0010
0000
0100
,  // measure 122
0110
0000
0000
0000
1000
0000
0100
0000
0001
1000
0001
0000
1000
0000
0001
0000
,  // measure 123
1000
0010
1000
0000
0100
0000
0010
0000
0100
0010
0100
0000
0000
0000
0100
1000
,  // measure 124
0100
1000
0100
0000
0100
0000
0100
0010
0100
0000
0010
0000
0001
0000
0100
0000
,  // measure 125
0010
0200
0300
0001
0100
0010
0000
0100
,  // measure 126
0110
0000
0000
0000
1000
0000
0100
0000
1000
0100
0010
0000
0100
0000
0001
0000
,  // measure 127
0100
0000
1000
0010
1000
0100
0010
1000
,  // measure 128
0010
1000
0020
0000
0000
0000
0130
0000
0200
0000
0000
0000
0300
0000
0001
0000
,  // measure 129
2000
0010
0001
0010
3001
0000
0100
0010
,  // measure 130
0100
1000
0100
0001
2002
3003
0100
0010
,  // measure 131
1010
0000
0020
0000
0230
0000
0300
1000
,  // measure 132
0100
2000
0000
0000
3001
0000
0000
0101
,  // measure 133
0020
0000
0000
0000
0000
0030
0000
0000
0000
0000
0000
0000
0000
0000
0000
0000
;

//---------------dance-single - ----------------
#NOTES:
     dance-single:
     :
     Medium:
     3:
     0.384,0.415,0.129,0.373,0.002,527.000,31.000,90.000,0.000,0.000,0.000,0.384,0.415,0.129,0.373,0.002,527.000,31.000,90.000,0.000,0.000,0.000:
0000
0000
0000
0000
0000
0000
0000
1000
,
0002
0000
0000
0000
0003
0000
0100
0010
,
0100
1000
0100
0010
0100
0000
0010
0100
,
0010
0100
0010
0000
,
0000
0200
0000
0300
0010
0000
0000
0100
,
0020
0000
0000
0000
0030
0000
0100
0010
,
0100
1000
0100
0010
0100
0000
0010
0100
,
0020
0000
0000
0000
0030
0000
0100
0010
,
0200
0000
0000
0000
0000
0000
0000
0310
,
0200
0000
0000
0000
0000
0300
1000
0001
,
0000
1000
0100
1000
0100
0000
0010
0100
,
0010
0000
1000
0000
0001
0000
0000
0100
,
0010
0002
0000
0000
0000
0000
0003
1000
,
0200
0000
0000
0000
0300
0000
0010
0100
,
0010
1000
0100
1000
0010
0000
0100
0010
,
2000
0000
3100
0000
0010
0000
0000
0001
,
2000
0000
3000
0100
0000
0010
0000
0220
,
0000
0330
0000
1000
0000
0010
0000
2020
,
0000
3030
0000
0100
0000
0001
0000
1000
,
0000
0100
0000
0010
0000
1000
0000
0100
,
0020
0000
0030
1000
0000
0100
0000
1000
,
0000
0001
0000
0010
0000
1000
0000
1000
,
0001
0000
0000
0010
0000
0100
0000
0010
,
0000
0100
0000
0010
0000
0001
0000
0100
,
0001
0000
0000
0010
0000
0100
0000
0010
,
0000
1000
0010
1010
0000
0100
0010
0220
,
0000
0000
0330
0001
0000
0010
0000
1000
,
0000
0100
0010
0110
0000
1000
0010
2000
,
0000
3000
1000
0001
0000
0200
0000
0310
,
0000
0100
0000
0010
0000
0100
0020
0000
,
0030
0100
0000
0010
0000
1000
0000
0100
,
0000
0001
0000
0100
0001
0000
0100
0010
,
0000
0002
0000
0000
0003
2000
0000
3000
,
0000
0100
0000
0010
0000
0100
0000
0110
,
0000
0001
0000
0010
0000
0001
0000
1000
,
0000
2002
0000
3003
0000
0100
0000
0010
,
0000
2020
0000
3000
0030
0200
0000
0300
,
0000
0010
0000
0100
0000
0001
0000
0010
,
0000
0100
0000
1000
0000
0100
0000
1000
,
0000
2002
0000
0000
3003
1000
0000
0100
,
0000
0010
0000
0100
0010
0000
1000
0000
,
0200
0000
0000
0000
0300
0010
0000
0100
,
0000
0001
1000
0100
0000
1000
0000
0010
,
0100
0000
0010
0000
0100
0000
0000
0001
,
0000
0020
0000
0130
0100
0000
0100
0000
,
0020
0000
0030
0100
0000
0010
0000
1000
,
0000
0001
1000
0001
1000
0100
0000
0010
,
0100
0000
1000
0100
0000
0001
0000
1000
,
0002
0000
0000
0000
0000
0003
0000
0100
,
0000
0010
1000
0100
1000
0010
0000
1000
,
0020
0000
0000
0000
0030
0100
0010
0100
,
1000
0000
0100
0010
0000
0001
0000
1000
,
0002
0000
0000
0000
0003
0000
0000
0100
,
0000
0100
0010
0100
1000
0100
0000
1000
,
0020
0000
0030
1000
,
2002
0000
0000
0000
0000
3003
0000
2000
,
0000
3000
1000
0010
1000
0010
1000
1010
,
0000
0000
0010
0100
0010
0100
0010
0101
,
0000
0000
0010
1000
0100
0010
0100
0010
,
0000
1000
0000
0001
0000
1000
0000
0100
,
0020
0030
1000
0001
1000
0010
1000
0001
,
1000
0001
0000
0101
0000
0010
0000
0100
,
0010
0000
0100
0001
0010
0100
0100
0010
,
0000
0011
0000
0100
0000
0010
0000
1000
,
0020
0000
0030
0100
0000
0010
0010
0110
,
0000
0001
0010
0101
0000
1000
0100
1100
,
0000
0000
0000
0000
0010
0000
0100
0000
0010
0000
0100
0000
0010
0100
0000
0000
,
0010
0100
0010
1000
0000
0001
1000
0001
,
0000
0000
0000
0010
0000
0100
0010
0000
,
0000
0101
0000
0010
0000
0100
1000
0000
,
0000
0100
0000
0010
0000
0100
0000
0010
,
0100
0000
1001
0000
0002
0000
0000
0003
,
0000
2000
0000
0000
3000
0002
0000
0003
,
0000
0100
0000
0010
0000
0100
0000
0110
,
0000
1000
0000
0100
0000
1000
0000
0001
,
0000
2002
0000
3003
0000
0100
0000
0010
,
0000
0002
0000
0000
0003
2000
0000
3000
,
0000
0100
0000
0010
0000
1000
0000
0010
,
0000
1010
0000
0100
0000
0001
0000
0100
,
0000
0202
0000
0000
0000
0000
0000
0303
,
0000
0100
0000
0010
1000
0000
0100
0000
,
0020
0000
0000
0030
0000
0100
0000
0010
,
0000
0001
1000
0001
1000
0001
0000
1000
,
0100
0000
0010
0000
0200
0000
0300
0010
,
0000
0100
0000
0100
0020
0030
1000
0000
,
0200
0000
0300
0000
0010
0100
0000
0001
,
0000
1000
0001
1000
0100
1000
0000
0010
,
0200
0300
0001
0010
0000
0100
0000
0001
,
2000
0000
0000
0000
3000
0000
0000
0100
,
0000
0010
0100
0001
0000
1000
0000
0001
,
2000
0000
0000
3000
0000
0100
0010
0100
,
0001
0000
0100
0010
0000
0001
0000
0100
,
0002
0000
0000
0000
0003
0000
0000
0200
,
0000
0310
0100
0010
0000
0100
0000
0001
,
0200
0000
0000
0000
0300
0000
0020
0030
,
0200
0000
0000
0000
0000
0300
0000
0010
,
0000
0200
0000
0300
2000
0000
3000
0010
,
0200
0000
0000
0000
0000
0300
0000
0000
,
0000
2000
0000
0000
0000
0000
0000
3000
,
0000
0002
0000
0000
0003
2000
0000
0000
,
3000
0002
0000
0000
0003
2000
0000
3001
,
0000
0200
0000
0000
0300
2000
0000
0001
,
3000
0002
0000
0000
0003
2000
0000
0000
,
3001
0002
0000
0000
0003
0200
0000
0300
,
0000
0010
0100
0010
0100
0100
0010
0110
,
0000
0000
0100
0001
0100
0001
0010
0101
,
0000
0000
0000
0100
0000
0010
0000
0100
,
0000
0110
0000
1000
0000
0010
0000
0100
,
0001
0000
0000
0100
0000
0010
0000
0100
,
0000
1000
0000
0110
0000
1000
0000
0100
,
0010
0000
0100
0010
2000
0000
0000
0000
,
3000
0100
0000
0010
0000
0100
0000
1000
,
0000
0001
0000
1000
0100
0000
0100
0000
,
0020
0000
0000
0030
0000
0100
0000
0010
,
0000
0100
0010
0100
1000
0100
1000
0001
,
0100
0000
0010
0000
0200
0000
0300
0001
,
0000
1000
0000
0100
0010
0000
1000
0000
,
0200
0000
0300
0010
0000
0100
0000
0110
,
0000
1000
0100
1000
0100
0001
0100
1000
,
0002
0003
1000
0010
0100
1000
0000
0010
,
0200
0000
0000
0000
0300
0000
0000
0020
,
0030
0100
0010
1000
0100
1000
0000
0001
,
2000
0000
0000
0000
3000
1001
0000
0000
,
0000
0110
0000
1000
0000
0100
0000
1000
,
0020
0000
0000
0000
0030
0000
0000
0100
,
0000
0010
0100
1000
0100
1000
0000
0100
,
2000
0000
0000
0000
0000
3000
0002
0003
,
2000
0000
0000
0000
0000
0000
3000
0100
,
0000
0020
0000
0000
1030
0000
0000
0100
,
0010
0000
0000
1000
0000
0000
0100
0010
,
0100
1000
0000
0000
0100
0000
0001
0100
,
1000
0100
0010
0110
,
0000
1000
0000
0000
0001
0000
0000
1000
,
0002
0003
0000
0000
;
