#VERSION:0.81;
#TITLE:We'll Take The World On;
#SUBTITLE:;
#ARTIST:2NE1 Ft Will.I.Am;
#TITLETRANSLIT:;
#SUBTITLETRANSLIT:;
#ARTISTTRANSLIT:;
#GENRE:;
#ORIGIN:;
#CREDIT:;
#BANNER:We'll Take The World On.png;
#BACKGROUND:We'll Take The World On-bg.png;
#PREVIEWVID:;
#JACKET:AlbumArtSmall.jpg;
#CDIMAGE:Folder.jpg;
#DISCIMAGE:;
#LYRICSPATH:;
#CDTITLE:;
#MUSIC:01. Take The World On.mp3;
#OFFSET:0.060000;
#SAMPLESTART:100.059998;
#SAMPLELENGTH:12.000000;
#SELECTABLE:YES;
#BPMS:0.000=127.000;
#STOPS:;
#DELAYS:;
#WARPS:;
#TIMESIGNATURES:0.000=4=4;
#TICKCOUNTS:0.000=4;
#COMBOS:0.000=1;
#SPEEDS:0.000=1.000=0.000=0;
#SCROLLS:0.000=1.000;
#FAKES:;
#LABELS:0.000=Song Start;
#BGCHANGES:;
#KEYSOUNDS:;
#ATTACKS:
;

//---------------dance-single - ----------------
#NOTEDATA:;
#CHARTNAME:;
#STEPSTYPE:dance-single;
#DESCRIPTION:;
#CHARTSTYLE:;
#DIFFICULTY:Hard;
#METER:6;
#RADARVALUES:0.472375,0.517776,0.207110,0.578480,0.353516,353.000000,29.000000,81.000000,20.000000,0.000000,1.000000,0.000000,0.000000,0.472375,0.517776,0.207110,0.578480,0.353516,353.000000,29.000000,81.000000,20.000000,0.000000,1.000000,0.000000,0.000000;
#CREDIT:;
#OFFSET:0.060000;
#BPMS:0.000000=126.999992
;
#STOPS:;
#DELAYS:;
#WARPS:;
#TIMESIGNATURES:0.000000=4=4
;
#TICKCOUNTS:0.000000=4
;
#COMBOS:0.000000=1
;
#SPEEDS:0.000000=1.000000=0.000000=0
;
#SCROLLS:0.000000=1.000000
,34.000000=0.000000
,35.500000=1.000000
,38.000000=0.000000
,40.000000=1.000000
,41.500000=0.000000
,43.500000=1.000000
,44.000000=0.000000
,45.000000=1.000000
,45.500000=0.000000
,47.500000=1.000000
,51.500000=0.500000
,52.000000=1.000000
,55.500000=0.500000
,56.000000=1.000000
,124.500000=0.000000
,124.750000=1.000000
,125.000000=0.000000
,125.250000=1.000000
,125.500000=0.000000
,125.750000=1.000000
,126.000000=0.000000
,126.250000=1.000000
;
#FAKES:;
#LABELS:0.000000=Song Start
;
#NOTES:
0000
0002
0000
0000
1003
0000
0000
1000
0000
0000
1010
0000
,
0000
0010
0000
0000
0110
0000
0000
0100
0000
0000
0101
0000
,
0000
0100
0000
0000
0100
0000
0000
0001
0000
0000
1001
0000
,
0000
0000
0000
0000
1000
0000
0000
0000
0000
0000
0000
0000
0000
0000
0000
0000
0001
0000
0000
0000
0000
0000
0000
0000
0000
0000
0000
0000
0001
0000
0000
0010
0000
0000
0100
0000
0000
0000
0000
0000
0001
0000
0000
0000
0000
0000
0000
0000
,
0000
0100
0000
0000
0010
0000
0000
1000
0000
0000
1010
0000
,
0000
1000
0000
0000
1001
0000
0000
1000
0000
0000
1010
0000
,
0000
0010
0000
0000
0110
0000
0000
0100
0000
0000
0101
0000
,
0000
0000
0000
0000
0001
0000
0000
0000
0000
0000
0000
0000
0000
0000
0000
0000
1001
0000
0000
0000
0000
0000
0001
0000
0000
0000
0000
0000
1000
0000
0000
0001
0000
0000
1000
0000
0000
0000
0000
0000
0002
0000
0000
0000
0000
0000
0000
0000
,
0003
2000
0000
0000
3001
0000
0000
0000
,
0100
0000
0020
0000
0000
0030
0000
0000
0110
0000
0000
0000
0000
0000
0000
0000
,
0000
1000
0000
1001
0000
0000
0000
0000
,
0100
0000
0000
0101
0000
0000
0000
0000
,
1000
0010
0100
0010
0100
0010
1000
0200
,
0300
1000
0100
2000
3000
0001
0100
0002
,
0000
0003
1000
0010
1010
0000
0010
0100
,
1000
0001
0100
0001
0100
1000
0100
2000
,
3000
0020
0030
1000
0100
1000
0100
1000
,
1100
0100
0010
0100
0010
0100
0010
2000
,
0000
3000
0001
1000
0001
1000
0110
1000
,
0110
0000
1000
0100
1000
0100
1000
0020
,
0000
0030
1000
0010
1000
0010
1010
0010
,
1010
0010
0100
0010
0100
1000
0100
2000
,
0000
3000
0001
1000
0001
1000
1001
1000
,
2002
3003
1000
0100
1000
0010
0100
0002
,
0003
2000
0000
0000
3000
0020
0000
0000
,
0230
0000
0300
0010
0100
0000
0001
0010
,
0001
0200
0000
0000
0300
0020
0000
0000
,
2030
0000
3000
0100
0010
0100
0000
1000
,
0100
0020
0000
0000
0000
0030
1000
0100
,
2000
3000
0002
0000
0000
0000
0003
0010
,
0001
0020
0000
0001
0000
0001
0000
0031
,
0000
0000
0001
0000
1000
0000
0001
0000
1000
0000
0001
1000
0001
2000
0000
0000
,
3000
0000
0000
1000
0010
1000
0000
0010
0100
0010
0000
0100
0020
0000
0000
0130
,
0000
0000
0000
1000
0010
1000
0000
0010
0100
0010
0000
0100
0020
0000
0000
0130
,
0000
0000
0000
0001
0100
0001
0000
0100
0010
0100
0000
0010
0200
0000
0000
0310
,
0000
0000
0000
0010
0001
0010
0000
0001
1000
0001
0000
1000
0002
0000
0000
1003
,
0000
0000
0000
1000
0010
1000
0000
0010
0100
0010
0000
0100
0020
0000
0000
0130
,
0000
0000
0000
0100
1000
0100
0000
1000
0001
1000
0000
0001
2000
0000
0000
3001
,
0000
0000
0000
0010
0001
0010
0000
0001
1000
0001
0000
1000
0002
0000
0000
1003
,
0000
0010
0100
1000
0100
0010
0100
0002
,
0000
2003
0000
0000
3000
0001
0000
0001
,
1000
0000
1001
0001
1000
0100
1000
0010
,
0000
0020
0000
0000
0000
2030
0000
3100
,
0020
0000
0000
0030
0100
0010
0100
0110
,
0000
0200
0000
0000
0300
0002
0000
1003
,
0020
0000
0000
0030
1000
0200
0000
0320
,
0000
2030
0000
0000
3000
0002
0000
1003
,
0020
0000
0000
0030
0100
0010
0100
1000
,
0000
0002
M000
1003
0000
0200
00M0
0310
,
0000
2000
0M00
3100
0000
0002
0M00
0103
,
0000
0200
0000
0000
000M
0301
0100
0001
,
0200
0000
0000
0300
0010
0100
0010
0110
,
0000
2000
000M
3001
0000
0002
M000
1003
,
0000
0020
0M00
0130
0000
0200
00M0
0310
,
0000
2000
0000
0000
0000
3000
0001
0010
,
0002
0000
0000
0003
0100
0010
0100
1000
,
0000
0000
0000
1000
0010
1000
0000
0010
0100
0010
0000
0100
0020
0000
0000
0130
,
0000
0000
0000
0001
0100
0001
0000
0100
0010
0100
0000
0010
0200
0000
0000
0310
,
0000
0000
0000
0010
0001
0010
0000
0001
1000
0001
0000
1000
0002
0000
0000
1003
,
0000
0001
0000
1000
0000
0001
2000
0000
,
3000
0100
0010
0000
0210
0000
0000
0000
,
0300
1020
0000
0030
0210
0000
0000
0000
,
0300
2100
0000
0000
0000
0000
0000
3000
,
1002
0000
0000
0000
0003
1000
0000
1000
,
0000
0020
0000
0000
2000
0000
0030
0000
,
0000
3002
0000
0000
0200
0003
0000
0000
,
0000
0320
0000
0000
0000
2030
0000
0000
,
3000
0200
0000
0000
0000
0320
0000
0000
,
0030
2000
0000
0000
3002
0000
0000
0000
,
0000
0203
0000
0000
0320
0000
0000
0000
,
0000
2030
0000
0002
3000
0000
0000
0000
,
0000
4003
000M
00M0
0M00
00M0
000M
00M0
,
0M00
00M0
000M
00M0
3M00
0000
0000
0000
;

//---------------dance-single - ----------------
#NOTEDATA:;
#CHARTNAME:;
#STEPSTYPE:dance-single;
#DESCRIPTION:;
#CHARTSTYLE:;
#DIFFICULTY:Medium;
#METER:4;
#RADARVALUES:0.278528,0.309059,0.064276,0.457071,0.057134,200.000000,9.000000,64.000000,0.000000,0.000000,1.000000,0.000000,0.000000,0.278528,0.309059,0.064276,0.457071,0.057134,200.000000,9.000000,64.000000,0.000000,0.000000,1.000000,0.000000,0.000000;
#CREDIT:;
#NOTES:
0000
0000
0000
0000
0000
0000
0000
0000
0000
0000
2000
0000
,
0000
3000
0000
0000
0002
0000
0000
0003
0000
0000
0200
0000
,
0000
0300
0000
0000
0020
0000
0000
0030
0000
0000
2000
0000
,
0000
3000
0000
0000
0200
0000
0000
0300
0000
0000
0020
0000
,
0000
0030
0000
0000
0200
0000
0000
0300
0000
0000
0002
0000
,
0000
0003
0000
0000
2000
0000
0000
3000
0000
0000
0200
0000
,
0000
0300
0000
0000
2000
0000
0000
3000
0000
0000
0200
0000
,
0000
0300
0000
0000
0020
0000
0000
0030
0000
0000
0002
0000
,
0003
0011
0000
0000
0000
0000
0010
0000
0000
0000
0000
0000
,
0010
0200
0000
0000
0310
0000
0000
0000
,
0000
1000
0000
1001
0000
0000
0000
0000
,
0200
0000
0000
0310
0000
0000
0000
0000
,
0001
2000
0000
3000
1001
0000
0001
0000
,
1000
0020
0000
0000
1030
0000
0000
0000
,
0000
0100
0000
0220
0000
0330
0000
0000
,
0020
0000
0000
0130
0000
0000
0000
0000
,
0000
1000
0000
0001
0010
0001
0010
0001
,
0010
0000
0000
0001
0000
1000
0100
2000
,
0000
3000
0000
0010
0000
0100
0010
0100
,
0010
0000
0100
0001
0000
0100
0001
0200
,
0000
0300
0001
0010
0000
0001
1000
0001
,
1000
0000
0010
1000
0000
0010
0100
2000
,
0000
3000
0000
0010
0000
1000
0100
0010
,
0001
0000
0000
1000
0000
0100
0010
1000
,
0000
0002
0000
0000
0003
2000
0000
0000
,
3020
0000
0000
0000
0000
0030
0000
0000
,
0000
0200
0000
0300
0000
0020
0000
0030
,
2000
0000
0000
0000
3000
0000
0000
0100
,
0010
0200
0000
0300
0000
0000
0000
0000
,
0100
0110
0000
0000
,
0000
1000
0000
0001
0000
1000
0000
0001
,
0000
1000
0001
4000
0000
0000
0000
3000
,
0000
0100
0000
0010
0000
1000
0000
1100
,
0000
0001
0000
0100
0000
0001
0000
1000
,
0000
0100
0000
1000
0000
0010
0000
1000
,
0000
0100
0000
1000
0000
0010
0000
0100
,
0000
0001
0000
0100
0000
1000
0000
0100
,
0000
1000
0000
0001
0000
1000
0000
0001
,
0000
1000
0000
0100
0000
1000
0000
0001
,
0000
0010
0100
0010
0000
0100
0010
0100
,
0000
2000
0000
0000
3000
0100
0000
0010
,
0200
0000
0000
0300
0001
1000
0000
0100
,
0000
0020
0000
0000
0030
1000
0000
0100
,
0020
0000
0000
0030
0000
0100
0000
0110
,
0000
1000
0000
0000
0000
0010
0000
0100
,
0020
0000
0030
0000
0000
1000
0000
0100
,
0000
0002
0000
0000
0003
1000
0000
0100
,
2000
0000
0000
3000
0000
0100
0000
0010
,
0000
0002
0000
0003
0000
2000
0000
3000
,
0000
0020
0000
0030
0000
0200
0000
0300
,
0000
0020
0000
0000
0000
0030
0100
0010
,
0200
0000
0300
0000
0000
0010
0000
0100
,
0000
2000
0000
3000
0000
0200
0000
0000
,
0300
0020
0000
0000
0030
0002
0000
0000
,
0003
2000
0000
0000
0000
3000
0010
0100
,
0020
0000
0030
0000
0000
1000
0001
1000
,
0000
0002
0000
0000
1003
0000
0000
0000
,
0000
0200
0000
0000
0310
0000
0000
0000
,
0000
2000
0000
0000
3100
0000
0000
0000
,
0000
0001
0000
0000
0000
1000
0000
0000
,
0000
0200
0000
0000
0310
0000
0000
0000
,
0000
0020
0000
0000
0130
0000
0000
0000
,
0000
1001
0000
0000
0000
0000
0000
0000
,
0110
0000
0000
0000
,
0000
0001
0000
0000
2000
0000
0000
3000
,
0000
0100
0000
0000
0020
0000
0000
0030
,
0000
2000
0000
0000
0000
0000
0000
3000
,
0000
0002
0000
0000
0000
0000
0003
0000
,
0000
0100
0000
0000
0020
0000
0000
0030
,
0000
0000
1000
0000
0000
0020
0000
0030
,
0000
2000
0000
0000
0000
0000
0000
0000
,
3000
0002
0000
0000
0000
0000
0000
0000
,
0000
0003
0000
0000
0000
0000
0000
0000
;

//---------------pump-single - ----------------
#NOTEDATA:;
#CHARTNAME:;
#STEPSTYPE:pump-single;
#DESCRIPTION:;
#CHARTSTYLE:;
#DIFFICULTY:Hard;
#METER:6;
#RADARVALUES:0.473395,0.517776,0.207110,0.578480,0.353516,353.000000,29.000000,81.000000,20.000000,1.000000,1.000000,0.000000,0.000000,0.473395,0.517776,0.207110,0.578480,0.353516,353.000000,29.000000,81.000000,20.000000,1.000000,1.000000,0.000000,0.000000;
#CREDIT:;
#OFFSET:0.060000;
#BPMS:0.000000=126.999992
;
#STOPS:;
#DELAYS:;
#WARPS:;
#TIMESIGNATURES:0.000000=4=4
;
#TICKCOUNTS:0.000000=4
;
#COMBOS:0.000000=1
;
#SPEEDS:0.000000=1.000000=0.000000=0
;
#SCROLLS:0.000000=1.000000
,34.000000=0.000000
,35.500000=1.000000
,38.000000=0.000000
,40.000000=1.000000
,41.500000=0.000000
,43.500000=1.000000
,44.000000=0.000000
,45.000000=1.000000
,45.500000=0.000000
,47.500000=1.000000
,51.500000=0.500000
,52.000000=1.000000
,55.500000=0.500000
,56.000000=1.000000
,124.500000=0.000000
,124.750000=1.000000
,125.000000=0.000000
,125.250000=1.000000
,125.500000=0.000000
,125.750000=1.000000
,126.000000=0.000000
,126.250000=1.000000
;
#FAKES:;
#LABELS:0.000000=Song Start
;
#NOTES:
00000
00020
00000
00000
10030
00000
00000
10000
00000
00000
10100
00000
,
00000
00100
00000
00000
01100
00000
00000
01000
00000
00000
01010
00000
,
00000
01000
00000
00000
01000
00000
00000
00010
00000
00000
10010
00000
,
00000
00000
00000
00000
10000
00000
00000
00000
00000
00000
00000
00000
00000
00000
00000
00000
00010
00000
00000
00000
00000
00000
00000
00000
00000
00000
00000
00000
00010
00000
00000
00100
00000
00000
01000
00000
00000
00000
00000
00000
00010
00000
00000
00000
00000
00000
00000
00000
,
00000
00100
00000
00000
00010
00000
00000
01000
00000
00000
01010
00000
,
00000
01000
00000
00000
01001
00000
00000
01000
00000
00000
01010
00000
,
00000
00010
00000
00000
00110
00000
00000
00100
00000
00000
00101
00000
,
00000
00000
00000
00000
00001
00000
00000
00000
00000
00000
00000
00000
00000
00000
00000
00000
01001
00000
00000
00000
00000
00000
00001
00000
00000
00000
00000
00000
01000
00000
00000
00001
00000
00000
01000
00000
00000
00000
00000
00000
00002
00000
00000
00000
00000
00000
00000
00000
,
00003
20000
00000
00000
30010
00000
00000
00000
,
01000
00000
00200
00000
00000
00300
00000
00000
01100
00000
00000
00000
00000
00000
00000
00000
,
00000
10000
00000
10010
00000
00000
00000
00000
,
01000
00000
00000
01110
00000
00000
00000
00000
,
01000
00010
00100
00010
00100
00010
01000
00200
,
00300
01000
00100
02000
03000
00001
00100
00002
,
00000
00003
01000
00010
01010
00000
00010
10000
,
00100
10000
00001
00100
00010
00001
00100
20000
,
30000
00200
00300
10000
01000
10000
01000
10000
,
11000
01000
00100
01000
00010
00100
00010
20000
,
00000
30000
00010
10000
00010
10000
00110
10000
,
00110
00000
10000
01000
10000
01000
10000
00200
,
00000
00300
01000
00010
01000
00010
01010
00010
,
01010
00010
00100
00010
00100
01000
00100
02000
,
00000
03000
00001
01000
00001
01000
01001
01000
,
02002
03003
01000
00100
01000
00010
00100
00002
,
00003
20000
00000
00000
30000
00200
00000
00000
,
02300
00000
03000
00100
01000
00000
00010
00100
,
00010
02000
00000
00000
03000
00200
00000
00000
,
20300
00000
30000
01000
00100
01000
00000
10000
,
00100
00020
00000
00000
00000
00030
01000
00100
,
02000
03000
00002
00000
00000
00000
00003
00010
,
00001
00020
00000
00001
00000
00001
00000
00031
,
00000
00000
00001
00000
01000
00000
00001
00000
01000
00000
00001
01000
00001
02000
00000
00000
,
03000
00000
00000
10000
00100
10000
00000
00100
01000
00100
00000
01000
00200
00000
00000
01300
,
00000
00000
00000
10000
00100
10000
00000
00100
01000
00100
00000
01000
00200
00000
00000
01300
,
00000
00000
00000
00010
01000
00010
00000
01000
00100
01000
00000
00100
02000
00000
00000
03100
,
00000
00000
00000
00100
00010
00100
00000
00010
10000
00010
00000
10000
00020
00000
00000
10030
,
00000
00000
00000
01000
00010
01000
00000
00010
00100
00010
00000
00100
00020
00000
00000
00130
,
00000
00000
00000
00100
01000
00100
00000
01000
00001
01000
00000
00001
02000
00000
00000
03001
,
00000
00000
00000
00010
00001
00010
00000
00001
01000
00001
00000
01000
00002
00000
00000
01003
,
00000
00010
00100
01000
00100
00010
00100
00002
,
00000
02003
00000
00000
03000
00001
00000
00001
,
10000
00000
10010
00010
10000
01000
10000
00100
,
00000
00200
00000
00000
00000
20300
00000
31000
,
00200
00000
00000
00300
01000
00100
01000
01100
,
00000
02000
00000
00000
03000
00020
00000
10030
,
00020
00000
00000
00030
01000
00200
00000
00320
,
00000
02030
00000
00000
03000
00002
00000
01003
,
00020
00000
00000
00030
00100
00010
00100
01000
,
00000
00002
0M000
01003
00000
00200
000M0
00310
,
00000
20000
0M000
31000
00000
00020
0M000
01030
,
00000
02000
00000
00000
000M0
03010
01000
00010
,
02000
00000
00000
03000
00100
01000
00100
01100
,
00000
20000
000M0
30010
00000
00020
M0000
10030
,
00000
00020
00M00
00130
00000
00200
000M0
00310
,
00000
02000
00000
00000
00000
03000
00001
00010
,
00002
00000
00000
00003
00100
00010
00100
01000
,
00000
00000
00000
01000
00010
01000
00000
00010
00100
00010
00000
00100
00020
00000
00000
00130
,
00000
00000
00000
00010
01000
00010
00000
01000
00100
01000
00000
00100
02000
00000
00000
03100
,
00000
00000
00000
00100
00010
00100
00000
00010
10000
00010
00000
10000
00020
00000
00000
10030
,
00000
00010
00000
10000
00000
00010
20000
00000
,
30000
01000
00100
00000
02100
00000
00000
00000
,
03000
01020
00000
00030
00210
00000
00000
00000
,
00300
02100
00000
00000
00000
00000
00000
03000
,
01002
00000
00000
00000
00003
01000
00000
01000
,
00000
00020
00000
00000
02000
00000
00030
00000
,
00000
03002
00000
00000
00200
00003
00000
00000
,
00000
00320
00000
00000
00000
02030
00000
00000
,
03000
02000
00000
00000
00000
03200
00000
00000
,
00300
20000
00000
00000
30020
00000
00000
00000
,
00000
02030
00000
00000
03200
00000
00000
00000
,
00000
20300
00000
00020
30000
00000
00000
00000
,
00000
40030
000M0
00M00
0M000
00M00
000M0
00M00
,
0M000
00M00
000M0
00M00
3M000
00000
00000
00000
;

//---------------pump-single - ----------------
#NOTEDATA:;
#CHARTNAME:;
#STEPSTYPE:pump-single;
#DESCRIPTION:;
#CHARTSTYLE:;
#DIFFICULTY:Medium;
#METER:3;
#RADARVALUES:0.225475,0.231794,0.042850,0.264244,0.057134,178.000000,6.000000,37.000000,0.000000,0.000000,1.000000,0.000000,0.000000,0.225475,0.231794,0.042850,0.264244,0.057134,178.000000,6.000000,37.000000,0.000000,0.000000,1.000000,0.000000,0.000000;
#CREDIT:;
#NOTES:
00000
00000
00000
00000
00000
00000
00000
00000
00000
00000
10000
00000
,
00000
00000
00000
00000
00010
00000
00000
00000
00000
00000
00000
01000
,
00000
00000
00000
00000
00100
00000
00000
00000
00000
00000
10000
00000
,
00000
00000
00000
00000
01000
00000
00000
00000
00000
00000
00100
00000
,
00000
00000
00000
00000
00100
00000
00000
00000
00000
00000
00001
00000
,
00000
00000
00000
00000
01000
00000
00000
00000
00000
00000
00010
00000
,
00000
00000
00000
00000
01000
00000
00000
00000
00000
00000
00100
00000
,
00000
00000
00000
00000
00010
00000
00000
00000
00000
00000
00100
00000
,
00000
01100
00000
00000
00000
00000
00100
00000
00000
00000
00000
00000
,
00100
01000
00000
00000
00100
00000
00000
00000
,
00000
10000
00000
10010
00000
00000
00000
00000
,
02000
00000
00000
03100
00000
00000
00000
00000
,
00001
01000
00000
00000
00001
00000
00000
00000
,
01000
00010
00000
00000
00010
00000
00000
00000
,
00000
00100
00000
00110
00000
00000
00000
00000
,
00010
00000
00000
00100
00000
00000
00000
00000
,
00000
10000
00000
00010
00000
10000
00000
00020
,
00000
00030
00000
10000
00000
01000
00000
20000
,
00000
30000
00000
00100
00000
01000
00000
00200
,
00000
00300
00000
01000
00000
00100
00000
02000
,
00000
03000
00000
00001
00000
01000
00000
00002
,
00000
00003
00000
01000
00000
00100
00000
02000
,
00000
03000
00000
00010
00000
01000
00000
00020
,
00000
00030
00000
01000
00000
00100
00000
01000
,
00000
00020
00000
00000
00030
20000
00000
00000
,
30200
00000
00000
00000
00000
00300
00000
00000
,
00000
01000
00000
00000
00000
00100
00000
00000
,
20000
00000
00000
00000
30000
00000
00000
01000
,
00000
00010
00000
00000
00000
00000
00000
00000
,
00100
00010
00000
00000
,
00000
01000
00000
00001
00000
01000
00000
00001
,
00000
01000
00001
04000
00000
00000
00000
03000
,
00000
01000
00000
00100
00000
10000
00000
11000
,
00000
00010
00000
01000
00000
00010
00000
10000
,
00000
01000
00000
10000
00000
00100
00000
10000
,
00000
01000
00000
10000
00000
00100
00000
01000
,
00000
00001
00000
00100
00000
01000
00000
00100
,
00000
01000
00000
00001
00000
01000
00000
00001
,
00000
01000
00000
00100
00000
01000
00000
00001
,
00000
00010
00000
00000
00000
00100
00000
00000
,
00000
20000
00000
00000
30000
01000
00000
00100
,
01000
00000
00000
00000
00010
10000
00000
01000
,
00000
00200
00000
00000
00300
10000
00000
01000
,
00100
00000
00000
00000
00000
01000
00000
01100
,
00000
01000
00000
00000
00000
00010
00000
00100
,
00020
00000
00030
00000
00000
01000
00000
00100
,
00000
00002
00000
00000
00003
01000
00000
00100
,
02000
00000
00000
03000
00000
00100
00000
00010
,
00000
00020
00000
00030
00000
20000
00000
30000
,
00000
00200
00000
00300
00000
02000
00000
03000
,
00000
00200
00000
00000
00000
00300
01000
00100
,
01000
00000
00000
00000
00000
10000
00000
00010
,
00000
02000
00000
03000
00000
00200
00000
00000
,
00300
00020
00000
00000
00030
00002
00000
00000
,
00003
02000
00000
00000
00000
03000
00010
00100
,
00010
00000
00000
00000
00000
01000
00001
01000
,
00000
00010
00000
00000
10000
00000
00000
00000
,
00000
01000
00000
00000
00100
00000
00000
00000
,
00000
10000
00000
00000
01000
00000
00000
00000
,
00000
00010
00000
00000
00000
10000
00000
00000
,
00000
00200
00000
00000
00310
00000
00000
00000
,
00000
00020
00000
00000
00130
00000
00000
00000
,
00000
00001
00000
00000
00000
00000
00000
00000
,
01001
00000
00000
00000
,
00000
00010
00000
00000
20000
00000
00000
30000
,
00000
01000
00000
00000
00200
00000
00000
00300
,
00000
20000
00000
00000
00000
00000
00000
30000
,
00000
00020
00000
00000
00000
00000
00030
00000
,
00000
00100
00000
00000
00020
00000
00000
00030
,
00000
00000
01000
00000
00000
00020
00000
00030
,
00000
02000
00000
00000
00000
00000
00000
00000
,
03000
00002
00000
00000
00000
00000
00000
00000
,
00000
00003
00000
00000
00000
00000
00000
00000
;

//---------------dance-single - ----------------
#NOTEDATA:;
#CHARTNAME:;
#STEPSTYPE:dance-single;
#DESCRIPTION:;
#CHARTSTYLE:;
#DIFFICULTY:Easy;
#METER:3;
#RADARVALUES:0.162219,0.206753,0.021425,0.171402,0.057134,132.000000,3.000000,24.000000,0.000000,0.000000,0.000000,0.000000,0.000000,0.162219,0.206753,0.021425,0.171402,0.057134,132.000000,3.000000,24.000000,0.000000,0.000000,0.000000,0.000000,0.000000;
#CREDIT:;
#NOTES:
0000
0000
0000
0000
0000
0000
0000
0000
0000
0000
1000
0000
,
0000
0000
0000
0000
0001
0000
0000
0000
0000
0000
0100
0000
,
0000
0000
0000
0000
0010
0000
0000
0000
0000
0000
1000
0000
,
0000
0000
0000
0000
0100
0000
0000
0000
0000
0000
0010
0000
,
0000
0000
0000
0000
0100
0000
0000
0000
0000
0000
0001
0000
,
0000
0000
0000
0000
1000
0000
0000
0000
0000
0000
0010
0000
,
0000
0000
0000
0000
1000
0000
0000
0000
0000
0000
0100
0000
,
0000
0000
0000
0000
0010
0000
0000
0000
0000
0000
0100
0000
,
0000
0010
0000
0000
0000
0000
0010
0000
0000
0000
0000
0000
,
0010
0000
0100
0000
,
0000
1000
0000
0001
0000
0000
0000
0000
,
0100
0000
0000
0010
0000
0000
0000
0000
,
0000
0000
0001
0000
,
0000
0000
1000
0000
,
0000
0100
0000
0010
0000
0000
0000
0000
,
0010
0000
0000
0100
0000
0000
0000
0000
,
0000
1000
0000
0001
0000
1000
0000
0001
,
0000
0000
0000
1000
0000
0100
0000
1000
,
0000
0000
0000
0010
0000
0100
0000
0010
,
0000
0000
0000
0100
0000
0010
0000
0100
,
0000
0000
0000
0001
0000
0100
0000
0001
,
0000
0000
0000
1000
0000
0100
0000
1000
,
0000
0000
0000
0010
0000
1000
0000
0010
,
0000
0000
0000
1000
0000
0001
0000
0000
,
0000
0010
0000
0000
0000
0001
0000
0000
,
0010
0000
0000
0000
,
0000
0100
0000
0000
0000
0010
0000
0000
,
0100
0000
0000
0000
0000
0000
0000
0100
,
0000
0010
0000
0000
0000
0000
0000
0000
,
0100
0010
0000
0000
,
0000
1000
0000
0001
0000
1000
0000
0001
,
0000
1000
0000
0000
0000
0002
0000
0000
,
0003
0100
0000
0010
0000
0100
0000
0000
,
0000
0001
0000
0100
0000
0001
0000
0000
,
0000
0100
0000
0010
0000
0100
0000
0000
,
0000
1000
0000
0010
0000
1000
0000
0000
,
0000
0001
0000
0100
0000
1000
0000
0000
,
0000
1000
0000
0100
0000
0001
0000
0000
,
0000
1000
0000
0100
0000
1000
0000
0000
,
0000
0010
0000
0000
0000
0100
0000
0000
,
0000
0020
0000
0030
0000
0100
0000
0000
,
0000
0000
0000
0000
0000
1001
0000
0000
,
0000
2000
0000
0000
3000
0000
0000
0000
,
0000
0001
0000
0000
0000
0100
0000
0010
,
0000
0000
0000
0000
0000
0100
0000
0000
,
0010
0000
0000
0000
,
0000
0002
0000
0000
0000
1003
0000
0000
,
0001
0000
0000
0000
,
0000
0002
0000
0003
0000
2000
0000
3000
,
0000
0020
0000
0030
0000
0200
0000
0300
,
0000
0020
0000
0000
0000
0030
0000
0000
,
0000
0000
0000
0000
,
0000
2000
0000
3000
0000
0200
0000
0300
,
0000
2000
0000
3000
0000
0002
0000
0003
,
0000
2000
0000
3000
0000
0000
0000
0000
,
0000
0000
0000
0000
0000
0000
0000
0110
,
0000
0000
0100
0000
,
0000
0000
0010
0000
,
0000
0000
0100
0000
,
0000
0000
0000
0000
,
0000
0200
0000
0000
0300
0000
0000
0000
,
0000
0020
0000
0000
0030
0000
0000
0000
,
0000
0001
0000
0000
0000
0000
0000
0000
,
1001
0000
0000
0000
,
0000
0000
0000
0000
2000
0000
0000
3000
,
0000
0000
0000
0000
0020
0000
0000
0030
,
0000
2000
0000
0000
0000
0000
0000
3000
,
0000
0002
0000
0000
0000
0000
0003
0000
,
0000
0100
0000
0000
0020
0000
0000
0030
,
0000
0000
1000
0000
0000
0020
0000
0030
,
0000
2000
0000
0000
0000
0000
0000
0000
,
3000
0020
0000
0000
0000
0000
0000
0000
,
0000
0000
0000
0030
0000
0000
0000
0000
;

//---------------dance-single - ----------------
#NOTEDATA:;
#CHARTNAME:;
#STEPSTYPE:dance-single;
#DESCRIPTION:;
#CHARTSTYLE:;
#DIFFICULTY:Challenge;
#METER:8;
#RADARVALUES:0.612149,0.672528,0.342803,0.778449,0.564197,443.000000,48.000000,109.000000,65.000000,1.000000,2.000000,0.000000,0.000000,0.612149,0.672528,0.342803,0.778449,0.564197,443.000000,48.000000,109.000000,65.000000,1.000000,2.000000,0.000000,0.000000;
#CREDIT:;
#OFFSET:0.060000;
#BPMS:0.000000=126.999992
;
#STOPS:;
#DELAYS:;
#WARPS:;
#TIMESIGNATURES:0.000000=4=4
;
#TICKCOUNTS:0.000000=4
;
#COMBOS:0.000000=1
;
#SPEEDS:0.000000=1.000000=0.000000=0
;
#SCROLLS:0.000000=1.000000
,0.333333=1.500000
,0.833333=1.000000
,34.000000=0.000000
,35.500000=1.000000
,38.000000=0.000000
,40.000000=1.000000
,41.500000=0.000000
,43.500000=1.000000
,44.000000=0.000000
,45.000000=1.000000
,45.500000=0.000000
,47.500000=1.000000
,51.500000=0.500000
,52.000000=1.000000
,55.500000=0.500000
,56.000000=1.000000
,68.000000=0.000000
,68.750000=1.000000
,74.500000=0.000000
,74.750000=1.000000
,75.000000=0.000000
,75.250000=1.000000
,75.500000=0.000000
,75.750000=1.000000
,79.500000=0.500000
,80.250000=1.000000
,83.000000=0.000000
,83.250000=1.000000
,83.500000=0.000000
,83.750000=1.000000
,84.000000=0.000000
,84.750000=1.000000
,124.500000=0.000000
,124.750000=1.000000
,125.000000=0.000000
,125.250000=1.000000
,125.500000=0.000000
,125.750000=1.000000
,126.000000=0.000000
,126.250000=1.000000
;
#FAKES:;
#LABELS:0.000000=Song Start
;
#NOTES:
// measure 0
0000
0002
0000
0000
1003
0000
0000
2000
3000
0000
1010
0000
,  // measure 1
0000
0020
0030
0000
0110
0000
0000
0200
0300
0000
0101
0000
,  // measure 2
0000
0000
0001
0100
0000
0000
0000
0000
0101
0000
0000
0000
0000
0000
0001
0000
0000
0000
0000
0000
1001
0000
0000
0000
,  // measure 3
0000
0000
0000
0000
1000
0000
0000
0000
0000
0000
0000
0000
0000
0000
0000
0000
0001
0000
0000
0000
0000
0000
1000
0000
0000
0000
0000
0000
0001
0000
0000
0010
0000
0000
0100
0000
0000
0000
0000
0000
0002
0000
0000
0000
0000
0000
0003
0000
,  // measure 4
0000
0000
0100
0001
0000
0000
0000
0000
0101
0000
0000
0000
0000
0000
1000
0000
0000
0000
0000
0000
1010
0000
0000
0000
,  // measure 5
0000
1000
0000
0000
1001
0000
0000
1000
0000
0000
1010
0000
,  // measure 6
0000
0000
0010
0100
0000
0000
0000
0000
0110
0000
0000
0000
0000
0000
0100
0000
0000
0000
0000
0000
0101
0000
0000
0000
,  // measure 7
0000
0000
0000
0000
0001
0000
0000
0000
0000
0000
0000
0000
0000
0000
0000
0000
1001
0000
0000
0000
0000
0000
0001
0000
0000
0000
0000
0000
1000
0000
0000
0001
0000
0000
1000
0000
0000
0000
0000
0000
0002
0000
0000
0000
0000
0000
0000
0000
,  // measure 8
0003
2000
0000
0000
3001
0000
0000
0000
,  // measure 9
0100
0000
0020
0000
0000
0030
0000
0000
0110
0000
0000
0000
0000
0000
0000
0000
,  // measure 10
0000
2000
3000
1001
0000
0000
0000
0000
,  // measure 11
0100
0000
0000
0101
0000
0000
0000
0000
,  // measure 12
1000
0010
0100
0010
0100
0010
1000
0200
,  // measure 13
0300
1000
0100
2000
3000
0001
0100
0002
,  // measure 14
0000
0003
1000
0010
1010
0000
0010
0100
,  // measure 15
0010
0001
0100
0001
0100
1000
0100
2000
,  // measure 16
3000
2020
3030
1000
0100
1000
0100
1000
,  // measure 17
1100
0000
0010
0100
0010
0100
0010
0220
,  // measure 18
0000
0330
0001
1000
0001
1000
1100
1000
,  // measure 19
2200
3300
1000
0010
0100
0001
0100
0220
,  // measure 20
0000
0330
1000
0010
1000
0010
0110
0010
,  // measure 21
0110
0000
0100
0010
0100
1000
0100
2200
,  // measure 22
0000
3300
0001
1000
0001
1000
0011
1000
,  // measure 23
0022
0033
1000
0100
1000
0010
0100
0002
,  // measure 24
0003
2000
0000
0020
3030
0020
0000
0100
,  // measure 25
0230
0000
0300
0010
0100
0000
0001
0010
,  // measure 26
0001
0200
0000
0020
0330
0020
0000
1000
,  // measure 27
2030
0000
3000
0100
0010
0110
0000
0100
,  // measure 28
0001
0200
0000
0002
0000
0303
0001
0010
,  // measure 29
0002
0003
2000
0000
0000
0020
3030
0010
,  // measure 30
1000
0200
0000
1000
0000
1000
0000
1300
,  // measure 31
0000
0000
1000
0000
0001
0000
1000
0000
0001
0000
1000
0001
1000
0002
0000
0000
,  // measure 32
0003
0000
0000
0001
0100
0001
0000
0100
0010
0100
0000
0010
0200
0000
0000
0310
,  // measure 33
0000
0000
0000
0001
0100
0001
0000
0100
0010
0100
0000
0010
0200
0000
0000
0310
,  // measure 34
0000
0000
0000
1000
0010
1000
0000
0010
0100
0010
0000
0100
0020
0000
0000
0130
,  // measure 35
0000
0000
0000
0100
1000
0100
0000
1000
0001
1000
0000
0001
2000
0000
0000
3001
,  // measure 36
0000
0000
0000
0001
0100
0001
0000
0100
0010
0100
0000
0010
0200
0000
0000
0310
,  // measure 37
0000
0000
0000
0010
0001
0010
0000
0001
1000
0001
0000
1000
0002
0000
0000
1003
,  // measure 38
0000
0000
0000
0100
1000
0100
0000
1000
0001
1000
0000
0001
2000
0000
0000
3001
,  // measure 39
0000
0110
0011
0110
1100
1001
0001
0200
,  // measure 40
0000
0300
0002
1000
0100
1000
0000
0010
0103
0010
0000
0100
0020
0000
0000
0000
,  // measure 41
0130
0000
0000
0001
0100
0001
0000
1000
0010
0100
0000
0010
0200
0000
0000
0000
,  // measure 42
0310
0000
0200
0001
0010
0001
0000
0010
0001
0010
0300
0001
0020
0000
0000
0000
,  // measure 43
0230
0000
0000
0300
0010
0100
0010
0110
,  // measure 44
0000
0000
0020
1000
0100
1000
0000
0100
1030
0100
0000
1000
0002
0000
1000
0000
,  // measure 45
0203
0000
0000
0001
0010
0001
0300
0010
0001
0100
0020
1000
0100
0000
0230
0000
,  // measure 46
0010
0000
0302
0010
0100
0010
0000
1000
0013
0100
2000
0010
0100
0000
3001
0000
,  // measure 47
0200
0010
0001
0310
0100
0010
0001
0010
,  // measure 48
0000
0000
2000
3001
0100
0001
0000
0100
0010
0100
0000
0010
0200
0000
0000
0310
,  // measure 49
0000
0000
0002
1003
0010
1000
0000
0010
0100
0010
0000
0100
0020
0000
0000
0130
,  // measure 50
0000
0020
0000
0000
M000
1030
0010
1000
,  // measure 51
2020
0000
0000
3030
1000
0010
0100
0110
,  // measure 52
0000
0000
0002
1003
0010
1000
0000
0010
0100
0010
0000
0100
0020
0000
0000
0130
,  // measure 53
0000
0000
0200
0301
0100
0001
0000
0100
0010
0100
0000
0010
0200
0000
0000
0310
,  // measure 54
0000
0000
0001
0010
0100
1000
0100
0010
0001
0010
0100
0000
1000
0000
0100
0000
,  // measure 55
2200
0300
0100
0000
0010
0000
3001
0000
1000
0000
0100
0000
0010
0000
0001
0000
,  // measure 56
0000
0000
0000
0001
0100
0001
0000
0100
0010
0100
0000
0010
0200
0000
0000
0310
,  // measure 57
0000
0000
0000
1000
0010
1000
0000
0010
0100
0010
0000
0100
0020
0000
0000
0130
,  // measure 58
0000
0000
0000
0100
1000
0100
0000
1000
0001
1000
0000
0001
2000
0000
0000
3001
,  // measure 59
0000
0000
2200
0000
3300
0000
0022
0000
0033
0000
2200
3300
0002
0000
0000
0000
,  // measure 60
0003
0010
0100
0000
0120
0000
0000
0200
,  // measure 61
0330
0201
0000
0310
0120
0000
0000
0200
,  // measure 62
0330
0000
0012
0000
0000
0000
2000
0000
0000
0000
0000
0000
0000
3000
1003
0000
,  // measure 63
2001
0000
0000
0002
3003
0011
0000
0101
,  // measure 64
0000
M200
00M0
000M
00M2
M000
03M0
M000
,  // measure 65
0M00
20M3
000M
00M0
0M20
300M
0M00
M000
,  // measure 66
0M00
023M
00M0
M000
00M0
M302
00M0
0M00
,  // measure 67
M003
0M20
000M
0M00
M000
023M
00M0
M000
,  // measure 68
03M0
M002
0M00
00M0
2M03
00M0
000M
00M0
,  // measure 69
0M00
302M
0M00
M000
023M
00M0
M000
00M0
,  // measure 70
000M
03M2
0M00
20M0
0M03
00M0
000M
00M0
,  // measure 71
0M00
3044
M000
0M00
0000
0M00
M000
0M00
,  // measure 72
0000
0000
0M00
0000
M000
0000
0M00
0033
0000
0000
0000
0000
0000
0000
0000
0000
;
