#TITLE:Volume Up;
#SUBTITLE:;
#ARTIST:4Minute;
#TITLETRANSLIT:;
#SUBTITLETRANSLIT:;
#ARTISTTRANSLIT:;
#GENRE:Kpop;
#CREDIT:;
#BANNER:Volume Up.png;
#BACKGROUND:Volume Up-bg.png;
#LYRICSPATH:;
#CDTITLE:cdtitle.png;
#MUSIC:02 Volume Up.mp3;
#OFFSET:0.000;
#SAMPLESTART:100.000;
#SAMPLELENGTH:12.000;
#SELECTABLE:YES;
#BPMS:0.000=130.000
;
#STOPS:
;
#BGCHANGES:;
#KEYSOUNDS:;
#ATTACKS:;

//---------------dance-single - Blank----------------
#NOTES:
     dance-single:
     :
     Hard:
     5:
     0.485,0.641,0.357,0.422,0.043,608.000,83.000,98.000,0.000,0.000,0.000,0.485,0.641,0.357,0.422,0.043,608.000,83.000,98.000,0.000,0.000,0.000:
0000
2002
0000
3003
,
0001
1000
0000
0110
0000
1000
0000
0100
,
0000
0002
2000
0000
0000
3003
0000
1000
,
0100
2000
0000
0001
0000
0001
0000
0001
,
3000
0202
0000
0303
,
1010
0002
0000
0103
0000
0010
0000
0100
,
0000
2001
0000
0000
0000
0000
3000
0001
,
0010
0100
0000
2000
0000
3200
0000
0310
,
0000
0000
1000
0001
1001
0000
0010
0100
,
1010
0000
0100
0010
0001
1000
0000
0100
,
0001
0000
0001
0110
1000
0110
0001
0000
,
0110
0000
0100
0010
0100
0010
0100
0000
,
1001
0000
0010
1000
0100
0000
0100
0010
,
0100
0000
1000
0100
0001
0010
0000
1000
,
0100
0000
0001
0001
1000
0100
0010
0000
,
0110
0000
1000
0100
0001
0010
0100
1000
,
0000
0002
0000
0000
0000
0000
0000
0003
,
1000
0100
0000
0020
0100
0000
0000
0030
,
0100
0010
0100
0000
1000
0000
0101
0000
,
1000
0000
1000
0100
1000
0100
0000
0010
,
0100
0010
0102
0000
0000
0000
0000
0003
,
1000
0010
0000
0100
2000
0000
0000
3000
,
0001
0010
1000
0000
0100
0000
0001
0000
,
1001
0000
0010
0100
1000
0100
0000
0001
,
0010
0100
1000
0000
0001
0010
0100
0000
,
0110
0000
1000
0100
0001
0010
0001
0000
,
1001
0000
0000
0000
1000
0100
0010
0000
,
1000
0100
1010
0100
1000
0001
0101
0000
,
1000
0010
0100
0001
1000
0010
0110
0000
,
1000
0100
1100
0000
0001
0100
0101
0000
,
0010
0100
1000
0010
0100
0001
0011
0000
,
0100
1000
0100
1000
0100
1000
0100
0001
1000
0001
1000
0001
1000
0001
1000
0001
,
1000
0110
0110
2000
,
3001
0000
0010
0100
1000
0100
0000
0101
,
0000
0110
0000
0110
0000
0000
1000
0100
,
0001
0010
1000
0100
0001
0010
0000
1000
,
0000
1010
0000
1010
0000
0000
0100
0010
,
0100
1000
0200
0000
0301
0000
0020
0000
,
0130
0100
0000
0120
0000
0000
0030
1000
,
0100
1000
0000
0010
0000
1000
0000
0100
,
0000
0001
0020
0000
0000
0000
0000
0030
,
0100
0010
0000
2000
0000
3200
0000
0302
,
0000
0003
1000
0001
1000
0001
0000
1001
,
0000
0000
0010
0100
0010
0100
0000
0110
,
0000
0000
2000
0000
0000
0000
0000
3000
,
0001
0010
0000
0100
0000
1000
0000
0100
,
0000
0000
1000
0100
1000
0100
0000
1100
,
0000
0000
0001
0010
0001
0010
0000
0011
,
0000
0000
0010
0100
1010
0000
0100
0001
,
0101
0000
1000
0100
1000
0010
0000
0100
,
0001
0000
1000
0010
0100
1000
2200
0000
,
3300
0000
0010
0100
0001
0010
0202
0000
,
0000
0303
0000
0000
1000
0000
0010
0000
0100
0000
0000
0000
0001
0000
1000
0000
,
0001
0000
0001
0010
0100
0100
0000
1000
,
0100
0000
1000
0100
0010
0100
0022
0000
,
0000
0033
0000
0000
0010
0000
0001
0000
0100
0000
0010
0000
1100
0000
0000
0000
,
1001
0000
0000
0000
0010
0000
0100
0000
0000
0100
0000
0000
0010
0000
0000
0000
,
0001
0000
0010
0000
0100
0000
0010
0000
0200
0010
0000
0000
0010
0000
0300
0000
,
0001
0010
2000
0000
3002
0000
2003
0000
,
3200
0300
1000
0100
2000
0000
3010
0010
,
0100
0000
0000
0000
0002
0000
1000
0000
0100
1000
0000
0000
0100
0000
0003
0000
,
1000
0000
0100
0000
0010
0000
0100
0000
2000
0010
0000
0000
0010
0000
3000
0000
,
0100
0010
0100
0000
2002
3003
0010
0000
,
0100
0000
0010
0001
0100
1000
0000
1000
,
0100
2000
0000
3000
0001
1000
2002
3003
,
0110
0000
1000
0010
0100
0010
2002
3003
,
0020
0000
0000
0030
0100
0010
0100
0000
,
1000
0100
0010
0001
0010
0100
0011
0000
,
1000
0100
0010
1000
0100
0001
1001
0000
,
0010
0100
0110
0000
1000
0100
1100
0000
,
0001
0010
0100
0010
0100
0001
0011
0000
,
1000
0010
1000
0010
1000
0010
1000
0001
1000
0001
1000
0001
1000
0001
1000
0001
,
1000
0010
1000
0100
,
0001
0000
0010
0100
1000
0001
0000
0010
,
0000
0011
0000
1100
0000
0000
0010
0100
,
1000
0100
0001
0010
0100
1000
0000
0001
,
0000
1010
0000
0101
0000
0000
0100
1000
,
0100
0000
0002
0003
2000
3000
0010
0000
,
0100
0110
0000
2002
0000
0000
3003
1000
,
0001
2000
0000
3002
0000
0203
0000
0320
,
0000
0230
0320
0000
0000
0000
0000
0030
,
1000
0002
0000
0023
0000
0230
0000
0320
,
0000
0030
0001
0010
0100
1000
0000
1100
,
0000
0000
1000
0100
0010
0001
0000
0101
,
0000
2000
0000
3000
,
0100
0020
0000
2030
0000
3200
0000
0320
,
0000
0030
0010
0100
0010
0100
0000
1001
,
0000
0000
0001
0010
0001
0010
0000
1001
,
0000
0000
2000
3000
0001
0000
0010
0000
,
0100
0000
0000
0000
0020
0000
0000
0030
0020
0000
0000
0030
0020
0000
0000
0000
,
0030
1000
0100
0010
,
0100
0000
0000
0000
2000
0000
0000
3000
2000
0000
0000
3000
2000
0000
0000
3000
,
0001
0010
0100
0010
,
0100
0000
0220
0000
0000
0000
0330
0001
,
1000
0002
0000
1000
0000
0000
0003
0100
,
0010
0100
0020
0000
0000
0000
0000
0000
,
0000
0030
1002
0000
0003
1000
0100
0000
,
1100
0020
0000
2030
0000
3200
0000
0301
,
0000
1001
2000
0000
3000
0000
0001
0100
,
0010
0100
0000
2000
0000
3200
0000
0320
,
0000
0030
0000
0000
0200
0000
0000
0000
0000
0000
0300
0000
0010
0000
0100
0000
,
1000
0200
0000
0320
0000
2030
0000
3200
,
0000
0300
0100
0000
0100
0000
0001
1000
,
0010
0000
0110
1001
0110
1001
0110
1001
,
0110
1001
0001
0000
0001
0000
0010
0000
,
0100
0000
1000
0100
0001
0010
0000
0100
,
0000
1100
0000
0110
0000
0000
0001
0010
,
0100
1000
0100
0001
0010
0001
0000
0100
,
0000
0101
0000
0011
0000
0000
1000
0100
,
0010
2000
3200
0302
,
1003
0001
0000
2000
0000
0000
3000
0010
,
0100
1000
0000
0100
0000
0010
0000
0100
,
0000
0001
0020
0000
0000
0000
0000
0030
,
1000
0000
0100
0001
0000
0010
0000
0100
,
0000
0000
1000
0001
1001
0001
0000
1001
,
0000
0000
0010
1000
0010
1000
0000
1010
,
0000
0000
0200
0000
0000
0000
0000
0300
,
0010
0100
0000
1000
0000
0100
0000
0001
,
0000
0000
0010
0100
0010
0100
0000
0110
,
0000
0000
1000
0100
1000
0100
0000
1100
,
0000
0000
0002
0000
0000
0000
0000
0003
,
1000
0010
0000
0100
0000
1000
0000
0100
,
0000
0002
0000
0000
0000
0000
0003
0100
,
0100
0010
0000
1001
0000
0200
0000
0000
,
0000
0300
0000
0000
0000
0000
0000
0000
;

//---------------dance-single - Blank----------------
#NOTES:
     dance-single:
     :
     Challenge:
     7:
     0.709,1.000,0.581,0.512,0.361,899.000,135.000,119.000,4.000,1.000,2.000,0.709,1.000,0.581,0.512,0.361,899.000,135.000,119.000,4.000,1.000,2.000:
0000
0000
0000
0000
1001
0000
0100
0000
0000
1010
0000
0000
0110
0000
0000
0001
,
0000
0000
1000
0000
0001
0000
0100
0000
0000
0010
0000
0000
0100
0000
0000
0010
,
0000
0000
1001
0000
0100
0000
0000
0010
0000
0000
1000
0000
0010
0000
1000
0000
,
0100
0000
2000
0000
0001
0000
0001
0000
0000
0001
0000
0000
0001
0000
0000
0001
,
3000
0000
0010
0000
0102
0000
1000
0000
0000
1000
0000
0000
1003
0000
0000
0000
,
1010
0000
0001
0000
0010
0000
0100
0000
0000
1010
0000
0000
0110
0000
0000
0101
,
0000
0000
2000
0000
0001
0000
0001
0000
0000
0001
0000
0000
3001
0000
0100
0000
,
0010
0000
0100
0000
1000
0000
2000
0000
0000
0010
3200
0000
0010
0000
0300
0010
,
0000
1001
1000
0001
1001
0000
0010
0100
,
1010
0000
0100
0010
0002
2003
0000
3100
,
0001
0000
0001
0110
1000
0110
0001
0000
,
0110
0000
0000
0000
0100
0000
0010
0000
0100
0010
0000
0000
0110
0000
0000
0000
,
1001
0000
0010
1000
1100
0000
0100
0010
,
0110
0000
0000
0000
1000
0000
0100
0000
0001
1000
0000
0000
1001
0000
1000
0000
,
0220
0000
0000
0330
0001
0000
0001
0000
1000
0000
0100
0000
0020
0000
0000
0000
,
0130
0000
0000
0000
1000
0000
0110
0000
1000
0100
0000
0000
0100
0010
0000
0000
,
0110
0000
0002
0000
1000
0000
1000
0000
0100
1000
0000
0000
0100
0000
0003
0000
,
1000
0000
0100
0000
0010
0000
0020
0000
0100
1000
0000
0000
0100
0000
0030
0000
,
0100
0000
0010
0000
0100
0010
0000
0000
1001
0000
0000
0000
0101
0000
0000
0000
,
0010
0000
0000
0000
1010
0000
0100
0000
1000
0100
0000
0000
0110
0000
0010
0000
,
0100
0000
0010
0000
0002
0000
1000
0000
1000
0100
0000
0000
1000
0000
0003
0000
,
1000
0000
0010
0000
0100
0000
0100
0000
2000
0001
0000
0000
0010
0000
3000
0000
,
0001
0010
2000
0000
3200
0000
0301
0000
,
2002
3003
0010
0100
1000
0200
0000
0301
,
0010
0000
0100
0000
2020
0000
0000
3030
0001
0000
0010
0000
0100
0000
0000
0000
,
0110
0000
1000
0100
0001
0010
0001
0000
,
2002
0000
0000
0000
0000
3003
0000
0000
1000
0000
0100
0000
0010
0000
0000
0000
,
1000
0100
1010
0100
1000
0001
0101
0000
,
1000
0010
0100
0001
1000
0010
0110
0000
,
1000
0100
1100
0000
0001
0100
0101
0000
,
0010
0000
0000
0100
0000
0000
1000
0000
0000
0010
0000
0000
0100
0000
0000
0001
0000
0000
0011
0000
0000
0100
0010
0100
,
0010
0100
0010
0100
0010
0100
0010
0100
0010
0100
0001
1000
0001
1000
0001
1000
0001
1000
0001
1000
0001
1000
0000
0000
,
2002
0000
3003
0000
0110
0000
0000
0000
0110
0000
1000
0100
1000
0000
0010
0001
,
0010
0000
0100
0010
0001
0000
0100
0000
1010
0000
0100
0000
0000
0000
0101
0000
,
0000
0000
0110
0000
1001
0000
0110
0000
1000
0100
1000
0000
1000
0000
0100
0000
,
0001
0000
0010
0000
1000
0000
0100
0000
0001
0000
0010
0100
1000
0000
1001
0000
,
0000
0000
1010
0000
0100
0000
1010
0000
0100
0010
0100
0000
0100
0000
0010
0000
,
0100
0000
1000
0000
0200
0000
0010
0000
0301
0010
0000
0000
0020
0000
0000
0000
,
0130
0000
0100
0010
0001
0000
0120
0000
0000
0000
0130
1000
0100
0000
1000
0000
,
0100
0000
1000
0000
0100
0000
0010
0000
0001
0010
0000
0000
0110
0000
0100
0000
,
0000
0000
0001
0000
0020
0000
0100
1000
0100
0000
0100
1000
0100
0000
0130
1000
,
0100
0020
0000
2030
0000
3200
0000
0302
,
0000
0000
0003
0000
1000
0000
0001
0000
1000
0000
0001
1000
0001
0000
2002
0000
,
0000
0000
3003
0000
0010
0000
0100
0000
0010
0000
0100
0010
0100
0000
0220
0000
,
0000
0000
0330
0000
2000
0000
0001
0010
0001
0000
0010
0001
0010
0000
3001
0010
,
0001
0000
0010
0000
0100
0000
0100
0000
1000
0000
0001
0000
1000
0001
0000
0000
,
0110
0000
0000
0000
1000
0000
0100
0000
1000
0000
1000
0100
1000
0000
2200
0000
,
0000
0000
3300
0000
0001
0000
0010
0000
0001
0000
0010
0001
0010
0000
0022
0000
,
0000
0033
0000
0000
0010
0000
0100
0000
1010
0000
0000
0000
0100
0000
0001
0000
,
0101
0000
1000
0100
1000
0010
0100
0100
,
0001
1000
0000
0000
1000
0000
0010
0000
0100
0000
1000
0000
1100
0000
0010
0100
,
0110
0000
0000
0000
0010
0000
0100
0000
0001
0000
0010
0000
0101
0000
1000
0100
,
1100
0000
1000
0010
0210
0300
0001
1000
,
2001
0000
0000
0000
3001
0000
0010
0000
0100
0000
0100
0000
0010
0100
0000
0000
,
0110
0000
0000
0000
1001
0000
0100
0000
0010
0000
0100
0000
0011
0000
1000
0100
,
0010
0000
0000
0000
0010
0000
0001
0000
0100
0000
0010
0000
1100
0000
0010
0100
,
1001
0000
0000
0000
0010
0000
0100
0000
0000
0100
0000
0000
0010
0000
0000
0000
,
0001
0000
0010
0000
0100
0000
0010
0000
0200
0010
0000
0000
0010
0000
0300
0000
,
0001
0010
2000
0000
3002
1000
2003
0000
,
3200
0300
1000
0100
2000
0000
3010
0010
,
0100
0000
0000
0000
0002
0000
1000
0000
0100
1000
0000
0000
0100
0000
0003
0000
,
1000
0000
0100
0000
0010
0000
0100
0000
2000
0010
0000
0000
0010
0000
3000
0000
,
0100
0010
0100
0000
1001
0000
0210
0000
,
0310
0000
0010
0001
0100
2002
3003
1000
,
0100
2000
0000
3000
0001
1000
2002
3003
,
0110
0000
1000
0010
0100
0010
2002
3003
,
0020
0000
0100
0030
0100
0010
0100
0000
,
1000
0100
0010
0001
0010
0100
0011
0000
,
1000
0100
0010
1000
0100
0001
1001
0000
,
0010
0100
0110
0000
1000
0100
1100
0000
,
0001
0010
0100
0010
0100
0001
0011
0100
,
1000
0001
1000
0001
1000
0001
1000
0001
1000
0010
0100
0010
0100
0010
0100
0010
0100
0010
0100
0010
0100
0010
0100
0010
,
0200
0000
0000
0300
0010
0000
0000
0000
1010
0000
0000
0000
0110
0000
0000
0000
,
0001
0000
0100
0000
0010
0000
0100
0000
1000
0001
0000
0000
0100
0000
0010
0000
,
0000
0000
0011
0000
0110
0000
1100
0000
0010
0001
0000
0000
0010
0000
0100
0000
,
1000
0000
0100
0000
0001
0000
0010
0000
0100
0000
1000
0100
0010
0000
0001
0010
,
0100
0000
1010
0000
0110
0000
0101
0000
1000
0001
0000
0000
0100
0000
1000
0000
,
0100
0000
0000
0000
0102
0000
1003
0000
2001
0000
3000
0000
0010
0100
0000
0000
,
0100
0110
0000
2002
0000
0000
3003
1000
,
0001
2000
0001
3002
1000
0203
0010
0320
,
0100
0000
0230
0000
0320
0000
1000
0100
1000
0000
0100
1000
0100
0000
1030
0100
,
1000
0002
0100
0023
0100
0230
0010
0320
,
0000
0000
0030
0000
0001
0000
0010
0000
0100
0000
1000
0100
0010
0000
1100
0000
,
1001
1000
0000
0000
1000
0000
0100
0000
0010
0000
0001
0010
0100
0000
0101
0000
,
1010
0010
0000
0000
2000
0000
0001
0010
0001
0000
0010
0001
3010
0000
0001
0010
,
0100
0020
1000
2030
0100
3200
0010
0320
,
0000
0000
0030
0000
0010
0000
0100
0000
0010
0000
0100
0010
0001
0000
1001
0000
,
0110
0000
0000
0000
0001
0000
0010
0000
0001
0000
0010
0100
1000
0000
1001
0000
,
0110
0000
0000
0000
2000
0000
0000
0000
3002
0000
0000
0003
0020
0000
0000
0030
,
0200
0000
0000
0300
2000
0000
0000
0000
3002
0000
0000
0000
0023
0000
0000
0000
,
0030
1000
0100
0010
,
0100
0000
0000
0000
2010
0000
0000
3000
2001
0000
0000
3000
2010
0000
0000
3000
,
0001
0010
0100
0010
,
0100
0000
0220
0000
0000
0000
0330
0001
,
1000
0002
0000
1000
0000
0000
0003
0100
,
0010
0100
0420
0000
0000
0000
0000
0000
,
0000
0330
1002
0000
0003
1000
0100
0010
,
1100
0020
0000
2030
0000
3200
0000
0301
,
0000
1001
2000
0000
3000
0100
0001
0100
,
0010
0100
0000
2000
0000
3200
0000
0320
,
0000
0030
0000
0000
0200
0001
0010
0000
0000
0000
0300
0000
0010
0000
0100
0000
,
1000
0200
0000
0320
0000
2030
0000
3200
,
0000
0000
0000
0300
0000
0000
0100
0001
0100
0001
0100
0001
0100
0001
0100
0001
0100
0001
0010
0100
0010
0100
0010
0100
,
0010
0000
0000
0000
0000
0000
0000
0000
0100
0000
0000
0000
0000
0000
0000
0000
0010
0000
0000
0000
0000
0000
0000
0000
0100
0000
0000
0000
0000
0000
0000
0000
0010
0000
0000
0000
0000
0000
0000
0000
0100
0000
0000
0000
0000
0000
0000
0000
0010
0000
0000
0000
0000
0000
0001
0000
0000
0000
0000
0000
0010
0000
0000
0000
0000
0000
0100
0000
0000
0000
0000
0000
1000
0000
0000
0000
0000
0000
0100
0000
0000
0000
0000
0000
0010
0000
0000
0000
0000
0000
0001
0000
0000
0000
0000
0000
0010
0000
0000
0000
0000
0000
0100
0000
0000
0000
0000
0000
1000
0000
0000
0000
0000
0000
0100
0000
0000
0000
0000
0000
0010
0000
0000
0000
0000
0000
0001
0000
0000
0000
0000
0000
0010
0000
0000
0000
0000
0000
0100
0000
0000
0000
0000
0000
1000
0000
0000
0000
0000
0000
0100
0000
0000
0000
0000
0000
0010
0000
0000
0000
0000
0000
0001
0000
0000
0000
0000
0000
0010
0000
0000
0000
0000
0000
0100
0000
0000
0000
0000
0000
1000
0000
0000
0000
0000
0000
0100
0000
0000
0000
0000
0000
,
0010
0001
0010
0100
1000
0000
0000
0000
2002
0000
0000
0000
0000
0000
0000
0000
3113
0000
0000
0000
0000
0000
0000
0000
0110
0000
0000
0000
1000
0000
0100
0000
,
0010
0000
0100
1000
0100
0000
0100
0010
0001
0000
0010
0000
0000
0000
0100
0000
,
0000
0000
1100
0000
0110
0000
0110
0000
0001
1000
0000
0000
0001
0000
0010
0000
,
0100
1000
0100
0001
0010
0001
0010
0100
,
0000
0000
0101
0000
1010
0000
0011
0000
0100
0010
0000
0000
1000
0000
0100
0000
,
0020
0000
0000
0000
1030
0000
0010
0100
0010
0000
0000
0000
1001
0000
1000
0000
,
1000
0001
0000
2000
0000
0000
3000
0010
,
0100
0000
1000
0000
0000
0000
0100
0010
0001
0000
0010
0100
1000
0000
0100
0010
,
0001
0000
0001
0000
0020
0000
1000
0100
1000
0000
0100
1000
0100
0000
1030
0100
,
1000
0000
0000
0000
0110
0000
0001
0010
0100
0000
0010
0100
0010
0000
0100
0010
,
0001
0000
1000
0001
1001
0001
0110
1001
,
0100
0010
0000
0000
0010
0000
1000
0000
0010
0000
1000
0000
0101
0000
1010
0000
,
0100
0010
0000
0000
0200
0000
0001
0010
0001
0000
0010
0001
0010
0000
0301
0010
,
0100
0000
0100
0000
0000
0000
1010
0100
0010
0000
0101
0010
0100
0000
0001
0010
,
0200
0300
0010
0100
0010
0100
1001
0110
,
0100
0010
0000
0000
1000
0000
0100
0000
1000
0000
0100
0000
1001
0000
1100
0000
,
0010
0100
0000
0000
0004
0000
0000
0000
0000
0000
0000
0000
0000
0000
0003
0000
,
1000
0011
0000
1100
0000
1001
0000
0110
,
0000
0000
0002
2000
0000
0000
0000
0000
0000
0000
0000
0000
3003
0000
0100
0000
,
0100
0010
0000
1001
0000
0220
0000
0000
,
0000
0330
MMMM
0000
0000
0000
0000
0000
;

//---------------dance-single - ----------------
#NOTES:
     dance-single:
     :
     Medium:
     3:
     0.251,0.321,0.082,0.275,0.000,326.000,19.000,64.000,0.000,0.000,1.000,0.251,0.321,0.082,0.275,0.000,326.000,19.000,64.000,0.000,0.000,1.000:
0000
0000
0000
0000
,
0000
0000
0000
0000
,
0000
2000
0000
0000
0000
0000
0000
3000
,
0000
0002
0000
0000
0000
0000
0000
0003
,
0000
0200
0000
0000
,
0300
0000
0000
0000
0000
0010
0000
0100
,
0000
0020
0000
0000
0000
0000
0000
0030
,
0000
0000
2000
0000
0000
0000
0000
3000
,
0000
0001
1000
0000
,
0110
1000
0000
0000
,
0000
1000
0001
2000
,
0000
3000
0100
0000
0010
0000
0200
0000
,
0000
0300
0001
0000
1000
0000
0100
0000
,
1100
1000
0100
1000
,
0010
1000
0010
2000
,
3000
0001
1000
0002
,
0000
0003
0020
0000
0000
0000
0000
0030
,
0100
0000
0010
0000
2000
0000
0000
3000
,
0010
0100
1000
0001
,
1000
0100
0010
0100
,
1000
0000
0002
0000
0000
0000
0000
0003
,
0000
0000
0100
0000
0020
0000
0000
0030
,
1000
0100
0010
0100
,
0110
1000
0100
1000
,
0001
0000
2000
0000
0000
3000
0002
0000
,
0000
0003
2000
0000
0000
3000
0020
0000
,
0000
0030
0200
0000
,
0000
0300
0020
0000
0000
0000
0000
0030
,
0000
0100
0010
0110
,
0000
1001
0000
0110
,
0000
1000
0100
1000
,
0001
1000
0100
0001
,
2002
3003
0100
0010
,
1000
0100
0010
0100
,
0000
1000
0000
1001
0000
0000
0100
0000
,
0010
1000
0100
0010
,
0000
0100
0000
0110
0000
0000
1000
0000
,
0001
1000
0100
0010
,
1000
0020
0000
0200
0000
0000
0330
0000
,
0000
0100
0010
0100
,
1000
0002
0000
0000
,
0003
1000
0100
0010
,
0100
0000
1000
0100
1000
0100
0000
0010
,
0000
0000
0001
0100
0001
0100
0000
0001
,
0000
0220
0000
0000
,
0000
0000
0000
0000
,
0330
0000
1000
0100
1000
0100
0000
0001
,
0000
0000
0001
1000
0001
1000
0000
0001
,
0000
0100
0010
1000
,
0100
1000
0001
1000
,
0001
0010
0001
0020
,
0000
0030
0100
0000
0010
0000
0200
0000
,
0300
1000
0100
0010
,
0100
0001
1000
0001
,
0000
0010
0100
2000
,
3000
0100
0000
0200
,
0000
0300
0020
0000
0000
0000
0000
0030
,
1000
0000
0100
0000
0020
0000
0000
0030
,
0100
0010
1000
0100
,
0010
1000
0001
1000
,
0100
0000
2000
0000
0000
0000
0000
3000
,
0001
0000
0010
0000
0200
0000
0000
0300
,
0010
0100
1000
0100
,
0001
1000
0001
1000
,
0100
0000
0020
0000
0000
0030
2000
0000
,
0000
3000
0002
0000
0000
0003
2000
0000
,
0000
0000
0000
3000
0200
0000
0000
0000
,
0300
0000
0020
0000
0000
0000
0000
0030
,
0000
1000
0001
1001
,
0000
0110
0000
1100
,
0000
0000
0000
0110
,
0001
1000
0100
0010
,
0220
0000
0000
0330
1000
0000
0001
0000
,
1000
0100
0010
0100
,
0000
1000
0000
1001
0000
0000
0010
0000
,
0100
1000
0100
0010
,
0000
0010
0000
0110
0000
0000
1000
0000
,
0001
1000
0001
1000
,
0100
0010
0000
0020
0000
0000
0000
0030
,
0000
0200
0000
0000
,
0300
0020
0000
0000
,
0000
0000
0000
0000
,
0000
0030
1000
0100
1000
0100
0000
2000
,
0000
3000
0001
0100
0001
0100
0000
0002
,
0000
0003
0200
0000
0000
0000
0000
0000
,
0000
0000
0000
0000
,
0000
0300
0010
0001
0010
0001
0000
0020
,
0000
0030
1000
0010
1000
0010
0000
2000
,
0000
3000
0100
0000
0010
0000
0100
0000
,
1000
0002
0000
0000
,
0003
1000
0010
1000
,
0010
0200
0000
0000
,
0000
0300
0010
0000
0100
0000
1000
0000
,
0010
2000
0000
0000
,
0000
3000
0002
0000
0000
0000
0000
0000
,
0003
0000
0020
0000
0000
0000
0000
0030
,
0000
0000
0000
1000
,
0000
1000
0000
0001
0000
1000
0000
0001
,
0000
0100
0000
0000
,
0000
1000
0000
0001
0000
1000
0000
0000
,
0000
0000
0200
0000
0000
0300
0000
0000
,
0000
1000
0000
0001
0000
1000
0000
0001
,
0000
0000
2000
0000
0000
3000
0010
0000
,
0100
0040
0000
0000
,
0000
0030
0100
0010
,
0100
1000
0001
1000
,
0000
1001
0000
1001
0000
0000
0010
0000
,
0100
0010
0100
1000
,
0000
0010
0000
0100
0000
0000
0001
0000
,
1000
0001
0010
0100
,
0000
0000
0000
0020
0000
0000
0000
0030
,
0000
1000
0000
0001
,
0000
0200
0000
0000
,
0000
0000
0000
0000
,
0300
0000
1000
0001
1000
0001
0000
2000
,
0000
3000
0001
0000
0001
0001
0000
1000
,
0000
0200
0000
0000
,
0000
0000
0000
0000
,
0300
0000
0010
1000
0010
1000
0000
0010
,
1000
0000
0100
0010
0100
1000
0000
0001
,
0000
2000
0000
0000
,
0000
0000
3000
0000
,
0000
0020
0000
0000
0000
0000
0000
0000
,
0000
0030
0000
0000
0000
0000
0200
0000
,
0000
0000
0000
0300
0000
0000
0000
0000
;

//---------------dance-single - ----------------
#NOTES:
     dance-single:
     :
     Easy:
     2:
     0.139,0.187,0.022,0.176,0.000,180.000,5.000,41.000,0.000,0.000,0.000,0.139,0.187,0.022,0.176,0.000,180.000,5.000,41.000,0.000,0.000,0.000: // measure 0
0000
0000
0000
0000
,  // measure 1
0000
0000
0000
0000
,  // measure 2
0000
2000
0000
0000
0000
0000
0000
0000
,  // measure 3
0000
0000
0000
0000
0000
3000
0000
0000
,  // measure 4
0000
0200
0000
0000
,  // measure 5
0000
0000
0000
0000
0000
0000
0000
0300
,  // measure 6
0000
0020
0000
0000
0000
0000
0000
0030
,  // measure 7
0000
0000
2000
0000
0000
0000
0000
3000
,  // measure 8
0000
0001
0000
0000
,  // measure 9
1000
0000
0000
0000
,  // measure 10
0000
1000
0000
0002
,  // measure 11
0000
0003
0000
0200
,  // measure 12
0000
0300
0100
0000
,  // measure 13
0100
0000
0100
0000
,  // measure 14
0010
0000
0010
0000
,  // measure 15
0000
0001
0000
1000
,  // measure 16
0000
0020
0000
0000
,  // measure 17
0000
0000
0030
0000
2000
0000
0000
3000
,  // measure 18
0000
0100
0000
0002
,  // measure 19
0003
0100
0000
0100
,  // measure 20
0000
0000
0002
0000
0000
0000
0000
0003
,  // measure 21
0000
0000
0000
0000
0020
0000
0000
0030
,  // measure 22
0000
0100
0000
0000
,  // measure 23
0110
0000
0100
0000
,  // measure 24
0001
2000
0000
0000
,  // measure 25
0000
0000
0000
0000
,  // measure 26
0000
3000
0200
0000
,  // measure 27
0000
0000
0000
0000
0000
0000
0000
0300
,  // measure 28
0000
0100
0000
0110
,  // measure 29
0000
0001
0000
1000
,  // measure 30
0000
1000
0000
1000
,  // measure 31
0000
0001
0000
0000
,  // measure 32
0020
0000
0030
0010
,  // measure 33
0000
0100
0000
0100
,  // measure 34
0000
0000
0000
0100
0000
0000
0000
0000
,  // measure 35
0010
0000
0100
0000
,  // measure 36
0000
0000
0000
0100
0000
0000
1000
0000
,  // measure 37
0000
1000
0000
0010
,  // measure 38
0000
0000
0000
0200
0000
0000
0300
0000
,  // measure 39
0000
0100
0000
0100
,  // measure 40
0000
0002
0000
0000
,  // measure 41
0003
1000
0000
0010
,  // measure 42
0000
1000
0001
0000
,  // measure 43
0000
0001
1000
0000
,  // measure 44
0000
0200
0000
0000
,  // measure 45
0000
0000
0000
0000
,  // measure 46
0300
0000
1000
0000
1000
0000
0000
0001
,  // measure 47
0000
0000
0001
0000
0001
0000
0000
1000
,  // measure 48
0000
0100
0000
0000
,  // measure 49
0100
0000
0001
0000
,  // measure 50
1000
0000
0010
0000
,  // measure 51
0000
0100
0000
0200
,  // measure 52
0300
0000
0100
0000
,  // measure 53
0100
0000
1000
0000
,  // measure 54
0000
0010
0000
2000
,  // measure 55
3000
0100
0000
0200
,  // measure 56
0000
0300
0020
0000
0000
0000
0000
0030
,  // measure 57
0000
0000
0020
0000
,  // measure 58
0130
0000
1000
0000
,  // measure 59
0010
0000
1000
0000
,  // measure 60
0000
0000
2000
0000
0000
0000
0000
3000
,  // measure 61
0001
0000
0000
0000
0200
0000
0000
0300
,  // measure 62
0000
0100
0000
0010
,  // measure 63
0000
1000
0000
1000
,  // measure 64
0000
0020
0000
0000
,  // measure 65
0000
0000
0000
0000
,  // measure 66
0000
0000
0000
0000
,  // measure 67
0000
0000
0000
0000
0000
0000
0000
0030
,  // measure 68
0000
1000
0001
0000
,  // measure 69
0000
0110
0000
0100
,  // measure 70
0000
0000
0000
0110
,  // measure 71
0000
1000
0000
0000
,  // measure 72
0220
0000
0000
0330
0000
0000
0001
0000
,  // measure 73
1000
0000
0010
0000
,  // measure 74
0000
0000
0000
0001
0000
0000
0010
0000
,  // measure 75
0000
1000
0000
0010
,  // measure 76
0000
0000
0000
0100
0000
0000
1000
0000
,  // measure 77
0000
0001
0000
1000
,  // measure 78
0000
0000
0000
0020
0000
0000
0000
0030
,  // measure 79
0000
0100
0000
0000
,  // measure 80
0000
0020
0000
0000
,  // measure 81
0000
0000
0000
0000
,  // measure 82
0000
0030
1000
0000
0001
0000
0000
1000
,  // measure 83
0000
0000
1000
0000
0001
0000
0000
1000
,  // measure 84
0000
0200
0000
0000
,  // measure 85
0000
0000
0000
0000
,  // measure 86
0000
0300
0010
0000
0100
0000
0000
0010
,  // measure 87
0000
0000
0100
0000
0010
0000
0000
0100
,  // measure 88
0000
0100
0000
0100
,  // measure 89
0000
0002
0000
0000
,  // measure 90
0003
1000
0000
1000
,  // measure 91
0000
0200
0000
0000
,  // measure 92
0000
0300
0010
0000
0000
0000
0100
0000
,  // measure 93
0000
2000
0000
0000
,  // measure 94
0000
3000
0000
0000
0001
0000
0000
0000
,  // measure 95
0000
0000
0020
0000
0000
0000
0000
0030
,  // measure 96
0000
0000
0000
0000
,  // measure 97
0000
1000
0000
0010
0000
1000
0000
0010
,  // measure 98
0000
0000
0000
0000
,  // measure 99
0000
0100
0000
0001
0000
0100
0000
0001
,  // measure 100
0000
0000
0000
0000
,  // measure 101
0000
1000
0000
0001
0000
1000
0000
0001
,  // measure 102
0000
0000
0000
0010
,  // measure 103
0000
0020
0000
0000
,  // measure 104
0000
0030
0100
0000
,  // measure 105
0100
0000
0001
1000
,  // measure 106
0000
0000
0000
0001
0000
0000
0010
0000
,  // measure 107
0000
0010
0000
1000
,  // measure 108
0000
0010
0000
0000
0000
0000
0001
0000
,  // measure 109
0000
0100
0000
0010
,  // measure 110
0000
0000
0000
0020
0000
0000
0000
0030
,  // measure 111
0000
1000
0000
0001
,  // measure 112
0000
0200
0000
0000
,  // measure 113
0000
0000
0000
0000
,  // measure 114
0300
0000
0100
0000
0000
0000
0000
0010
,  // measure 115
0000
0000
0100
0000
0010
0000
0000
0100
,  // measure 116
0000
0200
0000
0000
,  // measure 117
0000
0000
0000
0000
,  // measure 118
0300
0010
0000
0000
,  // measure 119
0010
0000
0100
0000
,  // measure 120
0000
2000
0000
0000
,  // measure 121
0000
0000
3000
0000
,  // measure 122
0000
0020
0000
0000
0000
0000
0000
0000
,  // measure 123
0000
0030
0000
0000
0000
0000
0200
0000
,  // measure 124
0000
0000
0000
0300
0000
0000
0000
0000
;
