#VERSION:0.81;
#TITLE:ur style arbytrarian style;
#SUBTITLE:;
#ARTIST:Kagamine Rin;
#TITLETRANSLIT:;
#SUBTITLETRANSLIT:;
#ARTISTTRANSLIT:;
#GENRE:;
#ORIGIN:;
#CREDIT:;
#BANNER:Ur Style.png;
#BACKGROUND:Ur Style-bg.png;
#JACKET:;
#CDIMAGE:;
#DISCIMAGE:;
#LYRICSPATH:;
#CDTITLE:;
#MUSIC:Ur Style arbitrary style.mp3;
#OFFSET:-0.100;
#SAMPLESTART:100.000;
#SAMPLELENGTH:12.000;
#SELECTABLE:YES;
#BPMS:0.000=120.010;
#STOPS:;
#DELAYS:;
#WARPS:;
#TIMESIGNATURES:0.000=4=4;
#TICKCOUNTS:0.000=4;
#COMBOS:0.000=1;
#SPEEDS:0.000=1.000=0.000=0;
#SCROLLS:0.000=1.000;
#FAKES:;
#LABELS:0.000=Song Start;
#BGCHANGES:;
#KEYSOUNDS:;
#ATTACKS:
;

//---------------dance-single - Blank----------------
#NOTEDATA:;
#CHARTNAME:;
#STEPSTYPE:dance-single;
#DESCRIPTION:Blank;
#CHARTSTYLE:;
#DIFFICULTY:Hard;
#METER:5;
#RADARVALUES:0.647,0.575,0.604,0.544,0.327,398.000,71.000,64.000,2.000,0.000,0.000,0.000,0.000,0.647,0.575,0.604,0.544,0.327,398.000,71.000,64.000,2.000,0.000,0.000,0.000,0.000;
#CREDIT:Blue Army;
#OFFSET:-0.100;
#BPMS:0.000=120.010
;
#STOPS:;
#DELAYS:;
#WARPS:;
#TIMESIGNATURES:0.000=4=4
;
#TICKCOUNTS:0.000=4
;
#COMBOS:0.000=1
;
#SPEEDS:0.000=1.000=0.000=0
;
#SCROLLS:0.000=1.000
,86.500=0.000
,86.750=1.000
,87.000=0.000
,87.875=1.000
,91.000=6.000
,91.750=1.000
,100.000=0.800
,131.500=1.000
,211.750=0.000
,211.875=1.000
,216.250=4.000
,217.000=1.000
;
#FAKES:;
#LABELS:0.000=Song Start
;
#NOTES:
0000
0000
0000
0000
,
1001
0000
0010
0100
0000
0000
0100
0000
0010
0000
0100
0000
1000
0000
0200
0000
,
0000
0000
1300
0000
0100
0000
2002
0000
3003
0000
0010
0000
0100
1000
0100
0000
,
0110
0000
0010
0100
0000
0000
1000
0000
0101
0000
1000
0000
0101
0000
2000
0000
,
0000
0000
3001
0000
0010
0000
0002
0000
0000
0000
0013
0000
0100
1000
0100
0000
,
1000
0000
1000
0001
0000
0000
0010
0000
1100
0000
0001
0000
0010
0000
2000
0000
,
0000
0000
3001
0000
1000
0000
0002
0000
0000
0000
0013
0000
0100
0010
0100
0000
,
0100
0000
1001
1000
0000
0000
0010
0000
1000
0000
0100
0000
0001
0000
0020
0000
,
0000
0000
1030
0000
1100
1000
2000
0000
0001
0000
3001
0000
0010
0100
1000
0000
,
2000
0001
3001
1000
1000
0100
0010
0200
,
0000
0000
0310
0000
0110
0000
2000
0000
0000
0000
3001
0000
0010
0100
1000
0000
,
1001
0100
0001
0010
0100
1000
0101
2000
,
0000
0000
3001
0000
1000
0000
0101
0000
0000
0000
0010
0000
0001
1000
0001
0000
,
0100
1000
0101
1000
0001
0010
1100
2000
,
0000
0000
3001
0000
0110
0000
1002
0000
0003
0000
0010
0000
0100
0001
0100
0000
,
0100
0010
1100
1000
0100
0001
1010
2000
,
0000
0000
3001
0000
1000
0000
0002
0000
1000
0000
1003
0000
0010
0100
1000
0000
,
1000
0100
0011
1000
0101
1000
0100
1001
,
0010
0000
0100
0000
0100
0000
2000
0000
3000
0000
0001
0000
0010
0100
0010
0000
,
1000
0100
0011
0100
1000
0001
0110
2000
,
0000
0000
3001
0000
0010
0000
0002
0000
0000
0000
0013
0000
0100
0010
0001
0000
,
1001
0100
1000
0010
0100
1001
2000
0000
,
3001
0010
0100
1000
0001
0010
0200
0000
,
1300
0010
0100
0010
1001
0100
1000
0020
,
0000
0000
1030
0000
0100
0000
0020
0000
0000
0000
0031
0000
1000
0100
0010
0000
,
0120
0000
0000
2030
0001
0000
3000
0000
,
0002
1000
0103
1001
0010
1100
0101
0000
,
2000
0000
0000
0001
0000
0000
3000
0000
0002
0000
0000
1000
0000
0000
0003
0000
,
1000
0000
0100
0010
0001
0000
1000
0000
1000
0000
0001
0000
0100
0000
0000
0000
,
0110
1001
0011
0101
,
1010
0000
0100
0010
0000
0000
0100
0000
1000
0000
0010
0000
0100
0010
0000
0000
,
0002
2003
3020
0230
,
0302
2003
3200
2300
,
3010
0001
1001
0000
0100
1000
0110
0000
,
0001
0000
0000
0001
1000
0000
0001
0000
0010
0000
0000
0100
1000
0000
0100
0000
,
2001
3100
1020
1030
,
2000
0000
0000
0000
3001
0000
0001
0000
1000
0000
0000
0000
0002
0010
0100
0000
,
1003
0000
1001
0100
1000
0000
0101
0000
,
1000
0000
0000
0110
1000
0000
0010
0000
1001
0000
0100
0000
0010
0100
1000
0000
,
0010
1000
0200
0000
1300
0001
0020
0000
,
2030
0000
0000
0010
3200
0000
0301
0000
0002
0000
0003
0000
0020
0000
0130
1000
,
0100
0000
0010
0100
0000
0000
0100
0010
0001
0000
1100
0000
0001
0000
0000
0000
,
0010
0100
0010
0100
1000
0000
0100
0000
0001
0000
0010
0000
2000
0100
0010
0000
,
3000
0000
0011
0100
1000
0000
0100
0000
1000
0000
0100
0000
1000
0001
1000
0000
,
0010
1000
0100
0110
1001
0010
2000
0001
,
3001
0100
0010
0100
0001
0010
2000
0000
,
3001
0010
0100
1000
0100
0000
0100
0000
1000
0000
0101
0000
1000
0100
0020
0000
,
0000
0000
1030
0100
0001
0010
0000
0100
0001
0000
0110
0000
1000
0001
1000
0000
,
0100
0010
1100
0000
0100
0000
0001
0000
0010
0000
0100
0000
0010
0000
0100
0000
,
2001
0000
0001
0000
3002
0000
1000
0000
2003
0000
0001
0000
3001
0000
0000
1010
,
0000
0101
0000
0000
0000
0110
0000
0000
0000
0000
0000
2002
0000
0000
0000
0000
,
0000
0000
3003
0000
0000
0110
0000
0010
0100
1001
0000
0100
1000
0110
0000
0100
,
0000
1020
0000
0000
0030
2000
0000
0000
0001
0010
3000
0210
0000
0000
0000
0010
,
0000
0320
0000
0030
0000
0001
0000
1000
1001
0000
0000
0110
0000
1100
0000
0011
,
0000
2001
0000
0000
0000
3010
0000
0000
1001
0100
0000
0001
0000
0010
0000
1001
,
0000
0102
0000
0000
0003
1010
0000
0000
0110
1000
0000
0100
0000
0001
0000
0010
,
0000
2MM2
0000
0000
0000
3003
0000
0000
0000
0000
0000
0000
0000
0000
0000
0000
;

//---------------dance-single - Blank----------------
#NOTEDATA:;
#CHARTNAME:;
#STEPSTYPE:dance-single;
#DESCRIPTION:Blank;
#CHARTSTYLE:;
#DIFFICULTY:Medium;
#METER:3;
#RADARVALUES:0.423,0.383,0.128,0.332,0.132,294.000,15.000,39.000,0.000,0.000,0.000,0.000,0.000,0.423,0.383,0.128,0.332,0.132,294.000,15.000,39.000,0.000,0.000,0.000,0.000,0.000;
#CREDIT:;
#OFFSET:-0.100;
#BPMS:0.000=120.010
;
#STOPS:;
#DELAYS:;
#WARPS:;
#TIMESIGNATURES:0.000=4=4
;
#TICKCOUNTS:0.000=4
;
#COMBOS:0.000=1
;
#SPEEDS:0.000=1.000=0.000=0
;
#SCROLLS:0.000=1.000
,86.500=0.000
,86.750=1.000
,87.000=0.000
,87.875=1.000
,91.000=2.000
,91.750=1.000
,100.000=0.800
,131.500=1.000
,211.750=0.000
,211.875=1.000
,216.250=1.500
,217.000=1.000
;
#FAKES:;
#LABELS:0.000=Song Start
;
#NOTES:
// measure 0
0000
0000
0000
0000
,  // measure 1
1001
0010
0000
0100
0010
0100
1000
0100
,  // measure 2
0000
1000
0100
1000
0000
0010
0100
0100
,  // measure 3
0100
0001
0000
1000
0001
1000
0001
1000
,  // measure 4
0000
0001
0010
0001
0000
0010
0100
0010
,  // measure 5
1000
0001
0000
0010
0100
0010
0100
0000
,  // measure 6
0000
0001
1000
0001
0000
1000
0100
1000
,  // measure 7
0100
0001
0000
0010
1000
0100
0001
0100
,  // measure 8
0000
2002
0000
0000
0000
3003
0010
0000
,  // measure 9
2000
0000
0000
0000
3000
0100
0010
0200
,  // measure 10
0000
0000
0300
2000
0000
3001
1000
0001
,  // measure 11
1000
0000
0001
0010
0100
1000
0100
1000
,  // measure 12
0000
0001
1000
0001
0000
0010
0001
0010
,  // measure 13
0100
1000
0100
1000
0001
0010
0100
1000
,  // measure 14
0000
0001
0010
0001
0000
0010
0100
0010
,  // measure 15
0100
0010
0100
1000
0100
0001
1000
0001
,  // measure 16
0000
0001
1000
0002
0000
0003
0010
1000
,  // measure 17
0010
0100
0010
1000
0001
1000
0100
0001
,  // measure 18
0010
0100
0010
0100
0000
0001
0010
0100
,  // measure 19
0000
0100
0010
0100
0010
0100
0010
0100
,  // measure 20
0220
0000
0000
0000
0000
0000
0000
0330
,  // measure 21
1001
0100
1000
0010
0100
2002
0000
3003
,  // measure 22
0001
0010
0100
1000
0001
0010
0200
0000
,  // measure 23
0310
1000
0100
1000
0010
0100
0010
0100
,  // measure 24
2002
0000
0000
0000
0000
3003
1001
0010
,  // measure 25
0100
0000
0000
2000
0000
0000
3000
0000
,  // measure 26
0002
0000
0003
0000
0010
0100
0010
0000
,  // measure 27
2000
0000
0000
3000
0002
0000
0000
0003
,  // measure 28
1000
0001
1000
0100
,  // measure 29
0010
1000
0001
0100
,  // measure 30
1000
0100
1000
0100
,  // measure 31
0001
1000
0100
0010
,  // measure 32
1000
0100
0010
0001
,  // measure 33
0010
1001
0100
0110
,  // measure 34
0002
1003
0010
1000
,  // measure 35
1000
0001
1020
1030
,  // measure 36
2000
3001
1000
0002
,  // measure 37
1003
1001
1000
0101
,  // measure 38
1000
1000
1001
0010
,  // measure 39
0010
0200
0310
0020
,  // measure 40
2030
0000
3100
0000
0002
0003
0020
0130
,  // measure 41
0100
0010
0000
0100
0001
0100
0001
0000
,  // measure 42
0010
0100
1000
0100
0001
0010
0100
0010
,  // measure 43
0000
0001
1000
0100
1000
0100
1000
0100
,  // measure 44
0010
1000
0100
0010
0001
0010
0100
0001
,  // measure 45
0000
0100
0010
0100
0001
0010
2000
0000
,  // measure 46
3001
0100
1000
0100
1000
0001
1000
0020
,  // measure 47
0000
1030
0100
0000
0010
0100
1000
0010
,  // measure 48
0100
1000
0100
0001
0010
0100
0010
0100
,  // measure 49
2000
0000
0000
0000
3002
0000
0000
0000
2003
0000
0000
0000
3000
0000
0000
0010
,  // measure 50
0000
0100
0000
0000
0000
0010
0000
0000
0000
0000
0000
2000
0000
0000
0000
0000
,  // measure 51
0000
0000
3000
0000
0000
0100
0000
0000
0000
1001
0000
0000
0000
0010
0000
0100
,  // measure 52
0000
0020
0000
0000
0030
2000
0000
0000
0000
0010
3000
0200
0000
0000
0000
0020
,  // measure 53
0000
0300
0000
0030
0000
0001
0000
1000
0000
0000
0000
0010
0000
0100
0000
0010
,  // measure 54
0000
2000
0000
0000
0000
3010
0000
0000
0000
0100
0000
0001
0000
0010
0000
1000
,  // measure 55
0000
0002
0000
0000
0003
1000
0000
0000
0000
1000
0000
0100
0000
0001
0000
0010
,  // measure 56
0000
2001
0000
0000
0000
3000
0000
0000
0000
0000
0000
0000
0000
0000
0000
0000
;

//---------------dance-single - Blank----------------
#NOTEDATA:;
#CHARTNAME:;
#STEPSTYPE:dance-single;
#DESCRIPTION:Blank;
#CHARTSTYLE:;
#DIFFICULTY:Challenge;
#METER:6;
#RADARVALUES:0.978,0.886,1.000,0.833,0.438,454.000,232.000,98.000,0.000,65.000,0.000,0.000,0.000,0.978,0.886,1.000,0.833,0.438,454.000,232.000,98.000,0.000,65.000,0.000,0.000,0.000;
#CREDIT:;
#OFFSET:-0.100;
#BPMS:0.000=120.010
;
#STOPS:;
#DELAYS:;
#WARPS:;
#TIMESIGNATURES:0.000=4=4
;
#TICKCOUNTS:0.000=4
;
#COMBOS:0.000=1
;
#SPEEDS:0.000=1.000=0.000=0
;
#SCROLLS:0.000=1.000
,86.500=0.000
,86.750=1.000
,87.000=0.000
,87.875=1.000
,91.000=6.000
,91.750=1.000
,100.000=0.800
,131.500=1.000
,211.750=0.000
,211.875=1.000
,216.250=4.000
,217.000=1.000
,224.250=0.500
,224.500=2.000
,224.750=0.500
,225.000=2.000
,225.250=0.500
,225.500=1.000
;
#FAKES:;
#LABELS:0.000=Song Start
;
#NOTES:
0000
0000
0000
0000
,
1101
0000
0010
0110
0000
0000
0100
0000
1010
0000
0100
0000
0101
0000
1200
0000
,
1000
0000
1300
0000
0110
0000
2002
0000
3113
0000
0010
0000
0100
1010
0100
0000
,
0110
0000
0010
0110
0000
0000
1000
0000
0101
0000
1000
0000
0111
0000
2010
0000
,
0101
0000
3001
0000
0010
0000
0112
0000
1100
0000
1013
0000
0110
1001
0110
0000
,
1000
0000
1010
1001
0000
0000
0010
0000
1200
0000
2311
0000
3112
0000
2003
0000
,
0011
0000
3001
0000
1000
0100
0012
0000
1100
0000
0013
0000
0100
0010
0100
0000
,
0100
0000
1001
0210
0000
0000
0310
0000
1010
0000
0200
0000
0311
0000
1020
0000
,
1100
0000
1030
0000
1100
0110
2001
0000
0001
0000
3001
0000
1010
0110
1010
0000
,
2021
0001
3031
1100
1010
0101
1010
0210
,
1001
0000
0310
0000
0110
0000
2100
0010
0001
0000
3001
0000
0010
0100
1000
0000
,
1001
0210
2301
3112
0103
1010
0101
2001
,
0011
0000
3101
0000
1000
0000
0101
0000
2010
0000
3120
0000
0131
1100
0101
0000
,
0100
0000
1000
0000
0101
0000
1010
0000
0001
0000
1010
0000
1100
0000
2000
0100
,
0011
0000
3001
0000
0110
0000
2002
0000
3103
0000
0010
0000
1100
0011
1100
0000
,
0110
1020
1130
1000
0100
0001
1010
2002
,
0110
0000
3113
0000
1000
0110
0002
0110
1000
0000
1013
0000
0010
0100
1000
0000
,
1000
0000
0100
0000
0011
0000
1000
0000
0101
0000
1000
0110
1000
0000
1001
0000
,
0010
0000
0110
0000
0102
0000
2003
0000
3210
0000
0301
0000
1010
0101
1010
0000
,
1001
1100
0011
0110
1000
1001
0110
2002
,
0213
0000
3301
0000
0010
0000
0102
0000
2100
0000
3013
0000
0100
0010
1001
0000
,
1101
0110
1000
0010
0100
1101
2001
0000
,
3001
1010
0110
1001
0101
1010
0210
0000
,
1311
0010
0100
1010
1001
0200
1300
0020
,
0100
0000
1030
0000
0100
0000
0020
0000
0001
0000
0031
0000
1000
0100
0010
0000
,
0120
0000
0000
2030
0001
0000
3000
0000
,
0002
1000
0103
1001
0010
1100
0101
0000
,
2002
0000
0003
0002
0000
0000
3000
0003
0002
0000
0000
1000
0000
0000
0003
1000
,
0000
1000
0100
0010
0001
0000
1000
0000
1000
0000
0001
0000
0100
0000
0000
0000
,
0110
1001
0011
0101
,
1010
0000
0100
0010
0000
0000
0100
0000
1000
0000
0010
0000
0100
1010
0000
0000
,
2002
0000
3000
0000
2003
0000
0000
0000
3020
0000
0000
0000
0230
0000
0000
0011
,
0302
0000
0000
1100
2003
0000
0000
0011
3200
0000
0000
1000
2300
0000
0000
0000
,
3010
0001
1001
0110
0100
1000
0110
1001
,
0001
0000
0110
0001
1000
0000
0001
0000
0010
0000
1010
0100
1000
0000
1100
0010
,
2001
0010
3101
1010
1020
0200
1330
0201
,
2300
0000
0010
0000
3101
0000
0011
0000
1100
0000
0010
0000
0002
0010
0100
0000
,
1003
0110
1001
0100
1000
1010
0101
0010
,
1000
0000
1010
0110
1000
0000
0010
0000
1001
0000
0100
0000
0010
0100
1000
0000
,
0210
1300
0200
1010
1300
0001
0020
0101
,
2030
0000
0000
0010
3200
0000
0301
0000
0002
0000
0113
0100
0020
0000
0130
1000
,
0100
0000
0011
1100
0000
0000
0110
1010
1001
0000
1110
0000
2002
0000
0000
3003
,
1010
0100
0011
0100
1010
0100
0110
0000
0001
0000
0010
0000
2001
0100
0012
0000
,
3003
0000
0011
0100
1000
0000
0110
0000
1001
0000
0110
0000
1000
1001
1000
0000
,
0010
0000
1000
0000
0100
0000
0110
0000
1001
0000
0010
0000
2001
0000
0001
0001
,
3001
0000
0100
0010
0000
0110
0000
1001
0000
1110
0000
2102
0000
0000
0003
0000
,
3001
0010
0100
1000
0100
0000
0101
0000
1010
0000
0101
0000
1000
0100
0021
0000
,
0000
0000
1030
0100
0001
0010
0000
0100
0001
0000
0110
0000
1010
0001
1000
0000
,
0100
0010
1100
0000
0100
0000
1001
0000
1010
0000
0101
0000
1010
0000
0110
0000
,
2001
0000
0001
0000
3002
0000
1000
0000
2013
0000
0101
0000
3011
0000
0000
1011
,
0000
0111
0000
0000
0000
1110
0000
0000
0000
1001
0000
2002
0000
0000
0000
0000
,
0000
0110
3003
0000
0000
0110
0000
0010
0100
1011
0000
0100
1000
0111
0000
0101
,
0000
1020
0000
0200
0030
2300
0000
0000
0001
0010
3000
0210
0000
1010
0000
0010
,
0000
0320
0000
0030
0000
0001
0000
1000
2102
3003
0000
0110
0000
1100
0000
0011
,
0000
2002
0000
0000
0000
3013
0000
0000
1001
0110
0000
1001
0000
0110
0000
1001
,
0000
0102
0000
1100
0003
1010
0000
0000
0110
1000
0000
0110
0000
1001
0000
1010
,
0000
2112
0000
0000
0000
3003
0000
0000
0000
0000
0000
0000
0000
0000
0000
0000
;
