#VERSION:0.81;
#TITLE:Tonight;
#SUBTITLE:;
#ARTIST:Big Bang;
#TITLETRANSLIT:;
#SUBTITLETRANSLIT:;
#ARTISTTRANSLIT:;
#GENRE:K Pop;
#ORIGIN:;
#CREDIT:;
#BANNER:Tonight.png;
#BACKGROUND:Tonight-bg.png;
#JACKET:;
#CDIMAGE:;
#DISCIMAGE:;
#LYRICSPATH:;
#CDTITLE:cdtitle.png;
#MUSIC:BIGBANG TONIGHT.mp3;
#OFFSET:0.000;
#SAMPLESTART:100.000;
#SAMPLELENGTH:12.000;
#SELECTABLE:YES;
#BPMS:0.000=130.020;
#STOPS:;
#DELAYS:;
#WARPS:;
#TIMESIGNATURES:0.000=4=4;
#TICKCOUNTS:0.000=4;
#COMBOS:0.000=1;
#SPEEDS:0.000=1.000=0.000=0;
#SCROLLS:0.000=1.000;
#FAKES:;
#LABELS:0.000=Song Start;
#BGCHANGES:0.000=Tonight.avi=1.000=0=0=0=StretchNoLoop====,
99999=-nosongbg-=1.000=0=0=0 // don't automatically add -songbackground-
;
#KEYSOUNDS:;
#ATTACKS:
;

//---------------dance-single - Blank----------------
#NOTEDATA:;
#CHARTNAME:;
#STEPSTYPE:dance-single;
#DESCRIPTION:Blank;
#CHARTSTYLE:;
#DIFFICULTY:Hard;
#METER:6;
#RADARVALUES:0.666,0.929,0.461,0.403,1.000,848.000,103.000,90.000,20.000,29.000,0.000,0.000,0.000,0.666,0.929,0.461,0.403,1.000,848.000,103.000,90.000,20.000,29.000,0.000,0.000,0.000;
#CREDIT:Blue army;
#OFFSET:-0.040;
#BPMS:0.000=130.020
;
#STOPS:;
#DELAYS:;
#WARPS:;
#TIMESIGNATURES:0.000=4=4
;
#TICKCOUNTS:0.000=4
;
#COMBOS:0.000=1
;
#SPEEDS:0.000=1.000=0.000=0
,34.500=2.000=0.000=0
,34.750=1.000=0.000=0
,36.500=2.000=0.000=0
,36.750=1.000=0.000=0
,50.500=2.000=0.000=0
,50.750=1.000=0.000=0
,52.500=2.000=0.000=0
,52.750=1.000=0.000=0
,409.500=2.000=0.000=0
,409.750=1.000=0.000=0
,442.750=0.000=0.000=0
,443.750=1.000=0.000=0
,463.250=2.000=0.000=0
,463.500=1.000=0.000=0
,464.250=2.000=0.000=0
,464.500=1.000=0.000=0
,474.000=3.000=0.000=0
,474.250=1.000=0.000=0
;
#SCROLLS:0.000=1.000
,30.750=2.000
,32.750=1.000
,54.250=0.000
,55.000=1.000
,62.250=0.000
,62.500=1.500
,63.250=0.000
,63.500=1.500
,64.250=0.000
,64.500=1.000
,66.250=0.500
,66.500=1.000
,94.750=0.500
,96.750=1.000
,106.750=0.500
,107.250=1.000
,108.750=0.500
,109.250=1.000
,198.750=0.500
,200.000=1.000
,200.750=0.500
,201.000=1.000
,206.750=0.500
,207.750=1.000
,208.750=0.500
,209.500=1.000
,222.750=0.500
,223.750=0.250
,224.750=0.125
,225.750=1.000
,369.250=0.700
,408.750=1.000
,444.250=0.500
,470.250=0.300
,472.250=1.000
,473.750=0.500
,474.000=1.000
,474.250=0.500
,474.500=1.000
;
#FAKES:;
#LABELS:0.000=Song Start
;
#ATTACKS:TIME=14.230124:LEN=0.346100:MODS=Mini, 50% Tornado, Overhead:TIME=14.345491:LEN=0.461467:MODS=Mini, 50% Tornado, Overhead:TIME=58.531002:LEN=0.576832:MODS=Drunk, Dizzy, Mini, Bumpy, Overhead:TIME=117.598839:LEN=0.576828:MODS=Drunk, Mini, Beat, 45% XMode, Twirl, Overhead:TIME=167.437317:LEN=2.191971:MODS=Mini, Twirl, Overhead;
#NOTES:
0000
0000
0000
0000
0000
2000
0000
0001
,
3000
0001
0000
1000
0000
0001
0000
1000
,
0000
0001
0000
1000
0000
2000
0000
0001
,
0000
0010
0000
0001
0000
3010
0000
0100
,
0000
0010
0000
0100
0000
0010
0000
0100
,
0000
1001
0000
0110
0000
1000
0000
0001
0000
1000
0000
0001
0000
1000
0000
0001
,
0000
1000
0000
0100
0000
0010
0000
0100
0000
1000
0000
0100
0000
0010
0000
2000
,
0000
0010
0000
0100
0000
0001
0000
0100
0000
3001
0000
0220
0000
0000
0000
0000
,
0000
0000
0000
0330
0000
1002
0000
1003
0000
0110
0000
1010
0000
0000
0000
0000
,
0000
1010
0000
0011
0000
0000
0000
0000
0000
1000
0000
0100
0000
0010
0000
0001
,
0000
0010
0000
0100
0000
1000
0100
1000
0000
0110
0000
0200
0000
0010
0000
0300
,
0000
0010
0000
1002
0000
0000
0000
0000
0003
1000
0000
0100
0000
0010
0000
0001
,
0000
1000
0000
0010
0000
0100
0000
0001
0000
0110
0000
1100
0000
0000
0000
0000
,
0000
0011
0000
0110
0000
0000
0000
0000
0000
1001
0000
0000
0000
0110
0000
0000
,
0000
0001
0000
0010
0000
0100
0000
1000
0000
0100
0000
0020
0000
0000
0000
0000
,
0030
0100
0000
0002
0000
0000
0000
0003
0000
1000
0000
0000
0000
0001
0000
0000
,
0000
1000
0000
0000
0000
0100
0010
0100
0000
0110
0000
0001
0000
1000
0000
0001
,
0000
0100
0000
0020
0000
0030
0000
0001
0000
0010
0000
0100
0000
0010
0000
1000
,
0000
0001
0000
0200
0000
0310
0000
1001
0000
0010
0000
0100
0000
0010
0000
0100
,
0000
0010
0000
2000
0000
0001
3000
0010
0000
0001
0000
0010
0000
0100
0000
0001
,
0000
1000
0000
0100
0000
0011
0000
2000
0000
0000
3000
0001
0100
0010
0100
0010
,
0000
0100
0000
0001
0000
0100
0000
1000
0000
0100
0000
0010
0000
1001
0000
0100
,
0000
0010
0000
2000
0000
0000
0000
3001
0000
0000
0000
0100
0010
0100
0010
1000
,
0000
0001
0000
0100
0000
0110
0000
1002
0000
0003
0000
1000
0000
0010
0000
0100
,
0000
0001
0000
1010
0000
0100
0000
0010
0000
0100
0000
0001
0000
0010
0000
0001
,
0000
0200
0000
0000
0300
0010
0100
0010
0000
0100
0000
0001
0000
1000
0000
0010
,
0000
1010
0000
0000
0000
0100
0010
0001
0000
1000
0000
0002
0000
0003
0000
0100
,
0000
0001
0000
0200
0000
0300
0000
1000
0000
0100
0000
0010
0000
0001
0000
0010
,
0000
0200
0000
0000
0300
1000
0010
1000
0000
0001
0000
0010
0000
0100
0000
0001
,
0000
0011
0000
0000
0000
1000
0000
0100
0000
0010
0000
0001
0000
0010
0000
0001
,
0000
1001
0000
0000
0000
1000
0000
0100
0000
0010
0000
0001
0100
0010
0100
0001
,
0100
0010
0100
0001
0100
0010
0100
0001
0100
0010
0100
0220
0000
0000
0000
0000
,
0000
0000
0330
0000
0000
1000
0000
0100
0000
0010
0000
0002
0000
0000
0000
0003
,
0000
1000
0000
0000
0000
0010
0000
0001
0000
0100
0000
0010
0000
0000
1000
0100
,
0000
0010
0000
1001
0000
0000
0001
0010
0000
0100
0000
1010
0000
0000
1000
0100
,
0000
0010
0000
0101
0000
0000
0001
0010
0000
0100
0000
1010
0000
0000
1000
0100
,
0000
0010
0000
1010
0000
0000
0001
0010
0000
0100
0000
0101
0000
0000
1000
0100
,
0000
0010
0000
1010
0000
0000
0001
0010
0000
0100
0000
1010
0000
0000
1000
0100
,
0000
0010
0000
1010
0000
0000
0001
0010
0000
0100
0000
1001
0000
0000
1000
0100
,
0000
0010
0000
1001
0000
0000
1000
0100
0000
0010
0000
0101
0000
0000
0001
0010
,
0000
0100
0000
1010
0000
0000
1000
0100
0000
0220
0000
0000
0000
0000
0000
0002
,
0000
0000
0000
2003
0000
0000
0000
3002
0000
2003
0000
0000
0000
0000
0000
3002
,
0000
0000
0000
2003
0000
0000
0000
3002
0000
2003
0000
0000
0000
0000
0000
3002
,
0000
0000
0000
2003
0000
0000
0000
3002
0000
2003
0000
0000
0000
0000
0000
3002
,
0000
0000
0000
1003
0330
0000
0000
1000
0000
0100
0000
0011
0000
0000
0000
0011
,
0000
0000
0000
1100
0000
0000
0000
0011
0000
0200
0000
0000
0000
0000
0310
0000
,
0000
1001
0000
0000
0000
0010
0000
1000
0000
0100
0000
0100
0000
0000
0000
1010
,
0000
0000
0000
0001
0000
0000
0110
0000
0000
0020
0000
0000
0000
0030
0000
1000
,
0000
0100
0000
0010
0000
0001
0000
0010
0000
0001
0000
1000
0000
0100
0000
0001
,
0000
0010
0000
0100
0000
1001
0000
0010
0000
0100
0000
0020
0000
0000
0000
0000
,
0030
1000
0000
0200
0000
0300
0000
0001
0000
1000
0000
0001
0000
1000
0000
0001
,
0000
1000
0000
0100
0000
0010
0000
0100
0000
0010
0000
0200
0000
0000
0000
0300
,
0000
0001
0000
0002
0000
0000
0003
2000
0000
0000
3000
0010
0000
0100
0000
0010
,
0000
0100
0000
0000
0000
0002
0000
0000
0000
0003
0000
1000
0000
0100
0000
0010
,
0000
0100
0000
0010
0000
0001
0010
0100
0000
1000
0000
0010
0000
1000
0000
0010
,
0000
0100
0000
0010
0000
0001
0000
0100
0000
0010
0000
0101
0000
0000
0000
1001
,
0000
0000
0000
0110
0000
0000
0000
0002
0000
0000
0000
2003
0000
0000
3000
0020
,
0000
0000
0000
0130
0000
0001
0000
0020
0000
0000
0000
1030
0000
0000
0000
0002
,
0000
1000
0003
0100
0000
0010
0000
1000
0000
0002
0000
0000
0000
1003
0000
0010
,
0000
1000
0000
0001
0000
0100
0000
0010
0000
2000
0000
0001
0000
0000
3000
0002
,
0000
0000
0003
0200
0000
0000
0300
0020
0000
0100
0030
1000
0000
0100
0000
0010
,
0000
0001
0000
1000
0000
0010
0000
0100
0000
0010
0000
0001
0010
0100
0000
0010
,
0000
0100
0000
0001
0000
0010
0000
0100
0000
0010
0000
0100
0010
0100
0001
1000
,
0010
0100
0001
1000
0010
0100
0001
1000
0100
0010
0000
2002
0000
0000
0000
0000
,
0000
0000
0000
3003
0000
0010
0000
0100
0000
0010
0000
1100
0000
0000
1000
0100
,
0000
0010
0000
1010
0000
0000
0001
0010
0000
0100
0000
0101
0000
0000
1000
0100
,
0000
0010
0000
0011
0000
0000
0100
0010
0000
0100
0000
0110
0000
0000
1000
0100
,
0000
0010
0000
0110
0000
0000
0001
0010
0000
0001
0000
0101
0000
0000
1000
0010
,
0000
0100
0000
0110
0000
0000
1000
0100
0000
0010
0000
1010
0000
0000
0100
0010
,
0000
0001
0000
0011
0000
0000
0001
0100
0000
0001
0000
1100
0000
0000
1000
0100
,
0000
0010
0000
0011
0000
0000
0100
0001
0000
1010
0000
0100
0000
0000
0100
0010
,
0000
0001
0000
0101
0000
0000
1000
0100
0000
0010
0000
0011
0000
0000
1000
0100
,
0000
0010
0000
0011
0000
0000
0100
0010
0000
0100
0000
0020
0000
0000
0000
2000
,
0000
0000
0000
3002
0000
0000
0000
2003
0000
3200
0000
0000
0000
0000
0000
2300
,
0000
0000
0000
3002
0000
0000
0000
2003
0000
3200
0000
0000
0000
0000
0000
0302
,
0000
0000
0003
2000
0000
0000
0000
3002
0000
0200
0003
0000
0000
0000
0300
0002
,
0000
0000
0000
1033
0000
0000
0001
0010
0000
0100
0000
0011
0000
0000
0000
1100
,
0000
0000
0000
0010
0000
0000
0100
0000
0000
0001
0000
0010
0000
0000
1000
0100
,
0000
0010
0000
0011
0000
0000
0100
0001
0000
0010
0000
0011
0000
0000
1000
0100
,
0000
0010
0000
0110
0000
0000
1000
0100
0000
0010
0000
1001
0000
0000
1000
0100
,
0000
0010
0000
0110
0000
0000
0000
1000
0000
0000
0000
0010
0000
0000
0000
0010
,
0100
0010
0100
0001
0010
0001
1000
0010
0100
0001
0100
0010
0100
0001
1000
0010
,
0100
0001
0010
0100
0001
1000
0010
0100
0001
1000
0010
0100
0001
0100
0010
0100
,
0001
0100
0010
0001
0100
0010
0100
0010
1000
0010
1000
0010
0100
0010
0100
0001
,
0100
0010
1000
0101
0010
0001
0010
0100
0010
1000
0001
0100
0010
0100
0001
1000
,
0010
0100
1001
0010
0100
0001
1000
0010
0100
0001
1000
0010
0100
1001
0010
0100
,
0001
1000
0010
0100
0001
1000
0010
0100
0001
0100
0010
1000
0000
0100
0000
0010
,
0000
0001
0000
0010
0000
0100
0000
1000
0000
0100
0000
0010
0000
1000
0000
0001
,
0000
1000
0000
0001
0000
1000
0000
0001
0000
0010
0000
1000
0000
0001
0000
0100
,
0000
1000
0000
0100
0000
0010
0000
0001
0000
1000
0000
0001
1000
0100
0010
0001
,
0010
0100
1000
0100
0010
0001
0010
0100
1000
0100
0001
2002
0000
0000
0000
0000
,
0000
0000
0000
0000
,
0000
0000
3003
0000
0000
1000
0000
0001
0000
1000
0000
0001
0000
1000
0000
0001
,
0000
1000
0000
0001
0000
1000
0000
0001
0000
1000
0000
0010
0000
0010
0000
0010
,
0000
0100
0000
0010
0000
0100
0000
0001
0000
0010
0000
2000
0000
0000
0000
3000
,
0000
0001
0000
0000
0000
0010
0000
0001
0000
0010
0000
0000
0000
0100
0000
1000
,
0000
0100
0000
1000
0000
0100
0000
0011
0000
0100
0000
0001
0000
0010
0000
0001
,
0000
0010
0000
0001
0000
0010
0000
0001
0000
0010
0000
2000
0000
0010
0000
0001
,
0000
0010
0000
0001
0000
0010
0000
0001
0000
0010
0000
3002
0000
0010
0000
0100
,
0000
0010
0000
0100
0000
0010
0000
0100
0000
0010
0000
0203
0000
0010
0000
0001
,
0000
0010
0000
0001
0000
0010
0000
0301
0000
1000
0000
0010
0000
0001
0000
0010
,
0000
0100
0000
1000
0000
0100
0000
0010
0000
2002
0000
0010
0000
0100
0000
3013
,
0000
0100
0000
0020
0000
0030
0000
1001
0000
0010
0000
1000
0000
0000
0010
0001
,
0000
0001
0000
0110
0000
0000
1000
0100
0000
0010
0000
0011
0000
0000
1000
0100
,
0000
0010
0000
0011
0000
0000
0100
0010
0000
1000
0000
1010
0000
0000
0100
0010
,
0000
0010
0000
1100
0000
0000
1000
0100
0000
0010
0000
0011
0000
0000
0100
0010
,
0000
0011
0000
1001
0000
0000
1000
0100
0000
0010
0000
0011
0000
0000
0100
1000
,
0000
1000
0000
1010
0000
0000
1000
0010
0000
0100
0000
0011
0000
0000
1000
0100
,
0000
0011
0000
0001
0000
0010
0100
1000
0000
1000
0000
0110
0000
0000
0100
0010
,
0000
0001
0000
1001
0000
0000
1000
0100
0000
0001
0000
1010
0000
0000
1000
0001
,
0000
0010
0000
1001
0000
0000
1000
0100
0000
0010
0000
1002
0000
0000
0000
0000
,
0003
2000
0000
0000
0000
3010
0000
0001
0000
0020
0000
0000
0000
0000
0000
0000
,
0000
0000
0000
0030
0000
1000
0000
0100
0000
0010
0000
0001
0000
0010
0000
0100
,
0000
1000
0000
0100
0000
0010
0000
0001
0000
0220
0000
0000
0000
0000
0000
0000
,
0000
0000
0000
0330
0000
1000
0000
0001
0000
1000
0000
0020
0000
0000
0000
0000
,
0030
0100
0000
0000
0000
0100
0000
0010
0000
0002
0000
0000
0000
1000
0000
0000
,
0000
1003
0000
0000
0000
0000
0000
0100
0000
0010
0000
0001
0000
1000
0000
0100
,
0000
0010
0000
1000
0000
0010
0000
0010
0000
2002
0000
0000
0000
0000
0000
0000
,
0000
0000
3113
0000
0000
0000
0000
0000
0000
0000
0000
0000
0000
0000
MMMM
MMMM
MMMM
MMMM
MMMM
0000
0000
0000
0000
0000
0000
0000
0000
0000
0000
0000
0000
0000
;

//---------------dance-single - Blank----------------
#NOTEDATA:;
#CHARTNAME:;
#STEPSTYPE:dance-single;
#DESCRIPTION:Blank;
#CHARTSTYLE:;
#DIFFICULTY:Challenge;
#METER:7;
#RADARVALUES:0.827,0.929,0.811,0.502,1.000,1000.000,181.000,112.000,20.000,41.000,0.000,0.000,0.000,0.827,0.929,0.811,0.502,1.000,1000.000,181.000,112.000,20.000,41.000,0.000,0.000,0.000;
#CREDIT:;
#OFFSET:-0.040;
#BPMS:0.000=130.020
;
#STOPS:;
#DELAYS:;
#WARPS:;
#TIMESIGNATURES:0.000=4=4
;
#TICKCOUNTS:0.000=4
;
#COMBOS:0.000=1
;
#SPEEDS:0.000=1.000=0.000=0
,34.500=2.000=0.000=0
,34.750=1.000=0.000=0
,36.500=2.000=0.000=0
,36.750=1.000=0.000=0
,50.500=2.000=0.000=0
,50.750=1.000=0.000=0
,52.500=2.000=0.000=0
,52.750=1.000=0.000=0
,409.500=2.000=0.000=0
,409.750=1.000=0.000=0
,442.750=0.000=0.000=0
,443.750=1.000=0.000=0
,463.250=2.000=0.000=0
,463.500=1.000=0.000=0
,464.250=2.000=0.000=0
,464.500=1.000=0.000=0
,474.000=3.000=0.000=0
,474.250=1.000=0.000=0
;
#SCROLLS:0.000=1.000
,30.750=2.000
,32.750=1.000
,54.250=0.000
,55.000=1.000
,62.250=0.000
,62.500=1.500
,63.250=0.000
,63.500=1.500
,64.250=0.000
,64.500=1.000
,66.250=0.500
,66.500=1.000
,94.750=0.500
,96.750=1.000
,106.750=0.500
,107.250=1.000
,108.750=0.500
,109.250=1.000
,198.750=0.500
,200.000=1.000
,200.750=0.500
,201.000=1.000
,206.750=0.500
,207.750=1.000
,208.750=0.500
,209.500=1.000
,222.750=0.500
,223.750=0.250
,224.750=0.125
,225.750=1.000
,362.750=10.000
,364.000=0.200
,366.000=20.000
,368.000=1.000
,369.250=0.700
,408.750=1.000
,444.250=0.500
,470.250=0.300
,472.250=1.000
,473.750=0.500
,474.000=1.000
,474.250=0.500
,474.500=1.000
;
#FAKES:;
#LABELS:0.000=Song Start
;
#ATTACKS:TIME=14.230124:LEN=0.346100:MODS=Mini, 50% Tornado, Overhead:TIME=14.345491:LEN=0.461467:MODS=Mini, 50% Tornado, Overhead:TIME=58.531002:LEN=0.576832:MODS=Drunk, Dizzy, Mini, Bumpy, Overhead:TIME=117.598839:LEN=0.576828:MODS=Drunk, Mini, Beat, 45% XMode, Twirl, Overhead:TIME=167.437317:LEN=2.191971:MODS=Mini, Twirl, Overhead:TIME=218.198730:LEN=0.922943:MODS=Confusion, Invert, Reverse, Distant:TIME=218.544830:LEN=0.230743:MODS=Drunk, Alternate, Overhead;
#NOTES:
0000
0000
0000
0000
0000
2001
0000
0001
,
3000
0001
0000
1100
0000
0011
0000
1100
,
0000
0011
0000
1001
0000
2010
0000
0001
,
0000
0010
0000
0001
0000
3010
0000
0100
,
0000
0010
0000
0100
0000
0010
1000
0100
,
0000
1001
0000
0110
0000
1000
0000
0001
0000
1000
0000
0001
0000
1000
0000
0001
,
0000
1000
0000
0100
0000
0010
0000
0100
0000
1000
0000
0100
0000
0010
0000
2000
,
0000
0010
0000
0100
0000
0001
0000
0100
0000
3001
0000
0220
0000
0000
0000
0000
,
0000
0000
0000
0330
0000
1002
0000
1003
0000
0110
0000
1010
0000
0001
0010
0001
,
0000
1010
0000
0011
0000
1000
0100
0010
0000
1000
0000
0100
0000
0010
0000
0001
,
0000
0010
0000
0100
0000
1000
0100
1000
0000
0110
0000
0200
0000
0010
0001
0300
,
0000
0010
0000
1002
0000
0000
1000
0000
0003
1000
0000
0100
0000
0010
0000
0001
,
0000
1000
0000
0010
0000
0100
0000
0001
0000
0110
0000
1100
0000
0100
0010
0001
,
0000
0011
0000
0110
0000
1000
0100
0010
0000
1001
0000
0000
0000
0110
1001
0000
,
0000
0001
0000
0010
0000
0100
0000
1000
0000
0100
0000
0120
0000
0000
0100
0000
,
0030
0100
0000
1002
0000
0000
1000
0003
0000
2002
0000
3003
0000
0202
0000
0303
,
0000
2020
0000
3030
0000
0100
0010
0100
0000
0110
0000
0001
0000
1000
0000
0001
,
0000
0100
0000
0010
0001
0010
0100
1100
0000
0010
0000
0100
0000
0010
0000
1000
,
0000
0001
0000
0100
0010
0001
0010
0110
0000
0010
0000
0100
0000
0010
0000
0100
,
0000
0010
0000
1000
0100
0010
0001
0101
0000
0001
0000
0010
0000
0100
0000
0001
,
0000
1000
0000
0100
0000
0011
0000
2000
0000
0000
3000
0001
0100
0010
0100
0010
,
0000
0100
0000
0001
0010
0100
1000
1001
0000
0100
0000
0010
0000
1001
0000
0100
,
0000
0000
0010
0000
0000
0000
2000
0000
0100
0000
0010
0000
0001
3000
2002
0000
0000
0000
0000
0000
3003
0000
0100
0000
0010
0000
0100
0000
0010
0000
1000
0000
,
0000
0001
0000
0100
0000
0110
0000
1002
0000
0003
0000
1000
0000
0010
0000
0100
,
0000
0001
0000
1010
0000
0100
0000
0010
0000
0100
0000
1001
0000
0110
0000
1001
,
0000
0200
0000
0000
0300
0010
0100
0010
0000
0100
0000
0001
0000
1001
0000
0010
,
0000
1010
0000
0100
0010
0100
0010
0001
0000
1010
0000
0202
0000
0303
0000
0110
,
0000
1001
0000
0220
0000
0330
0000
1010
0100
0010
0100
0010
0000
0001
0000
0010
,
0000
0200
0000
0000
0300
1000
0010
1000
0000
0001
0000
0010
0000
0100
0000
0001
,
0000
0011
0000
0100
1000
0100
0010
0100
0010
0100
0000
0001
0000
0010
0000
0001
,
0000
1001
0000
0110
0001
1000
0001
1000
0001
0010
0000
0001
0100
0010
0100
0001
,
0100
0010
0100
0001
0100
0010
0100
0001
0100
0010
0100
0220
0000
0000
0000
0000
,
0000
0000
0330
0000
0000
1001
0000
0110
0000
1010
0000
1002
0000
0000
0000
1003
,
0000
1000
0100
0000
0000
0010
0000
0001
0000
0100
0000
0010
0100
0000
1000
0100
,
0000
0010
0000
1001
0000
0000
0001
0010
0000
0100
0000
1010
1000
0000
1000
0100
,
0000
0010
0000
0101
0001
0000
0001
0010
0000
0100
0000
1010
1000
0000
1000
0100
,
0000
0010
0000
1010
0010
0000
0001
0010
0000
0100
0000
0101
0100
0000
1000
0100
,
0000
0010
0000
1010
0010
0000
0001
0010
0000
0100
0000
1010
1000
0000
1000
0100
,
0000
0010
0000
1010
0010
0000
0001
0010
0000
0100
0000
1001
0001
0000
1000
0100
,
0000
0010
0000
1001
1000
0000
1000
0100
0000
0010
0000
0101
0001
0000
0001
0010
,
0000
0100
0000
1010
1000
0000
1000
0100
0000
0200
0000
0000
0000
0001
0000
0002
,
0000
0000
0010
2003
0000
0000
0000
3002
0000
2003
0000
0000
0000
0001
0000
3002
,
0000
0000
0010
2003
0000
0000
0000
3002
0000
2003
0000
0000
0000
0001
0000
3002
,
0000
0000
0000
2003
0000
0000
0000
3002
0000
2003
0000
0000
0000
0001
0000
3002
,
0000
0010
0000
1003
0300
0000
0000
1000
0000
0100
0000
0011
0000
0100
0010
1100
,
0000
0001
0010
1100
0000
0000
0100
0011
0000
0200
0000
0010
0000
0000
0310
0110
,
0000
1001
0000
1100
0000
0010
0100
1000
0000
0100
0000
0100
0000
0000
0100
1010
,
0000
0110
0000
0001
0000
0000
0110
0000
0000
0020
0000
0100
0000
1030
0100
1000
,
0000
0100
0000
0010
0000
0001
0000
0010
0000
0001
0000
1000
0000
0100
0000
0001
,
0000
0010
0000
0100
0000
1001
0000
0010
0000
0100
0000
2020
0000
0000
0000
3000
,
0030
1000
0000
0220
0000
0330
0000
1001
0000
1000
0000
0001
0000
1000
0000
0001
,
0000
1000
0000
0100
0000
0010
0000
0100
0000
0010
0000
2200
0000
0000
0000
3300
,
0000
0101
0000
0022
0000
0000
0033
2002
0000
0000
3003
0010
0000
0100
0000
0010
,
0000
0200
0000
0000
0000
0302
0000
1000
0000
1003
0000
1000
0000
0100
0000
0010
,
0000
0100
0000
0010
0000
0001
0010
0100
0000
1000
0000
0010
0000
1000
0000
0010
,
0000
0100
0000
0010
0000
0001
0000
0100
0000
0010
0000
0101
0000
0000
0000
1001
,
0000
0000
0000
0110
0000
0000
0000
2002
0000
3000
0000
2003
0000
0000
3000
0020
,
0000
0000
0000
0130
0000
0001
0010
0100
1000
0011
0000
1001
0000
0000
0000
1002
,
0000
1000
0003
0100
0010
0100
0001
1000
0000
1010
0000
0110
0000
1000
0000
0010
,
0000
1000
0000
0001
0010
0100
0010
0100
0000
2000
0000
0001
0000
0000
3000
0002
,
0000
0100
0003
1200
0000
0010
0300
1020
0000
0100
0030
1000
0000
0100
0000
0010
,
0000
0001
0000
1000
0000
0010
0000
0100
0000
0010
0000
0001
0010
0100
0000
0010
,
0000
0100
0000
0001
0000
0010
1000
0100
1000
0010
0000
0100
0010
0100
0001
1000
,
0010
0100
0001
1000
0010
0100
0001
1000
0100
0010
0000
2002
0000
0000
0000
0000
,
0000
0000
0000
3003
0000
0010
0000
0100
0000
0010
0000
1100
0000
0000
1000
0100
,
0000
0010
0000
1010
0010
0000
0001
0010
0000
0100
0000
0101
0100
0000
1000
0100
,
0000
0010
0000
0011
0010
0000
0100
0010
0000
0100
0000
0110
0100
0000
1000
0100
,
0000
0010
0000
0110
0010
0000
0001
0010
0000
0001
0000
0101
0100
0000
1000
0010
,
0000
0100
0000
0110
0010
0000
1000
0100
0000
0010
0000
1010
1000
0000
0100
0010
,
0000
0001
0000
0011
0001
0000
0001
0100
0000
0001
0000
1100
0100
0000
1000
0100
,
0000
0010
0000
0011
0010
0000
0100
0001
0000
1010
0000
0100
0000
0000
0100
0010
,
0000
0001
0000
0101
0100
0000
1000
0100
0000
0010
0000
0011
0010
0000
1000
0100
,
0000
0010
0000
0011
0010
0000
0100
0010
0000
0100
0000
0020
0000
0000
0000
2000
,
0000
0000
0100
3002
0000
0000
0000
2003
0000
3200
0000
0000
0000
1000
0000
2300
,
0000
0000
0000
3002
0000
0000
0000
2003
0000
3200
0000
0000
0000
0001
1000
0302
,
0000
0000
0003
2000
0000
0000
0000
3002
0000
0200
0003
0000
0000
0001
1300
0002
,
0000
0000
0000
1033
0000
0000
0001
0010
0000
0100
0000
0011
0000
0100
0010
1100
,
0000
2010
0000
3010
0000
0000
0100
0000
0000
0001
0000
0010
0000
0110
1000
0100
,
0000
0010
0000
0011
0010
0000
0100
0001
0000
0010
0000
0011
0000
0100
1000
0100
,
0000
0010
0000
0110
0000
0000
1000
0100
0000
0010
0000
1001
0000
0000
1000
0100
,
0000
0010
0000
0120
0000
0000
0000
1030
0000
0000
0000
0020
0100
0130
0100
0010
,
0100
0010
0100
0001
0010
0001
1000
0010
0100
0001
0100
0010
0100
0001
1000
0010
,
0100
0001
0010
0100
0001
1000
0010
0100
0001
1000
0010
0100
0001
0100
0010
0100
,
0001
0100
0010
0001
0100
0010
0100
0010
1000
0010
1000
0010
0100
0010
0100
0001
,
0100
0010
1000
0101
0010
0001
0010
0100
0010
1000
0001
0100
0010
0100
0001
1000
,
0010
0100
1001
0010
0100
0001
1000
0010
0100
0001
1000
0010
0100
1001
0010
0100
,
0001
1000
0010
0100
0001
1000
0010
0100
0001
0100
0010
2000
0000
3200
0000
0320
,
0000
0032
0000
0023
0000
0230
0000
2300
0000
3200
0000
0310
0000
1000
1000
0001
,
0000
1000
0001
0001
0000
1000
1000
0001
0000
0010
0000
1000
0000
0001
0000
0100
,
0000
0000
0000
1000
0000
0000
1000
0000
0000
0100
0000
0000
0000
0000
0000
0010
0000
0000
0010
0000
0000
0001
0000
0000
0000
0000
0000
1000
0000
0000
0000
0000
0000
0001
0000
0000
1000
0000
0001
0000
1000
0000
0001
0000
1000
0000
0001
0000
,
0010
0000
1000
0000
0001
0000
1000
0000
0010
0000
0100
0000
0010
0000
0100
0000
1000
0000
0100
0000
0010
0000
0001
0000
0010
0000
0100
0000
0010
0000
0001
0000
0000
2002
0000
0000
0000
0000
0000
0000
0000
0000
0000
0000
0000
0000
0000
0000
,
0000
0000
0000
0000
,
0000
0000
3003
0000
0000
1100
0000
0011
0000
1100
0000
0011
0000
1100
0000
0011
,
0000
1100
0000
0011
0000
1100
0000
0011
0000
1100
0000
0010
0000
0010
0000
0010
,
0000
0100
0000
0010
0000
0100
0000
0001
0000
0010
0000
2000
0000
0010
0000
3100
,
0000
0001
0000
0100
0000
0010
0000
0001
0000
0010
0000
1001
0000
0110
0000
1001
,
0000
0110
0000
1010
0000
1100
0000
0011
0000
0100
0000
1001
0000
0110
0000
0011
,
0000
1010
0000
0101
0000
0011
0000
0101
0000
0011
0000
2000
0000
0010
0000
0001
,
0000
0010
0000
0001
0000
0010
0000
0001
0000
0010
0000
3002
0000
0010
0000
0100
,
0000
0010
0000
0100
0000
0010
0000
0100
0000
0010
0000
0203
0000
0010
0000
0001
,
0000
0010
0000
0001
0000
0010
0000
0301
0000
1000
0000
0010
0000
0001
0000
0010
,
0000
0100
0000
1000
0000
0100
0000
0010
0000
2002
0000
0010
0000
0100
0000
3013
,
0000
0100
0000
0020
0000
0030
0000
1001
0000
0010
0000
1000
0000
0000
0010
0001
,
0000
0001
0000
0110
0100
0000
1000
0100
0000
0011
0000
0011
0100
0000
1000
0100
,
0000
0010
0000
0011
1000
0000
0100
0010
0000
1000
0000
1010
0010
0000
0100
0010
,
0000
0010
0000
1100
0100
0000
1000
0100
0000
0010
0000
0011
0010
0000
0100
0010
,
0000
0011
0000
1001
1000
0000
1000
0100
0000
0010
0000
0011
0001
0000
0100
1000
,
0000
1000
0000
1010
1000
0000
1000
0010
0000
0100
0000
0011
0001
0000
1000
0100
,
0000
0011
0000
0001
0000
0010
0100
1000
0000
1000
0000
0110
0000
0000
0100
0010
,
0000
0001
0000
1001
1000
0000
1000
0100
0000
0001
0000
1010
0010
0000
1000
0001
,
0000
0010
0000
1001
1000
0000
1000
0100
0000
0010
0000
1002
0000
0000
0000
0000
,
0003
2000
0000
0000
0000
3010
0000
0001
0000
0020
0000
0000
0000
0000
0000
0001
,
0000
1001
0000
0030
0000
1000
0000
0100
0000
0010
0000
0001
0000
0010
0000
0100
,
0000
1000
0000
0100
0000
0010
0000
0001
0000
0220
0000
0000
0000
0000
0000
0000
,
0000
0000
0000
0330
0000
1000
0000
0001
0000
1000
0000
0020
0000
0000
0000
0000
,
0030
0100
0000
0000
0000
0100
0000
0010
0000
0002
0000
0000
0000
1000
0000
0000
,
0000
1003
0000
0000
0000
0000
0000
0100
0000
0010
0000
0001
0000
1000
0000
0100
,
0000
0010
0000
1000
0000
0010
0000
0010
0000
2002
0000
0000
0000
0000
0000
0000
,
0000
0000
3113
0000
0000
0000
0000
0000
0000
0000
0000
0000
0000
0000
MMMM
MMMM
MMMM
MMMM
MMMM
0000
0000
0000
0000
0000
0000
0000
0000
0000
0000
0000
0000
0000
;

//---------------dance-single - Blank----------------
#NOTEDATA:;
#CHARTNAME:;
#STEPSTYPE:dance-single;
#DESCRIPTION:Blank;
#CHARTSTYLE:;
#DIFFICULTY:Medium;
#METER:3;
#RADARVALUES:0.389,0.424,0.134,0.381,1.000,493.000,30.000,85.000,0.000,0.000,0.000,0.000,0.000,0.389,0.424,0.134,0.381,1.000,493.000,30.000,85.000,0.000,0.000,0.000,0.000,0.000;
#CREDIT:Blue Army;
#OFFSET:-0.040;
#BPMS:0.000=130.020
;
#STOPS:;
#DELAYS:;
#WARPS:;
#TIMESIGNATURES:0.000=4=4
;
#TICKCOUNTS:0.000=4
;
#COMBOS:0.000=1
;
#SPEEDS:0.000=1.000=0.000=0
;
#SCROLLS:0.000=1.000
;
#FAKES:;
#LABELS:0.000=Song Start
;
#ATTACKS:TIME=117.598839:LEN=0.692200:MODS=Invert, Roll, Overhead:TIME=165.591446:LEN=3.691742:MODS=Mini, Flip, Roll, Overhead:TIME=165.937546:LEN=0.230728:MODS=Reverse, Split, Overhead:TIME=166.629745:LEN=0.346100:MODS=50% Tornado, Cross, Centered, Overhead:TIME=167.206573:LEN=1.269043:MODS=Confusion, 50% Tornado, Reverse, Centered, Overhead;
#NOTES:
// measure 0
0000
0000
0000
0000
,  // measure 1
0000
0000
0000
1000
0000
0000
0000
0001
0000
0000
0000
1000
0000
0000
0000
0001
,  // measure 2
0000
0000
0000
1000
0000
0000
0000
0001
0000
0000
0000
1000
0000
0000
0000
0001
,  // measure 3
0000
0000
0000
1000
0000
0000
0000
0001
0000
0000
0000
1000
0000
0000
0000
0001
,  // measure 4
0000
0000
0000
1000
0000
0000
0000
0001
0000
0000
0000
0020
0000
0000
0000
0000
,  // measure 5
0030
0000
0000
2000
0000
0000
0000
0000
0000
0000
0000
0000
0000
3000
0000
0000
,  // measure 6
0000
0001
0000
0000
0000
1000
0000
0001
0000
1000
0000
0001
0000
2000
0000
0000
,  // measure 7
0000
0000
0000
0000
0000
0000
0000
3000
0000
0000
0001
0000
1001
0000
0000
1000
,  // measure 8
0100
1000
0000
1001
0000
0000
0010
1000
0000
1000
0000
0002
0000
0000
0000
0003
,  // measure 9
0000
1000
0000
1001
0000
0000
0000
0000
0000
0010
0000
0100
0000
0010
0000
0100
,  // measure 10
0000
1000
0000
0100
0000
0001
0000
0010
0000
1000
0000
1000
0000
0000
0000
0000
,  // measure 11
0000
0001
0000
0001
0000
0000
0000
0000
0000
0010
0000
0100
0000
0010
0000
0100
,  // measure 12
0000
1000
0000
0100
0000
0010
0000
0100
0000
1000
0000
0002
0000
0000
0000
0003
,  // measure 13
0000
1000
0000
2000
0000
0000
3000
0000
0000
0020
0000
0000
0000
0230
0000
0000
,  // measure 14
0000
0000
0000
0300
0000
0110
0000
1001
0000
0000
0000
0220
0000
0000
0000
0330
,  // measure 15
0000
0001
0000
0002
0000
0000
0000
0003
0000
1001
0000
0000
0000
0020
0000
0030
,  // measure 16
0000
0200
0000
0300
0000
0000
1001
0000
0000
0000
0000
1000
0000
0000
0000
0010
,  // measure 17
0000
0000
0000
0200
0000
0000
0300
0010
0000
0000
0000
0001
0000
0000
0000
0010
,  // measure 18
0000
0000
0000
0100
0000
0000
0000
0010
0000
0000
0000
0100
0000
0000
0000
1000
,  // measure 19
0000
0000
0000
0001
0000
0000
0000
1000
0000
0000
0000
0010
0000
0000
0000
0100
,  // measure 20
0000
0000
0000
1000
0000
0000
0000
0020
0000
0000
0030
1000
0000
0000
0000
0100
,  // measure 21
0000
0000
0000
0010
0000
0000
0000
0100
0000
0000
0000
0001
0000
0000
0000
0010
,  // measure 22
0000
0000
0000
0110
0000
0000
0000
2000
0000
0000
3000
0001
0000
0000
0000
0010
,  // measure 23
0000
0000
0000
0100
0000
0000
0000
0001
0000
0000
0000
1000
0000
0001
0000
1000
,  // measure 24
0000
0001
0000
1000
0000
0000
0000
0010
0000
0000
0000
0100
0000
0000
0000
0020
,  // measure 25
0000
0130
0000
0000
0000
0100
0000
0010
0000
0000
0000
0100
0000
0000
0000
2000
,  // measure 26
0000
3001
0000
0000
0000
0010
0000
0100
0000
0000
0000
0100
0000
0000
0000
0010
,  // measure 27
0000
0000
0000
0100
0000
0000
0000
0001
0000
0000
0000
1000
0000
0000
0000
0001
,  // measure 28
0000
2000
0000
0000
3000
0000
0000
0010
0000
0000
0000
0100
0000
0000
0000
0001
,  // measure 29
0000
1000
0000
0000
0000
0000
0000
0010
0000
0000
0000
0100
0000
0000
0000
0010
,  // measure 30
0000
0100
0000
0000
0000
0001
0000
1000
0000
0000
0000
0010
0000
0000
0000
0100
,  // measure 31
0000
0000
0000
1000
0000
0000
0000
0100
0000
0000
0000
2002
0000
0000
0000
0000
,  // measure 32
0000
0000
0000
3003
0000
0000
0000
0010
0000
0100
0000
2000
0000
0000
0000
3000
,  // measure 33
0000
0001
0000
0000
0000
0010
0000
0100
0000
2000
0000
0000
0000
0000
0000
0000
,  // measure 34
0000
3000
0000
0000
0000
0010
0000
0100
0000
0001
0000
0010
0000
0100
0000
1000
,  // measure 35
0000
0100
0000
0010
0000
0100
0000
0001
0000
0020
0000
0000
0000
0000
0000
0000
,  // measure 36
0030
0000
0000
0000
0000
1000
0000
0001
0000
1000
0000
0020
0000
0000
0000
0030
,  // measure 37
0000
1000
0000
0000
0000
1000
0000
0100
0000
0010
0000
0000
0000
0200
0000
0000
,  // measure 38
0300
0020
0000
0000
0000
0030
0000
0100
0000
0010
0000
0100
0000
1000
0000
0100
,  // measure 39
0000
1000
0000
0010
0000
0100
0000
1000
0000
0020
0000
0000
0000
0000
0030
0000
,  // measure 40
0000
2000
0000
0000
3000
0000
0000
0001
0000
0020
0000
0000
0000
0000
0000
1000
,  // measure 41
0000
0000
0000
1000
0000
0030
0000
0100
0000
0020
0000
0000
0000
0000
0000
0100
,  // measure 42
0000
0000
0000
0100
0030
0000
0000
1000
0000
0200
0000
0000
0000
0000
0000
0001
,  // measure 43
0000
0000
0000
0001
0000
0300
0000
0010
0000
0200
0000
0000
0000
0000
0000
0010
,  // measure 44
0000
0000
0000
0010
0300
0000
0000
1000
0000
0000
0000
0001
0000
0000
0000
1000
,  // measure 45
0000
0000
0000
0010
0000
0000
0100
0000
0000
0002
0000
0000
0000
0000
0000
0000
,  // measure 46
0003
0000
0000
0000
0000
0010
0000
0100
0000
0010
0000
1000
0000
0000
0000
0100
,  // measure 47
0000
0000
0000
0001
0000
0000
0010
0000
0000
2002
0000
0000
0000
0000
0000
0000
,  // measure 48
0000
0000
0000
3003
0000
0000
0000
1000
0000
0000
0000
0100
0000
0000
0000
0010
,  // measure 49
0000
0000
0000
0100
0000
0000
0000
0001
0000
0000
0000
2000
0000
0000
0000
0000
,  // measure 50
3000
0000
0000
0002
0000
0000
0000
1003
0000
0000
0000
0010
0000
0000
0000
0100
,  // measure 51
0000
0000
0000
0001
0000
0000
0000
0010
0000
0000
0000
2000
0000
0000
0000
0000
,  // measure 52
3000
0000
0000
0002
0000
0000
0003
0010
0000
0000
0000
0100
0000
0000
0000
0001
,  // measure 53
0000
0000
0000
0110
0000
0000
0000
1000
0000
0000
0000
0100
0000
0000
0000
0001
,  // measure 54
0000
0000
0000
0010
0000
0000
0000
1000
0000
0000
0000
0100
0000
0000
0000
0001
,  // measure 55
0000
0000
0000
0020
0000
0030
0000
0200
0000
0300
0000
2000
0000
3000
0000
0002
,  // measure 56
0000
0003
0000
2000
0000
3000
0000
0010
0000
0000
0000
0100
0000
0000
0000
1000
,  // measure 57
0000
0000
0000
0100
0000
0000
0000
0010
0000
0000
0000
0110
0000
0000
0000
0100
,  // measure 58
0000
0000
0000
0100
0000
0000
0000
0001
0000
0000
0000
0010
0000
0000
0000
0100
,  // measure 59
0000
0000
0000
0010
0000
0000
0000
0100
0000
0000
0000
2000
0000
0000
3000
0002
,  // measure 60
0000
0000
0003
1000
0000
0000
0000
1010
0000
0000
0000
0100
0000
0000
0000
0010
,  // measure 61
0000
0000
0000
0100
0000
0000
0000
1000
0000
0000
0000
0001
0000
0000
0000
0010
,  // measure 62
0000
0000
0000
0100
0000
0000
0000
1000
0000
0000
0000
0001
0000
0000
0000
1000
,  // measure 63
0000
0000
0000
0001
0000
0000
0000
1000
0000
0000
0000
0220
0000
0000
0000
0000
,  // measure 64
0000
0000
0000
0000
0000
0330
0000
0000
0000
0000
0000
2000
0000
0000
0000
3000
,  // measure 65
0000
0001
0000
0000
0000
0010
0000
0100
0000
2000
0000
0000
0000
0000
0000
0000
,  // measure 66
0000
0000
3000
0000
0000
0100
0000
0010
0000
0100
0000
0001
0000
0010
0000
0100
,  // measure 67
0000
1000
0000
0100
0000
0001
0000
0010
0000
0220
0000
0000
0000
0000
0000
0000
,  // measure 68
0330
0000
0000
0000
0000
0010
0000
0100
0000
1000
0000
0020
0000
0000
0030
0000
,  // measure 69
0000
1000
0000
0000
0000
0100
0000
0010
0000
0002
0000
0000
0000
1000
0000
0000
,  // measure 70
0000
1000
0000
0003
0000
0000
0000
0010
0000
0100
0000
0010
0000
0100
0000
1000
,  // measure 71
0000
0100
0000
1000
0000
0001
0000
0010
0000
0002
0000
0000
0000
0000
0000
0003
,  // measure 72
0000
2000
0000
0000
0000
3000
0000
0010
0000
0002
0000
0000
0000
0000
0000
1000
,  // measure 73
0000
0000
0000
1000
0000
0003
0000
0010
0000
0200
0000
0000
0000
0000
0000
0010
,  // measure 74
0000
0000
0000
0010
0000
0300
0000
1001
0000
0020
0000
0000
0000
0000
0000
1000
,  // measure 75
0000
0000
0000
1000
0000
0030
0000
0100
0000
0002
0000
0000
0000
0000
0000
1000
,  // measure 76
0000
0000
0000
1000
0003
0000
0000
0010
0000
0100
0000
1000
0000
0000
0000
0001
,  // measure 77
0000
0000
0000
0010
0000
0000
0100
0000
0000
0220
0000
0000
0000
0000
0000
0000
,  // measure 78
0000
0330
0000
0000
0000
1000
0000
0001
0000
1000
0000
0001
0000
0000
0000
0100
,  // measure 79
0000
0000
0000
1000
0000
0000
0110
0000
0000
0002
0000
0000
0000
0000
0000
0000
,  // measure 80
0000
0003
0000
0110
0000
0000
0000
1010
0000
0000
0000
1000
0000
0000
0000
0001
,  // measure 81
0000
0000
0000
0010
0000
0000
0000
0100
0000
1000
0000
0100
0000
0010
0000
0100
,  // measure 82
0000
0001
0000
0010
0000
0000
0000
0220
0000
0000
0000
0000
0330
0000
0000
1000
,  // measure 83
0000
0000
0000
0001
0000
0000
0000
0010
0000
0000
0000
0010
0000
0100
0000
0001
,  // measure 84
0000
0010
0000
0100
0000
0000
0000
0101
0000
0000
0000
0000
0000
0000
0000
0010
,  // measure 85
0000
0000
0000
0001
0000
0000
0000
0100
0000
0000
0000
0010
0000
0000
0000
0010
,  // measure 86
0000
0100
0000
0010
0000
0000
0000
0110
0000
0000
0000
0001
0000
0010
0000
0001
,  // measure 87
0000
0100
0000
0010
0000
1000
0000
0100
0000
0002
0000
0000
0000
0000
0000
0000
,  // measure 88
0000
0000
0000
0000
0003
0000
0000
1000
0000
0010
0000
1000
0000
0010
0000
0000
,  // measure 89
0000
0100
0000
0110
0000
0000
0000
0001
0000
0010
0000
0200
0000
0000
0000
0000
,  // measure 90
0000
0000
0000
0000
,  // measure 91
0000
0000
0000
0000
,  // measure 92
0000
0000
0000
0000
0300
0000
0000
0001
0000
0000
0000
1000
0000
0000
0000
0001
,  // measure 93
0000
0000
0000
1000
0000
0000
0000
0001
0000
0000
0000
1000
0000
0000
0000
0001
,  // measure 94
0000
0000
0000
1000
0000
0000
0000
0001
0000
0000
0000
0020
0000
0000
0000
0030
,  // measure 95
0000
1000
0000
0000
0000
0010
0000
1000
0000
0020
0000
0000
0000
0000
0000
0000
,  // measure 96
0000
0000
0000
0000
0030
0000
0000
0100
0000
0000
0000
0001
0000
0000
0000
0010
,  // measure 97
0000
0000
0000
0100
0000
0010
0000
1000
0000
0010
0000
1000
0000
0000
0000
0100
,  // measure 98
0000
0010
0000
0000
0000
0100
0000
0000
0000
0002
0000
0000
0000
0000
0000
0000
,  // measure 99
0000
1003
0000
0000
0000
0100
0000
0010
0000
0100
0000
0000
0000
0002
0000
0000
,  // measure 100
0000
1003
0000
0000
0000
0000
0000
0010
0000
0100
0000
0010
0000
0100
0000
1000
,  // measure 101
0000
0100
0000
0001
0000
0010
0000
0100
0000
2000
0000
0000
0000
0000
0000
0000
,  // measure 102
0000
0000
0000
3000
0000
0000
0000
1000
0000
0020
0000
0000
0000
0000
0000
1000
,  // measure 103
0000
0000
0000
1000
0000
0030
0000
0100
0000
0020
0000
0000
0000
0000
0000
0100
,  // measure 104
0000
0000
0000
0100
0000
0030
0000
1000
0000
0002
0000
0000
0000
0000
0000
1000
,  // measure 105
0000
0000
0000
1000
0000
0003
0000
0010
0000
0200
0000
0000
0000
0000
0000
0010
,  // measure 106
0000
0000
0000
0010
0300
0000
0000
1000
0000
0000
0000
0001
0000
0000
0000
1000
,  // measure 107
0000
0000
0000
0010
0000
0000
0100
0000
0000
0020
0000
0000
0000
0000
0000
0000
,  // measure 108
0030
0000
0000
0000
0000
1000
0000
0001
0000
1000
0000
0010
0000
0000
0000
1010
,  // measure 109
0000
0000
0000
0100
0000
0000
1001
0000
0000
0022
0000
0000
0000
0000
0000
0000
,  // measure 110
0000
0000
0033
0000
0000
1000
0000
0100
0000
0010
0000
2000
0000
0000
0000
0000
,  // measure 111
3000
0001
0000
0000
0000
0010
0000
0100
0000
2000
0000
0000
0000
0000
0000
0000
,  // measure 112
0000
0000
0000
3000
0000
0001
0000
1000
0000
0001
0000
1000
0000
0010
0000
0100
,  // measure 113
0000
1000
0000
0100
0000
0001
0000
0010
0000
0200
0000
0000
0000
0000
0000
0000
,  // measure 114
0300
0000
0000
0000
0000
0010
0000
0100
0000
0010
0000
0100
0000
0000
0000
0000
,  // measure 115
0000
1000
0000
0000
0000
0001
0000
1000
0000
0001
0000
0000
0000
1010
0000
0000
,  // measure 116
0000
1001
0000
0000
0000
0000
0000
0100
0000
0010
0000
0100
0000
0001
0000
0010
,  // measure 117
0000
0100
0000
1000
0000
0100
0000
0001
0000
0020
0000
0000
0000
0000
0030
1000
,  // measure 118
0000
2000
0000
0000
0000
0000
0000
3001
0000
0000
0000
0000
0000
0000
0000
0000
;
