#TITLE:the endless love;
#SUBTITLE:;
#ARTIST:Hatsune miku Ft HSP;
#TITLETRANSLIT:;
#SUBTITLETRANSLIT:;
#ARTISTTRANSLIT:;
#GENRE:;
#CREDIT:;
#BANNER:The Endless Love.png;
#BACKGROUND:The Endless Love-bg.png;
#LYRICSPATH:;
#CDTITLE:cdtitle.png;
#MUSIC:the endless love hatsune miku ft hsp.mp3;
#OFFSET:0.000;
#SAMPLESTART:100.000;
#SAMPLELENGTH:12.000;
#SELECTABLE:YES;
#BPMS:0.000=138.000
;
#STOPS:
;
#BGCHANGES:;
#KEYSOUNDS:;
#ATTACKS:;

//---------------dance-single - ----------------
#NOTES:
     dance-single:
     Blank:
     Hard:
     6:
     0.666,1.000,0.255,0.123,0.564,873.000,52.000,25.000,0.000,2.000,0.000,0.666,1.000,0.255,0.123,0.564,873.000,52.000,25.000,0.000,2.000,0.000:
0000
0000
0000
0000
,
0000
0000
0000
0000
0000
0002
0000
0000
,
0000
0000
0000
0000
0000
0000
0000
0000
0000
0000
0200
0003
0000
0000
0000
0000
,
0000
0000
0300
0000
0000
2000
0000
0000
,
0000
0000
0000
0000
0000
0000
3000
0000
0000
0000
0002
0000
0000
0000
0000
0003
,
0000
0020
0000
0000
0030
2000
0000
0000
,
0000
0000
0000
0000
3000
0200
0000
0000
,
0000
0000
0000
0000
0000
0000
0000
0000
0000
0300
0002
0000
0000
0000
0000
0000
,
0000
0000
0000
0000
0000
0000
0000
0003
0000
0000
0020
0000
0000
0000
0000
0000
,
0030
2000
0000
3000
0000
0100
0010
0100
,
0100
0100
0100
0100
0100
0010
0010
0100
,
0010
0010
1000
0010
0001
1000
0001
1000
,
0001
1000
0001
1000
0001
0100
0010
0100
,
0010
1000
0100
0001
0100
1000
0100
0010
,
0100
0010
0100
0010
0100
1000
0100
1000
,
0100
0001
0100
0001
0010
0100
1000
0100
,
0010
0100
0001
1000
0001
1000
0001
1000
,
0001
0010
0100
1000
0100
0001
0010
0100
,
0001
0010
0100
1000
0100
0001
0010
0100
,
1000
0100
0001
0010
0100
1000
0001
1000
,
0001
1000
0001
1000
0001
0010
0001
0010
,
0001
0010
0001
0010
0100
1000
0100
1000
,
0100
0010
0100
0010
0100
0010
0100
1000
,
0100
0010
0100
1000
0100
0010
0001
0010
,
0100
1000
0100
0001
0010
0100
1000
0100
,
0001
0010
0100
0010
1000
0100
0010
0100
,
0010
0100
1000
0010
0010
0010
0100
0001
,
0010
0100
1000
0010
0100
1000
0010
1000
,
0012
1000
0100
0010
1000
0010
1000
0010
,
1000
0010
1000
0010
1000
0100
0100
0100
,
0100
0100
0100
0100
0100
0100
0100
0100
,
0103
0010
0100
1000
0100
2002
0000
0000
,
0000
0000
0000
0000
,
0000
0000
0003
0000
3020
0000
0000
0000
0000
0000
0000
0000
0000
0000
0030
0000
0001
1000
0001
1000
0000
0000
0000
0000
0000
0000
0000
0000
0000
0000
0000
0000
,
0000
0000
1000
0000
0000
0100
0000
0000
0001
0000
0000
0000
0010
0000
0100
0000
,
1000
0100
1000
0000
0000
1001
0000
0000
0010
0000
0000
0000
0100
0000
0001
0000
,
0000
0000
0010
0000
0000
1000
0000
0000
1001
0000
0000
0000
0100
0000
0010
0000
,
1000
0100
1000
0000
0000
0001
0000
0000
0010
0000
0100
0000
0000
0000
0001
0000
,
0010
0000
0100
0000
0000
0010
0000
0000
0100
0000
0000
0001
0000
0000
0010
0000
,
1000
0100
1000
0000
0000
0010
0000
0100
0000
0000
0001
0000
0000
0010
0000
0000
,
0100
0000
1000
0000
0000
0001
0000
0000
0010
0000
0000
0000
0100
0000
0001
0000
,
0000
1010
0000
0001
0010
0100
0000
0001
,
0000
0000
0110
0000
0000
1000
0000
0000
0001
0000
0000
0000
0010
0000
0100
0000
,
0010
0100
0010
0000
0000
0001
0000
0000
0010
0000
0000
0000
0011
0000
1000
0000
,
0100
0000
0001
0000
0000
0010
0000
0000
1000
0000
0000
0100
0000
0000
1000
0000
,
0100
1000
0100
0000
0000
0001
0000
0000
0010
0000
1000
0000
0000
0000
0100
0000
,
0000
0000
0001
0000
0000
0010
0000
0000
1000
0000
0000
0000
0110
0000
0000
0000
,
1000
0100
1000
0000
0000
0000
0010
0000
0100
0000
1000
0000
0000
0001
0000
0000
,
0010
0000
1000
0000
0000
0010
0000
0000
0100
0000
0000
0000
0001
0000
0010
0000
,
0100
0010
0100
0000
0000
0001
0000
0000
0010
0000
1000
0000
0000
0100
0000
0000
,
0001
0000
1000
0000
0000
0010
0000
0000
0100
0000
0000
0000
0001
0000
1000
0000
,
0001
1000
0001
0000
0000
0000
0010
0000
0000
0100
0000
0000
1000
0000
0100
0000
,
0001
0000
0010
0000
0000
0110
0000
0000
1000
0000
0000
0100
0000
0000
1000
0000
,
0100
1000
0100
0000
0000
0001
0000
0000
0010
0000
0100
0000
0000
1000
0000
0000
,
0000
0000
0001
0000
0000
0010
0000
0000
0100
0000
0000
0110
0000
0000
1000
0000
,
0100
0000
0000
0000
0000
0001
0000
1000
0000
0000
0010
0000
0000
0100
0000
0000
,
0001
0000
1000
0000
0000
0001
0000
0000
0010
0000
0000
0000
0100
0000
1000
0000
,
0100
1000
0100
0000
0000
0001
0000
0000
0010
0000
0100
0000
0000
0000
0001
0000
,
0000
1000
0001
1000
0001
1000
0010
1000
,
0001
0010
0100
1000
0100
0010
0100
0001
,
0010
0020
1000
1000
1030
0100
1100
0100
,
0000
0001
0101
0001
0000
1000
1010
1000
,
0000
0001
0010
0011
0000
1000
0100
1100
,
0000
0010
0100
0110
0000
1000
0100
0101
,
0000
1000
0100
0010
0001
0100
1000
0010
,
0100
0001
1000
0010
0100
0001
1100
0020
,
0000
0000
0000
0030
1000
0000
0100
0000
0100
0000
0010
0000
0000
0000
0001
0000
,
0100
0000
2000
0000
0000
3000
0100
0000
0001
0000
0010
0000
1100
0000
1100
0000
,
0000
0000
0010
0001
0010
0001
0010
0000
0000
0000
0100
1000
0100
1000
0100
0000
,
0000
0000
0010
0100
0010
0100
0010
0000
0000
0000
1000
0100
1000
0100
1000
0000
,
0000
0000
0001
0010
0001
0010
0001
0000
0000
0000
0100
1000
0100
1000
0100
0000
,
0000
0000
1000
0001
1000
0001
1000
0000
0000
0000
0001
0010
0001
0010
0001
0000
,
0000
0000
0010
0100
0010
0100
0010
0000
0000
0000
1000
0100
1000
0100
1000
0000
,
0000
0000
0001
0010
0001
0010
0001
0000
0000
0000
0100
0010
0100
0010
0100
0000
,
0000
0000
1000
0100
1000
0100
1000
0000
0000
0000
0001
0010
0001
0010
0001
0000
,
0000
0000
1000
0100
1000
0100
1000
0000
0000
0000
1000
0001
1000
0001
1000
0000
,
0000
0000
1000
0001
1000
0100
1000
0000
0000
0000
0001
0010
0001
0010
0100
0000
,
0000
0000
0001
0010
0001
0010
0100
0000
0000
0000
1000
0010
1000
0100
1000
0000
,
0000
0000
0010
1000
0100
1000
0010
0000
0000
0000
0100
0010
0100
0010
0100
0000
,
0000
0000
1000
0100
1000
0100
1000
0000
0000
0000
0001
1000
0100
0010
0001
0000
,
0000
0000
1000
0100
0010
0001
1000
0000
0000
0000
1000
0001
0010
0100
1000
0000
,
0000
0000
1000
0100
0001
0010
0100
0000
0000
0000
1000
0000
0000
0000
0100
0000
,
0000
0020
1000
0100
1000
0100
1000
0100
,
0001
0100
0001
0100
1000
0100
0001
0100
,
1030
0001
0010
0100
1000
0100
0001
0010
,
0100
0000
0001
0000
0010
0000
0100
0000
1000
0000
0002
0000
0000
0003
1000
0000
,
0000
0000
0010
0000
0000
0100
0000
0000
0001
0000
0000
0000
1000
0000
0100
0000
,
1000
0100
1000
0000
0000
0001
0000
0000
0010
0000
0100
0000
0000
0000
0001
0000
,
0010
0000
1000
0000
0000
0001
0000
0000
0010
0000
0000
0000
0200
0000
0000
1300
,
0000
0010
0000
0100
0000
0001
0000
0010
,
0000
0200
1000
0010
1000
0010
1000
0001
,
1000
0001
1000
0010
1000
0001
1000
0010
,
1020
0000
0001
0300
1000
0000
0100
0000
0100
0000
1000
0000
0100
0000
0001
0000
,
1000
0001
1000
0100
1000
0130
1000
0010
,
1000
0110
0000
1000
0001
0000
1000
0010
,
1000
0100
1000
0000
0000
0001
0000
0000
0010
0000
0000
0100
0000
0000
0001
0000
,
0000
0000
1000
0000
0000
0110
0000
0000
0001
0000
0000
0101
0000
0000
1000
0000
,
0100
0010
0001
0000
0000
1001
0000
0000
0110
0000
0000
0110
0000
0000
1001
0000
,
0000
0110
0000
0000
1000
0100
1000
0100
1000
0100
0000
0000
0001
0010
0001
0010
,
0001
0010
0000
0000
1000
0001
1000
0001
1000
0001
0000
0000
0010
0100
0010
0100
,
0010
0100
0000
0000
1000
0100
1000
0001
0100
1000
0000
0000
0100
1000
0001
0010
,
0100
0010
0000
0000
0010
0001
0010
0100
0010
0100
0000
0000
0001
0010
0100
0010
,
0100
0001
0000
0000
0100
0010
0001
0010
0001
0010
0000
0000
0001
0010
0001
0100
,
0010
0100
0000
0000
0010
1000
0100
1000
0010
1000
0000
0000
0100
1000
0010
1000
,
0100
1000
0000
0000
0001
0010
0100
0010
0100
0010
0000
0000
0001
0010
0100
0010
,
0100
0001
0000
0000
0100
0010
0001
0100
0010
0100
0000
0000
1000
0110
1000
0110
,
1000
0110
0000
0000
0101
0010
0101
0010
0101
0010
0000
0000
0110
1000
0110
1000
,
0110
1000
0000
0000
0101
0010
0101
0010
0101
0010
0000
0000
0110
1000
0110
1000
,
0110
1000
0000
0000
0011
1000
0011
1000
0011
1000
0000
0000
0110
1000
0110
1000
,
0100
1000
0000
0000
0100
0010
0100
0001
1000
0010
0000
0000
1000
0010
0001
0010
,
0100
0001
0000
0000
0001
0100
0010
0001
0010
0100
0000
0000
0001
0100
1000
0001
,
1100
0001
0000
0000
1000
0001
1000
0001
1000
0001
0000
0000
0001
0100
1000
0001
,
0100
0000
0001
0000
0010
0000
1000
0000
0100
0000
1000
0000
0001
0000
1000
0000
0010
0000
1000
0000
0100
0000
1000
0010
0100
1000
0100
0010
0001
0100
1000
0010
,
0100
0000
0010
0000
1000
0000
0001
0000
0100
0000
0010
0000
1000
0000
0100
0000
0010
0000
0100
0000
0010
0000
0001
0000
0100
0000
0010
0100
0010
0100
0010
0100
0010
0000
0000
0000
0000
0000
0000
0000
0100
0000
0000
0000
1000
0000
0000
0000
0102
0000
0000
0000
0000
0000
0000
0000
0000
0000
0000
0000
0000
0000
0000
0000
,
0000
0000
0003
1000
0000
0000
0100
0000
0010
0000
0000
0000
1000
0100
1000
0000
,
0001
0000
0100
0000
0000
0010
0000
0000
0000
1000
0000
0000
0220
0000
0000
0000
,
0000
0330
0000
0000
;

//---------------dance-single - ----------------
#NOTES:
     dance-single:
     :
     Medium:
     3:
     0.357,0.513,0.378,0.324,0.010,366.000,77.000,66.000,0.000,0.000,2.000,0.357,0.513,0.378,0.324,0.010,366.000,77.000,66.000,0.000,0.000,2.000:
0000
0000
0000
0000
,
0000
0000
0000
0000
0000
0002
0000
0000
,
0000
0000
0000
0000
0000
0000
0000
0000
0000
0000
0200
0003
0000
0000
0000
0000
,
0000
0000
0300
0000
0000
2000
0000
0000
,
0000
0000
0000
0000
0000
0000
3000
0000
0000
0000
0002
0000
0000
0000
0000
0003
,
0000
0020
0000
0000
0030
2000
0000
0000
,
0000
0000
0000
0000
3000
0200
0000
0000
,
0000
0000
0000
0000
0000
0000
0000
0000
0000
0300
0002
0000
0000
0000
0000
0000
,
0000
0000
0000
0000
0000
0000
0000
0003
0000
0000
0020
0000
0000
0000
0000
0000
,
0030
2000
0000
3000
0000
0020
0000
0000
,
0030
2000
0000
0000
3000
0002
0000
0000
,
0000
0000
0000
0000
0003
2000
0000
0000
,
0000
0000
0000
0000
3000
0020
0000
0000
,
0030
0200
0000
0000
0300
0002
0000
0000
,
0000
0000
0000
0000
0003
2000
0000
0000
,
0000
0000
0000
0000
3000
0020
0000
0000
,
0000
0000
0000
0000
0000
2030
0000
0000
,
3000
0200
0000
0000
0300
0002
0000
0000
,
0000
0000
0000
0000
0000
2003
0000
0000
,
0000
0000
0000
0000
0000
3200
0000
0000
,
0000
0000
0000
0000
0000
0320
0000
0000
,
0000
0032
0000
0000
0000
0203
0000
0000
,
0000
0000
0000
0000
0000
0320
0000
0000
,
0000
0000
0000
0000
0000
2030
0000
0000
,
0000
0000
0000
0000
0000
3002
0000
0000
,
0000
0023
0000
0000
0000
2030
0000
0000
,
0000
0000
0000
0000
0000
3200
0000
0000
,
0000
0000
0000
0000
0000
0320
0000
0000
,
0000
0000
0000
0000
0000
2000
0030
0000
,
0000
0000
0000
0000
0000
3002
0000
0000
,
0000
0000
0000
0000
,
0000
0000
0000
0000
0003
2000
0000
0000
,
0000
0000
0000
0000
3000
0220
0000
0000
,
0330
0000
2002
0000
0000
0000
0000
3003
4004
0000
0000
0000
0000
0000
0000
3003
,
0000
1000
0000
0010
0000
0100
0000
0101
,
0000
1000
0000
1010
0000
0010
0000
0110
,
0000
0001
0000
1001
0000
0010
0000
0110
,
0000
1000
0000
1100
0000
0001
0000
0011
,
0000
0010
0000
1010
0000
0001
0000
0101
,
0000
1000
0000
1001
0000
0001
0000
0110
,
0000
1000
0000
1100
0000
0001
0000
1001
,
0000
0010
0000
1010
0000
0001
0000
0011
,
0000
0100
0000
1100
0000
0001
0000
0011
,
0000
0100
0000
0110
0000
1000
0000
1001
,
0000
0001
0000
0101
0000
1000
0000
1100
,
0000
0001
0000
0101
0000
1000
0000
1100
,
0000
0010
0000
0110
0000
0100
0000
0110
,
0000
0001
0000
0101
0000
1000
0000
1100
,
0000
0001
0000
1001
0000
1000
0000
1100
,
0000
0001
0000
0001
0000
0011
0000
0100
,
0000
1000
0000
0010
0000
0100
0000
0110
,
0000
1000
0000
1100
0000
0001
0000
0101
,
0000
0010
0000
1010
0000
0010
0000
0011
,
0000
1000
0000
1100
0000
0001
0000
1001
,
0000
0010
0000
0011
0000
1000
0000
1100
,
0000
0010
0000
0110
0000
1000
0000
1100
,
0000
0001
0000
0011
0000
0010
0000
1010
,
0000
0010
0000
0011
0000
0100
0000
0110
,
0000
1000
0000
0101
0000
0010
0000
1010
,
0000
0010
0000
0110
0000
0001
0000
0011
,
0000
1000
0000
1100
0000
0010
0000
0110
,
0000
0001
0000
1100
0000
0001
0000
0101
,
0000
0010
0000
0110
0000
1000
0000
1100
,
0000
0001
0000
0011
0000
1000
0000
0110
,
0000
1000
0000
0101
0000
1000
0000
0110
,
0000
0010
0001
0100
1000
0100
1000
0110
,
0000
2000
0000
3001
0000
1000
0000
0010
,
0000
0100
0000
0001
0100
0000
1000
0000
,
0200
0000
0000
0000
0300
0010
0200
0000
,
0300
0010
0000
0100
0001
0000
0000
0010
,
2000
0000
0000
0000
3000
0002
0000
0000
,
0000
1003
0000
0000
0010
0000
0000
0100
,
0000
0002
0000
0000
0000
2003
0000
0000
,
0000
0000
0000
3000
0000
0110
0000
2002
,
0000
0000
3000
0003
0000
0010
0100
0010
,
0000
1000
0000
0100
0001
0000
0010
0000
,
0020
0000
0000
0000
0030
1000
0200
0000
,
0000
1300
0000
0001
0010
0000
0000
0100
,
0002
0000
0000
0020
0000
0000
0033
1000
,
0200
0000
0000
0000
0000
0000
0300
0010
,
0200
0000
0000
0000
,
0000
0000
0300
0001
0000
1000
0000
0010
,
0000
0220
0000
0000
0000
0000
0000
0000
,
0000
0000
0000
0000
,
0000
0000
0000
0000
,
0000
0000
0330
0000
0000
1000
0000
0001
,
0000
0010
0000
0110
0000
1000
0000
1010
,
0000
0001
0000
0101
0000
1000
0000
0110
,
0000
1000
0000
0101
0000
0010
0000
0110
,
0000
1000
0000
0020
0000
1030
0000
0100
,
0000
0202
0000
0000
0000
0000
0000
0000
,
0000
0000
0000
0000
0000
0000
0300
1000
,
0023
0000
0000
0000
0000
0000
0030
0200
,
0020
0000
0000
0000
0000
0330
0001
1000
,
0020
0000
0000
0000
,
0000
0000
0000
0000
,
0000
0130
0000
1000
0000
0100
0000
0010
,
0000
1000
0000
0100
0000
0110
0000
1000
,
0000
0000
0001
1000
0001
0000
1000
0001
,
1000
0000
0010
0100
0010
0000
1000
0100
,
1000
0000
0100
0001
0100
0000
0010
0100
,
0010
0000
1000
0010
1000
0000
0010
0001
,
0010
0000
1000
0100
1000
0000
1000
0001
,
1000
0000
0010
0001
0010
0000
0010
0100
,
1000
0000
1000
0100
0001
0000
0001
0010
,
0100
0000
0100
0001
0010
0000
1000
0100
,
0010
0001
0001
0001
0000
1000
1000
1000
,
0000
0010
0010
0010
0000
0100
0100
0100
,
0000
0001
0001
0001
0000
1000
1000
1000
,
0000
0100
0100
0100
0000
0010
0010
0010
,
0000
1000
0010
1000
0010
1000
0010
1000
,
0010
1000
0010
1000
0010
1000
0010
1000
,
0010
0001
1000
0010
1000
0100
1000
0001
,
1000
0001
1000
0001
1000
0001
1000
0001
2000
0000
0000
0000
0000
0000
0000
0000
,
0000
3001
0000
0100
0000
0010
0000
0110
,
0000
1000
0000
1100
0000
0001
0000
0101
,
0000
1000
0000
0000
0000
0000
0000
0000
;

//---------------dance-single - ----------------
#NOTES:
     dance-single:
     :
     Challenge:
     7:
     1.000,1.000,1.000,0.353,0.852,1126.000,507.000,72.000,0.000,166.000,0.000,1.000,1.000,1.000,0.353,0.852,1126.000,507.000,72.000,0.000,166.000,0.000: // measure 0
0000
0000
0000
0000
,  // measure 1
0000
0000
0000
0000
0000
2002
0000
0000
,  // measure 2
0000
0000
0000
0000
0000
0000
0000
0000
3000
0000
0200
0003
1000
0000
0010
0000
,  // measure 3
1000
0010
0301
0010
0100
2001
0010
0100
,  // measure 4
0010
0000
0001
0000
0010
0000
3100
0000
0010
0000
0002
0000
0100
0000
0010
0003
,  // measure 5
1000
0120
0001
0100
0031
2100
0010
0001
,  // measure 6
0010
0100
0010
0001
3010
0201
1000
0010
,  // measure 7
0001
0000
0010
0000
1000
0000
0010
0000
1000
0300
0012
0000
0100
0000
1000
0000
,  // measure 8
0010
0000
0100
0000
1000
0000
0010
0003
0100
0000
1020
0000
0100
0000
0001
0000
,  // measure 9
0130
2001
0010
3100
0001
0120
1000
0100
,  // measure 10
0031
2100
0010
0100
3010
0102
0010
0100
,  // measure 11
1000
0100
0010
0100
1003
2010
0100
0001
,  // measure 12
0010
0100
0010
0001
3010
0120
0001
0100
,  // measure 13
0031
1200
0010
0001
0310
0102
1000
0100
,  // measure 14
0010
0100
1000
0100
0013
2100
0010
0001
,  // measure 15
0010
0100
0010
0001
3100
0021
0100
1000
,  // measure 16
0100
0001
0100
1000
0001
2130
0010
0001
,  // measure 17
3100
0210
0001
0010
1300
0012
0100
1000
,  // measure 18
0100
0010
0100
1000
0100
2013
0100
0001
,  // measure 19
0010
0100
0010
0001
0010
3201
0010
1000
,  // measure 20
0010
1000
0001
0010
1000
0321
0100
1000
,  // measure 21
0100
1032
0100
0010
1000
0213
1000
0001
,  // measure 22
0010
0001
0010
0001
1000
0321
0100
1000
,  // measure 23
0100
1000
0100
1000
0001
2130
0001
0010
,  // measure 24
0100
0010
0001
0010
0100
3012
0100
1000
,  // measure 25
0100
1023
0100
1000
0100
2031
0100
0010
,  // measure 26
0001
0010
0100
0010
0001
3210
0001
0010
,  // measure 27
0001
0010
1000
0010
0001
1320
0100
0001
,  // measure 28
0100
0001
1000
0100
0001
2100
0031
0100
,  // measure 29
0010
0001
0010
0100
0010
3102
0010
1000
,  // measure 30
0100
0010
0100
1000
0100
0010
0100
1000
,  // measure 31
0100
0010
0100
1000
0103
2010
0001
0010
,  // measure 32
0100
0010
0001
0100
3000
2220
0000
0000
,  // measure 33
3330
0000
0000
0000
2022
0000
0000
0000
0000
0000
0000
0000
3033
0000
0000
0000
1100
0011
1100
0011
2200
0000
0000
0000
0000
0000
0000
0000
3300
0000
0000
0000
,  // measure 34
0000
0000
1000
0100
1000
0010
0110
0000
0000
0000
0100
0010
0100
0010
0101
0000
,  // measure 35
0000
0000
1000
0100
0010
0101
1010
0000
0000
0000
0010
0001
1010
0100
0110
0000
,  // measure 36
0000
0000
0001
0010
1001
0110
1001
0000
0000
0000
0010
0100
0010
1001
0110
0000
,  // measure 37
0000
0000
1000
0100
1010
0001
1100
0000
0000
0000
0001
0010
1001
0100
0011
0000
,  // measure 38
0000
0000
0010
0100
0001
0110
1010
0000
0000
0000
0001
0010
0101
0010
0101
0000
,  // measure 39
0000
0000
1000
0100
0011
0110
1001
0000
0000
0000
0001
0010
1100
0011
0110
0000
,  // measure 40
0000
0000
1000
0100
0011
0110
1100
0000
0000
0000
0001
0010
1001
0110
1001
0000
,  // measure 41
0000
0000
0010
1100
0110
0101
1010
0000
0000
0000
0001
0010
0101
1000
0011
0000
,  // measure 42
0000
0000
0100
0010
1100
0010
1100
0000
0000
0000
0001
0110
1001
0100
0011
0000
,  // measure 43
0000
0000
0100
0010
0101
1000
0110
0000
0000
0000
1000
0100
0011
0110
1001
0000
,  // measure 44
0000
0000
0001
0010
1100
0010
0101
0000
0000
0000
1000
0100
0011
0010
1100
0000
,  // measure 45
0000
0000
0001
0110
1000
0010
0101
0000
0000
0000
1000
0110
0001
0010
1100
0000
,  // measure 46
0000
0000
0010
1100
0010
0001
0110
0000
0000
0000
0100
1100
0010
0001
0110
0000
,  // measure 47
0000
0000
0001
0110
0001
0010
0101
0000
0000
0000
1000
0110
0001
0010
1100
0000
,  // measure 48
0000
0000
0001
0110
1000
0010
1001
0000
0000
0000
1000
0110
0001
1010
1100
0000
,  // measure 49
0000
0000
0001
0010
0001
0010
0101
0000
0000
0000
0011
1100
0011
1100
0011
0000
,  // measure 50
0000
0000
1000
0100
1010
0100
0011
0000
0000
0000
0100
0010
0001
1100
0110
0000
,  // measure 51
0000
0000
1000
0110
0011
0010
1100
0000
0000
0000
0001
0110
0011
1100
0101
0000
,  // measure 52
0000
0000
0010
1100
0011
0100
1010
0000
0000
0000
0010
0011
1100
0001
0011
0000
,  // measure 53
0000
0000
1000
0110
1000
0110
1100
0000
0000
0000
0001
0110
0001
0110
1001
0000
,  // measure 54
0000
0000
0010
1100
0010
1100
0011
0000
0000
0000
1000
0100
0011
0010
1100
0000
,  // measure 55
0000
0000
0010
1100
0011
1000
0110
0000
0000
0000
1000
0110
0001
0010
1100
0000
,  // measure 56
0000
0000
0001
0110
0001
0100
0011
0000
0000
0000
0010
0110
0001
0100
1010
0000
,  // measure 57
0000
0000
0010
0001
0010
0100
0011
0000
0000
0000
0100
1000
0110
0001
0110
0000
,  // measure 58
0000
0000
1000
0110
0001
0010
0101
0000
0000
0000
0010
1100
0010
0001
1010
0000
,  // measure 59
0000
0000
0010
1100
0010
0001
0110
0000
0000
0000
0001
0110
0001
0100
0011
0000
,  // measure 60
0000
0000
1000
0110
0001
0010
1100
0000
0000
0000
0010
0001
0110
1000
0110
0000
,  // measure 61
0000
0000
0001
0110
0001
0010
1100
0000
0000
0000
0001
0110
0001
0010
0101
0000
,  // measure 62
0000
0000
0010
1100
0010
0001
0110
0000
0000
0000
1000
0110
0001
0010
1100
0000
,  // measure 63
0000
0000
0001
0110
0001
0100
0011
0000
0000
0000
1000
0110
0001
1100
0110
0000
,  // measure 64
0000
0000
1000
0110
0001
0010
0101
0000
0000
0000
1000
0110
0001
1100
0110
0000
,  // measure 65
0000
0000
0110
0001
0110
0000
1100
0010
1100
0000
0110
0001
1100
0000
0110
0000
,  // measure 66
0000
0000
2000
0100
0010
0001
3110
0000
0000
0000
1000
0100
0010
0001
0110
0000
,  // measure 67
0000
0000
0100
0010
0001
0010
0101
0000
0000
0000
0100
0010
0101
0010
1100
0000
,  // measure 68
0200
0000
0010
0001
0010
0001
0010
0000
0300
0000
0010
0001
0200
0010
0001
0000
,  // measure 69
0300
0000
0110
1000
0110
0001
0100
0000
0002
0000
0010
0100
0013
0100
0010
0000
,  // measure 70
2000
0000
0100
0010
0001
0010
0100
0000
3000
0000
0002
0110
0010
1100
0110
0000
,  // measure 71
0000
0000
1003
0100
0010
0001
0110
0000
0020
0000
1100
0001
1100
0001
0130
0000
,  // measure 72
0000
0000
0002
0110
1100
0110
1100
0000
0000
0000
2103
0010
0001
0010
0100
0000
,  // measure 73
0000
0000
0010
0001
0010
0100
3010
0000
0000
0110
0110
0110
0000
0000
2002
0100
,  // measure 74
0010
0100
0010
0000
3000
0000
1003
0100
1010
0100
0010
0000
0100
0000
0010
1100
,  // measure 75
0010
0001
1100
0000
0000
0000
0100
0010
0101
0010
0100
0000
0010
0000
0001
1100
,  // measure 76
0020
0001
1100
0000
0000
0000
0100
1000
0130
0000
1000
0010
0200
0000
0010
0001
,  // measure 77
0010
0001
1300
0000
0000
0000
0101
1000
0010
0100
0010
0000
0000
0000
0100
0010
,  // measure 78
0002
1100
0010
0000
0000
0000
0120
1000
0100
1000
0100
0000
0033
0000
1100
0010
,  // measure 79
0201
0010
1000
0000
0000
0000
1010
0001
0010
1000
0010
0000
0300
0000
0010
1001
,  // measure 80
0200
0010
0001
0000
0000
0000
0010
1000
0010
1000
0001
0000
0000
0000
1000
0010
,  // measure 81
0001
0010
0001
0000
0300
0000
0001
0110
1000
0100
1000
0000
0000
0000
0010
0000
,  // measure 82
0000
0000
0220
1001
1000
1001
0001
0000
1001
0000
1000
0001
1000
0001
1000
0000
,  // measure 83
1001
0000
0001
1000
1000
0001
0001
0000
1001
0000
1000
0001
1000
0001
1000
0000
,  // measure 84
1001
0000
0001
0001
1000
1000
0001
0000
1001
0000
1000
0001
1000
0001
1000
0000
,  // measure 85
1001
0000
1000
0001
1330
0001
1010
0000
0110
0000
1000
0110
0001
0110
0001
0000
,  // measure 86
1100
0000
0010
0101
0010
1100
0110
0000
0101
0000
1000
0110
0001
0100
1010
0000
,  // measure 87
1001
0000
0001
0110
0001
0010
0101
0000
1100
0000
1000
0110
0001
1100
0110
0000
,  // measure 88
0101
0000
1000
0110
0001
0010
0101
0000
1001
0000
0010
0100
1001
0100
0110
0000
,  // measure 89
1100
0000
1000
0100
0011
1100
0020
0000
1001
0000
1030
0110
0001
1010
0100
0000
,  // measure 90
1010
0000
0202
0010
1000
0010
1000
0000
1010
0000
0010
0010
1000
1000
0010
0000
,  // measure 91
1010
0000
1000
1000
0010
1000
0010
0000
1010
0000
1000
0010
1300
0010
1000
0000
,  // measure 92
0123
0000
1100
0001
0101
0100
1001
0000
0100
0000
1001
0100
0031
0010
0200
0000
,  // measure 93
0020
0000
0001
1000
0001
1000
0001
0000
1001
0000
1330
0100
0001
0110
1000
0000
,  // measure 94
0120
0000
0101
1100
0100
0101
1100
0000
1101
0000
0001
0001
0100
0100
0001
0000
,  // measure 95
1101
0000
0100
1000
0100
0001
0100
0000
1101
0000
1100
0101
0001
1100
0101
0000
,  // measure 96
1101
0000
0130
0100
0010
0010
1100
0000
0011
0000
0100
1000
0100
0001
0010
0000
,  // measure 97
0110
0000
1000
0000
0111
0000
0000
1110
0000
0000
0111
0000
0000
1110
0000
0000
,  // measure 98
0111
0000
0000
1110
0011
1100
0011
1100
0011
0000
0000
0000
0011
1100
0110
0011
,  // measure 99
1100
0110
0000
0000
1100
0110
0011
1100
0110
0011
0000
0000
1100
0110
0011
1100
,  // measure 100
0110
0011
0000
0000
1100
0110
1100
0110
1100
0110
0000
0000
0110
0011
0110
0011
,  // measure 101
0110
0011
0000
0000
1010
0101
1010
0110
0011
1010
0000
0000
0110
1001
1100
0011
,  // measure 102
1100
0011
0000
0000
0110
1100
0110
0011
1100
0011
0000
0000
0011
1100
0110
0011
,  // measure 103
1100
0110
0000
0000
1100
0110
0011
1100
0110
0011
0000
0000
1100
0110
0011
1100
,  // measure 104
0110
0011
0000
0000
1100
0110
1100
0110
1100
0110
0000
0000
0110
0011
0110
0011
,  // measure 105
0110
0011
0000
0000
1010
0101
1010
0110
0011
1010
0000
0000
0110
1001
1100
0011
,  // measure 106
1100
0011
0000
0000
0110
1100
0110
0011
1100
0000
0111
0000
1011
0000
1110
0000
,  // measure 107
0111
1011
1110
1101
1110
0111
1011
0111
,  // measure 108
1110
1101
1101
0111
1110
1101
1110
0111
,  // measure 109
1110
1001
0111
0000
1110
0101
1011
0000
1110
0101
1011
0000
1110
0101
1110
0000
,  // measure 110
0111
1010
1110
0000
1100
0011
1100
0110
0011
1100
0011
1100
0110
0011
1100
0110
,  // measure 111
1010
0101
1010
0110
1010
0110
0011
1100
1010
0101
1010
0101
1010
0101
1010
0110
,  // measure 112
0011
0000
0000
1100
0000
0000
0110
0000
0000
0011
0000
0000
1100
0000
0000
0110
0000
0000
1010
0000
0000
0101
0000
0000
1010
0000
0000
0110
0000
0000
0011
0000
0000
1100
0000
0000
0110
0000
1100
0000
0110
0000
0011
0000
1100
0000
0110
0000
,  // measure 113
0001
0000
0000
0000
0000
0000
0000
0000
1010
0000
0000
0000
0000
0000
0000
0000
0101
0000
0000
0000
0000
0000
0000
0000
1010
0000
0000
0000
0000
0000
0000
0000
0110
0000
0000
0000
0000
0000
0000
0000
0011
0000
0000
0000
0000
0000
0000
0000
1100
0000
0000
0000
0000
0000
0011
0000
0000
0000
0000
0000
1100
0000
0000
0000
0000
0000
0011
0000
0000
0000
0000
0000
1100
0000
0000
0000
0000
0000
0011
0000
0000
0000
0000
0000
1100
0000
0000
0000
0000
0000
0011
0000
0000
0000
0000
0000
1100
0000
0000
0000
0000
0000
0000
0000
0000
0000
0000
0000
0110
0000
0000
0000
0000
0000
0000
0000
0000
0000
0000
0000
1001
0000
0000
0000
0000
0000
0000
0000
0000
0000
0000
0000
0110
0000
0000
0000
0000
0000
0000
0000
0000
0000
0000
0000
0000
0000
0000
0000
0000
0000
0000
0000
0000
0000
0000
0000
0000
0000
0000
0000
0000
0000
0000
0000
0000
0000
0000
0000
0000
0000
0000
0000
0000
0000
0000
0000
0000
0000
0000
0000
0000
0000
0000
0000
0000
0000
0000
0000
0000
0000
0000
0000
,  // measure 114
0000
1010
0000
1110
0000
1110
0000
0111
,  // measure 115
0000
1110
0000
1101
0000
1011
0000
1011
;
