#VERSION:0.81;
#TITLE:Sexy Love;
#SUBTITLE:;
#ARTIST:T-ara;
#TITLETRANSLIT:;
#SUBTITLETRANSLIT:;
#ARTISTTRANSLIT:;
#GENRE:KPop;
#ORIGIN:;
#CREDIT:;
#BANNER:Sexy Love.png;
#BACKGROUND:Sexy Love-bg.png;
#PREVIEWVID:;
#JACKET:Sexy Love.png;
#CDIMAGE:;
#DISCIMAGE:;
#LYRICSPATH:;
#CDTITLE:;
#MUSIC:Sexy Love.mp3;
#OFFSET:-0.040;
#SAMPLESTART:99.960;
#SAMPLELENGTH:12.000;
#SELECTABLE:YES;
#BPMS:0.000=132.000;
#STOPS:;
#DELAYS:;
#WARPS:;
#TIMESIGNATURES:0.000=4=4;
#TICKCOUNTS:0.000=4;
#COMBOS:0.000=1;
#SPEEDS:0.000=1.000=0.000=0;
#SCROLLS:0.000=1.000,
30.500=4.000;
#FAKES:;
#LABELS:0.000=Song Start;
#BGCHANGES:;
#KEYSOUNDS:;
#ATTACKS:
;

//---------------dance-single - ----------------
#NOTEDATA:;
#CHARTNAME:;
#STEPSTYPE:dance-single;
#DESCRIPTION:;
#CHARTSTYLE:;
#DIFFICULTY:Hard;
#METER:6;
#RADARVALUES:0.534,0.509,0.427,0.281,0.051,689.000,97.000,64.000,0.000,0.000,1.000,0.000,0.000,0.534,0.509,0.427,0.281,0.051,689.000,97.000,64.000,0.000,0.000,1.000,0.000,0.000;
#CREDIT:Blue Army;
#OFFSET:-0.040;
#BPMS:0.000=132.000
;
#STOPS:;
#DELAYS:;
#WARPS:;
#TIMESIGNATURES:0.000=4=4
;
#TICKCOUNTS:0.000=4
;
#COMBOS:0.000=1
;
#SPEEDS:0.000=1.000=0.000=0
,31.000=0.200=0.000=0
,31.500=1.000=0.000=0
,486.500=10.000=0.000=0
,488.000=1.000=0.000=0
;
#SCROLLS:0.000=1.000
,30.500=4.000
,32.000=1.000
,37.000=0.000
,37.500=1.000
,41.000=0.000
,41.500=1.000
,53.000=0.000
,53.500=1.000
,57.000=0.000
,57.500=1.000
,62.500=0.000
,63.000=1.000
,63.500=0.000
,64.000=1.000
,122.500=1.500
,123.000=0.500
,123.500=1.500
,124.000=0.500
,124.500=1.000
,126.000=0.700
,127.500=1.000
,131.500=1.500
,132.000=1.000
,133.500=1.500
,134.000=1.000
,135.500=1.500
,136.000=1.000
,137.500=1.500
,138.000=1.000
,145.500=0.500
,146.000=1.000
,147.500=1.500
,148.000=1.000
,149.500=1.500
,150.000=1.000
,151.500=1.500
,152.000=1.000
,153.500=1.500
,154.000=1.000
,197.000=0.000
,197.500=1.000
,201.000=0.000
,201.500=1.000
,203.500=0.500
,204.000=1.000
,205.500=0.500
,206.000=1.000
,213.000=0.000
,213.500=1.000
,217.000=0.000
,217.500=1.000
,258.000=0.500
,259.000=1.000
,262.000=0.500
,263.000=1.000
,282.500=1.500
,283.000=1.000
,286.000=5.000
,286.750=1.000
,291.500=1.500
,292.000=1.000
,293.500=1.500
,294.000=1.000
,295.500=1.500
,296.000=1.000
,297.500=1.500
,298.000=1.000
,305.500=0.500
,306.000=1.000
,307.500=1.500
,308.000=1.000
,309.500=1.500
,310.000=1.000
,311.500=1.500
,312.000=1.000
,313.500=1.500
,314.000=1.000
,355.500=0.500
,367.000=1.000
,371.500=1.500
,372.000=1.000
,374.500=0.000
,375.000=1.000
,378.500=1.500
,379.000=1.000
,380.500=0.000
,381.000=1.000
,382.500=0.500
,383.500=1.000
,387.500=1.500
,388.000=1.000
,389.500=1.500
,390.000=1.000
,391.500=1.500
,392.000=1.000
,393.500=1.500
,394.000=1.000
,401.500=1.500
,402.000=1.000
,403.500=1.500
,404.000=1.000
,405.500=1.500
,406.000=1.000
,407.500=1.500
,408.000=1.000
,409.500=1.500
,410.000=1.000
,453.000=0.000
,453.500=1.000
,457.000=0.000
,457.500=1.000
,469.000=0.000
,469.500=1.000
,473.000=0.000
,473.500=1.000
;
#FAKES:;
#LABELS:0.000=Song Start
;
#ATTACKS:TIME=221.176346:LEN=0.681824:MODS=*0.4 200% Mini,*4 10000% Tornado,*4 10000% Bumpy;
#NOTES:
0000
0000
0000
0000
0000
1000
0001
1000
,
0001
1000
0001
1000
1010
1000
0010
1000
,
0010
1000
0010
0100
0110
0100
0010
0100
,
0010
0100
0010
0100
0101
0100
0001
0100
,
0001
0100
0001
0100
0101
0100
0001
1000
,
0001
1000
0001
1000
1001
1000
0001
1000
,
0001
1000
0010
1000
1010
1000
0010
1000
,
0100
0010
0100
0010
0110
0020
0000
0000
,
0030
0000
1000
0000
0001
1000
0000
0001
1000
0000
0001
0000
0010
0000
0100
0000
,
0010
0100
0110
0000
1000
0010
1000
0010
,
1000
0010
1010
0000
0001
0100
0001
0100
,
0000
0100
0001
0100
0000
0110
0000
1100
,
0000
0000
0001
1000
0001
0000
1000
0000
0001
0000
1000
0000
0100
0000
1000
0000
,
0100
1000
1100
0000
0100
0010
0100
0010
,
0100
0001
0101
0000
0000
0010
0100
0020
,
0030
1000
0100
2000
3000
0100
0000
1001
,
0000
0000
1000
0010
1000
0000
0010
0000
0100
0000
0010
0000
0000
0000
1000
0000
,
0100
2000
0000
3001
1000
0100
0010
0200
,
0000
0000
0300
0010
0100
0010
0000
1000
,
0001
1000
0000
1000
0010
1000
0010
1000
,
0000
0100
0000
0001
1001
0000
0010
0100
,
0010
0200
0010
0310
0100
0100
0010
0200
,
0000
0000
0300
0001
0010
0001
0100
0001
,
0100
1000
0100
0001
0100
1000
0100
0110
,
0000
1000
0100
1000
0020
0000
0130
0000
,
0000
0001
0100
0001
0200
0000
0301
0000
,
0000
0010
0100
1000
0200
0000
0310
0200
,
0000
0000
0000
0004
0300
0000
0000
0000
,
0003
0100
1000
0100
0020
0000
1030
0000
,
0000
0100
0010
0100
0002
0000
1003
0000
,
0000
0100
0010
0001
0000
1000
0000
0010
,
0000
0100
0010
0100
2000
0000
0000
3001
,
0000
0100
0000
0110
0000
1000
0100
1100
,
0000
0001
0100
0101
0000
0010
0001
0011
,
0000
0010
1000
1010
0000
0100
0010
0010
,
0000
0000
0100
0000
1000
0000
0100
0000
1000
0000
0001
0000
0000
0200
0000
0000
,
0000
0000
0000
0300
0000
0000
0100
0000
0000
0000
0010
0000
0100
0000
0110
0000
,
0000
1000
0100
1100
0000
0001
0100
0101
,
0000
0001
1000
1001
0000
0100
0010
0100
,
0000
0000
1000
0000
0100
0000
0010
0000
0100
0000
0001
0000
0000
2000
0000
0000
,
0000
0000
0000
0000
0000
0000
0000
3000
0000
0000
0110
0000
0000
0000
1010
0000
,
0000
1001
0000
0101
0000
1000
0100
1000
,
0100
2000
0000
0000
3000
0001
0000
0010
,
0100
0001
0010
0100
0002
0000
0000
0000
,
2003
0000
0000
0000
3000
0110
0000
0011
,
0000
0101
0000
0110
0000
0010
0100
0010
,
0001
0200
0000
0000
0300
0001
0000
1000
,
0100
1000
0010
2000
0100
0000
0000
3000
,
0002
0000
0000
0003
0000
0100
1000
0100
,
1000
0010
1010
0000
0010
0100
0010
0100
,
0010
0100
0101
0000
0001
0010
0100
0020
,
0030
1000
0100
2000
3000
0110
0000
1100
,
0000
0000
0100
0010
0100
0000
0010
0000
0000
0000
0001
0000
0010
0000
0100
0000
,
0001
0100
0101
0000
0000
0010
0001
0010
,
0001
0100
0101
0000
0100
0010
0100
1000
,
0000
0100
0010
0100
0000
1001
0000
0110
,
0000
0000
0010
1000
0010
0000
1000
0000
0001
0000
0100
0000
0100
0000
0001
0000
,
0100
0020
0000
1030
0100
0010
0100
2000
,
0000
0000
0000
3001
0010
0100
0000
1000
,
0000
0001
0000
1000
0000
0100
0010
0100
,
0000
2000
0000
0000
0000
3000
0001
0100
,
0001
0010
0100
0100
0010
0001
0010
0200
,
0000
0000
0300
0010
0100
0010
0100
0010
,
0100
1000
0100
1000
0001
1000
0010
1000
,
0000
1000
0100
1000
0020
0000
1030
0000
,
0000
0100
0010
0100
0002
0000
1003
0000
,
0000
0100
0010
0010
0100
0000
0010
0200
,
0000
0000
0000
0000
0300
0000
0020
0000
0000
0000
0000
0000
0000
0000
0000
0030
,
0000
0100
0010
0100
2000
0000
3001
0000
,
0000
0100
0010
0100
0200
0000
0310
0000
,
0000
0001
0100
0010
0000
0100
0000
0110
,
0000
0100
0001
0010
0200
0000
0300
0110
,
0000
1001
0000
0110
0000
1000
0100
1100
,
0000
0001
0100
0101
0000
1000
0001
1001
,
0000
0100
0010
0110
0000
1000
0100
0010
,
0000
0000
0100
0000
1000
0000
0100
0000
0001
0000
2000
0000
0000
3001
0000
0000
,
0000
0010
0000
0100
0000
1000
0100
1100
,
0000
0001
0100
0101
0000
0001
0010
0011
,
0000
0010
1000
1010
0000
0100
0010
0100
,
0000
0100
0001
1000
0100
0020
0000
0130
,
0000
0000
1000
0010
1000
0010
1000
0000
0000
0000
0110
0000
0000
0000
1100
0000
,
0000
0110
0000
1100
0000
0100
0010
0100
,
1000
0020
0000
0000
0030
0100
0000
0001
,
1000
0100
1000
0010
0200
0000
0000
0000
,
0001
0000
0000
0300
0000
0011
0000
0101
,
0000
0110
0000
0101
0000
0001
0010
0100
,
0001
0020
0000
0000
0030
0100
0000
0010
,
0100
1000
0100
0010
2000
0000
0000
3000
,
0200
0000
0000
0000
0300
0002
0000
1003
,
0010
0100
0100
0001
0100
0101
0000
0100
,
0010
0100
1000
0100
0010
0110
0000
1000
,
0100
0001
0100
1001
0000
0002
0000
0103
,
0000
0000
0010
0100
0000
0100
0010
0000
0110
0000
0010
0000
0100
0000
1010
0000
,
0000
0000
0001
1000
0000
1000
0001
0000
1000
0000
1001
0000
0000
0000
0110
0000
,
0000
0001
0100
0010
0100
1010
0000
0100
,
0010
0101
0000
0010
0100
0110
0000
2000
,
0000
0000
3001
0000
0010
0100
0000
0010
0100
0000
0010
0000
1000
0000
1010
0000
,
0000
0100
0001
0101
0000
0010
0100
0110
,
0000
1000
0100
1100
0000
0010
0100
0010
,
0001
0100
1000
0100
0001
0020
0000
0130
,
0000
0001
0000
1000
0000
0100
0001
0101
,
0000
0010
0001
0011
0000
0010
1000
1010
,
0000
0100
0010
0110
0000
1000
0100
1000
,
0000
0100
0001
0010
0100
2000
0000
3010
,
0000
0000
0100
0010
0100
0010
0100
0000
0000
0000
0110
0000
0000
0000
1100
0000
,
0000
0110
0000
1010
0000
0010
0100
1000
,
0100
0020
0000
0000
0030
0100
0000
0100
,
0010
0001
1000
0100
0020
0000
0000
0000
,
0230
0000
0000
0000
0300
0011
0000
0101
,
0000
0110
0000
0101
0000
0001
0010
0100
,
0001
0020
0000
0000
0030
0100
0000
0001
,
0100
0010
1000
0100
2000
0000
0000
0000
,
3020
0000
0000
0000
0030
0100
0010
0001
,
1000
0100
2200
3300
0000
0100
0010
0001
,
0100
0001
0202
0303
0000
0001
0100
0010
,
0000
0100
0010
0100
0000
0110
0000
1100
,
0000
0000
0100
0010
0001
0000
1000
0000
0001
0000
0010
0000
0100
0000
0010
0000
,
1000
0100
2020
3030
0000
0001
0010
0001
,
0100
0001
2002
3003
0000
1000
0100
0010
,
0000
1000
0100
0010
0000
0110
0000
1001
,
0000
0000
0100
0010
0100
0000
0010
0000
1010
0000
2000
0000
0000
0000
0000
0000
,
3000
0000
0001
0000
1000
0001
0000
0001
1000
0000
2002
0000
0000
0000
0000
3003
;

//---------------dance-single - ----------------
#NOTEDATA:;
#CHARTNAME:;
#STEPSTYPE:dance-single;
#DESCRIPTION:;
#CHARTSTYLE:;
#DIFFICULTY:Medium;
#METER:4;
#RADARVALUES:0.346,0.322,0.097,0.352,0.007,449.000,22.000,80.000,0.000,0.000,0.000,0.000,0.000,0.346,0.322,0.097,0.352,0.007,449.000,22.000,80.000,0.000,0.000,0.000,0.000,0.000;
#CREDIT:;
#OFFSET:-0.040;
#BPMS:0.000=132.000
;
#STOPS:;
#DELAYS:;
#WARPS:;
#TIMESIGNATURES:0.000=4=4
;
#TICKCOUNTS:0.000=4
;
#COMBOS:0.000=1
;
#SPEEDS:0.000=1.000=0.000=0
;
#SCROLLS:0.000=1.000
;
#FAKES:;
#LABELS:0.000=Song Start
;
#NOTES:
0000
0000
0000
0000
0000
1000
0000
0001
,
0000
1000
0000
0001
0000
1000
0000
0010
,
0000
1000
0000
0100
0000
0010
0000
0100
,
0000
0010
0000
0100
0000
0001
0000
0100
,
0000
0001
0000
0100
0000
0002
0000
1003
,
0000
2000
0000
3001
0000
2000
0000
3001
,
0000
0020
0000
1030
0000
0200
0000
0310
,
0000
0010
0100
0010
0000
0020
0000
0000
,
0030
0000
0000
0000
0000
0001
0000
0100
,
0000
0001
0100
0000
0000
0010
0000
1000
,
0000
0010
1000
0000
0000
0100
0000
0010
,
0000
0100
0000
0010
0000
0110
0000
1001
,
0000
0001
1000
0001
0000
1000
0000
0010
,
0000
1000
0010
0000
0000
0010
0000
0100
,
0000
0001
0100
0000
0000
0010
0100
0010
,
0000
1000
0100
1000
0000
0100
0000
1001
,
0000
1000
0000
0010
0000
0010
0000
1000
,
0100
1000
0000
0100
0000
0010
0000
0200
,
0000
0000
0300
0010
0000
0100
0000
1000
,
0000
0001
0000
1000
0000
0010
0000
1000
,
0000
0200
0000
0300
0000
1000
0000
0100
,
0000
0010
0000
1000
0000
0010
0000
0200
,
0000
0000
0300
0001
0000
1000
0000
0100
,
0000
1000
0000
0100
0000
0010
0000
0100
,
0000
1000
0000
0100
0000
0000
0100
0000
,
0000
0001
0000
0100
0002
0000
0103
0000
,
0000
0010
0000
1000
0000
0100
0000
0200
,
0000
0000
0300
2000
0000
0000
0000
3000
,
0000
0100
0000
0100
0020
0000
1030
0000
,
0000
0100
0000
0100
0002
0000
1003
0000
,
0000
0100
0000
0001
0000
1000
0000
0010
,
0000
0100
0000
0100
0000
0000
0000
0001
,
0000
0100
0000
0110
0000
2000
0000
3100
,
0000
0002
0000
0103
0000
0020
0000
0031
,
0000
0020
0000
1030
0000
0200
0000
0310
,
0000
0000
0100
0000
0000
0000
0100
0000
0000
0000
0001
0000
0000
0200
0000
0000
,
0000
0000
0000
0300
0000
0000
0100
0000
0000
0000
0020
0000
0000
0000
0130
0000
,
0000
2000
0000
3100
0000
0002
0000
0103
,
0000
0002
0000
1003
0000
0100
0000
0100
,
0000
0000
1000
0000
0000
0000
0010
0000
0000
0000
1000
0000
0000
2000
0000
0000
,
0000
0000
0000
0000
0000
0000
0000
3000
0000
0000
1000
0000
0000
0000
0010
0000
,
0000
0001
0000
0100
0000
0001
0000
1000
,
0000
1001
0000
0000
0000
0001
0000
0010
,
0000
0100
0000
0100
0002
0000
0000
0000
,
2003
0000
0000
0000
3000
0010
0000
0001
,
0000
0100
0000
1000
0000
0010
0000
0100
,
0000
0110
0000
0000
0000
0001
0000
1000
,
0000
0010
0000
2000
0000
0000
0000
3000
,
0002
0000
0000
0003
0000
0100
0000
1000
,
0000
0010
1000
0000
0000
0100
0000
0010
,
0000
0100
0001
0000
0000
0010
0000
0010
,
0000
1000
0100
1000
0000
0100
0000
0110
,
0000
0100
0000
0010
0000
0001
0000
0100
,
0000
0100
0001
0000
0000
0010
0000
0100
,
0001
0100
0000
0000
0000
0010
0000
1000
,
0000
0100
0000
0100
0000
0001
0000
1001
,
0000
0010
0000
1000
0000
0001
0000
0100
,
0000
0020
0000
1030
0000
0010
0000
2000
,
0000
0000
0000
3001
0000
0100
0000
1000
,
0000
0001
0000
1000
0000
0100
0000
0100
,
0000
0020
0000
0000
0030
0000
0000
0100
,
0000
0010
0000
0100
0000
0001
0000
0200
,
0000
0000
0300
0010
0000
0001
0000
0010
,
0000
1000
0000
0100
0000
0001
0000
0100
,
0000
1000
0000
0100
0020
0000
0030
0000
,
0000
0001
0000
1000
0002
0000
0003
0000
,
0000
0100
0000
0010
0000
0000
0010
0200
,
0000
0000
0000
0000
0300
0000
0020
0000
0000
0000
0000
0000
0000
0000
0000
0030
,
0000
1000
0000
0010
2000
0000
3000
0000
,
0000
0100
0000
0010
0200
0000
0300
0000
,
0000
0001
0000
0100
0000
0100
0000
1001
,
0000
0100
0000
0010
0200
0000
0300
0010
,
0000
0100
0000
0110
0000
2000
0000
3100
,
0000
0002
0000
0103
0000
2000
0000
3001
,
0000
0002
0000
1003
0000
1000
0000
0010
,
0000
0000
0100
0000
0000
0000
0100
0000
0000
0000
2000
0000
0000
3001
0000
0000
,
0000
0010
0000
0100
0000
2000
0000
3100
,
0000
0002
0000
0103
0000
0002
0000
0013
,
0000
0020
0000
0130
0000
0100
0000
0001
,
0000
0100
0000
0010
0100
0020
0000
0130
,
0000
1000
0010
1000
0000
1000
0000
0010
,
0000
0001
0000
0100
0000
1000
0000
0001
,
0000
1001
0000
0000
0000
0100
0000
0001
,
0000
0100
0000
0010
0200
0000
0000
0000
,
0000
0000
0000
0300
0000
0100
0000
0100
,
0000
1000
0000
0001
0000
0001
0010
0100
,
0001
0020
0000
0000
0030
0100
0000
0010
,
0100
1000
0100
0010
2000
0000
0000
3000
,
0200
0000
0000
0000
0300
0002
0000
1003
,
0000
0100
0000
0001
0000
0100
0000
0100
,
0000
0100
0000
0010
0000
0100
0000
1000
,
0000
0001
0000
1000
0000
0002
0000
0103
,
0000
0020
0000
0000
0030
0010
0000
0110
,
0000
1000
0000
0001
0000
1000
0000
0110
,
0000
0001
0000
1000
0000
0001
0000
0100
,
0000
0001
0000
0010
0000
0110
0000
1000
,
0000
0001
0000
1000
0000
2000
0000
3100
,
0000
0002
0000
0103
0000
0020
0000
0130
,
0000
2000
0000
3100
0000
0010
0000
0100
,
0000
0010
0000
0100
0000
0020
0000
0130
,
0000
0001
0000
1000
0000
0200
0000
0301
,
0000
0002
0000
0013
0000
0020
0000
1030
,
0000
2000
0000
3010
0000
1000
0100
1000
,
0000
0100
0000
1000
0000
2000
0000
3010
,
0000
0020
0000
0030
0000
0100
0000
1000
,
0000
0010
0000
0001
0000
1000
0000
1001
,
0000
0020
0000
0000
0030
0100
0000
0200
,
0000
0301
0000
0100
0020
0000
0000
0000
,
0230
0000
0000
0000
0300
1001
0000
0110
,
0000
1001
0000
0110
0000
1000
0000
0100
,
0000
0020
0000
0000
0030
0100
0000
0001
,
1000
0001
0000
0001
2000
0000
0000
0000
,
3020
0000
0000
0000
0030
0100
0000
0001
,
0000
0001
1000
0000
0000
0100
0000
0001
,
0000
0100
0001
0000
0000
0010
0000
0010
,
0000
0100
0010
0100
0000
0010
0000
1000
,
0000
0002
0000
1003
0000
0010
0000
0100
,
0000
0100
0010
0000
0000
0001
0000
0010
,
0000
0100
0010
0000
0000
1000
0000
0010
,
0000
1000
0000
0010
0000
0110
0000
1001
,
0000
0200
0000
0000
0300
0020
0000
0000
,
0000
0000
0000
0000
0000
0000
0030
0000
0000
0000
2002
0000
0000
0000
0000
3003
;

//---------------dance-single - ----------------
#NOTEDATA:;
#CHARTNAME:;
#STEPSTYPE:dance-single;
#DESCRIPTION:;
#CHARTSTYLE:;
#DIFFICULTY:Easy;
#METER:2;
#RADARVALUES:0.156,0.161,0.000,0.106,0.000,225.000,0.000,24.000,0.000,0.000,0.000,0.000,0.000,0.156,0.161,0.000,0.106,0.000,225.000,0.000,24.000,0.000,0.000,0.000,0.000,0.000;
#CREDIT:;
#OFFSET:-0.040;
#BPMS:0.000=132.000
;
#STOPS:;
#DELAYS:;
#WARPS:;
#TIMESIGNATURES:0.000=4=4
;
#TICKCOUNTS:0.000=4
;
#COMBOS:0.000=1
;
#SPEEDS:0.000=1.000=0.000=0
;
#SCROLLS:0.000=1.000
;
#FAKES:;
#LABELS:0.000=Song Start
;
#NOTES:
0000
0000
0000
0000
0000
1000
0000
0000
,
0000
0010
0000
0000
0000
1000
0000
0000
,
0000
0100
0000
0000
0000
0010
0000
0000
,
0000
0010
0000
0000
0000
0001
0000
0000
,
0000
0001
0000
0000
0000
2000
0000
0000
,
0000
0000
0000
0000
,
0000
0000
0000
0000
,
0000
0000
0000
3000
0000
0020
0000
0000
,
0030
0000
0000
0000
0000
0001
0000
1000
,
0000
0001
0000
0000
0000
0010
0000
1000
,
0000
0010
0000
0000
0000
0100
0000
0000
,
0000
0100
0000
0000
0000
0010
0000
0000
,
0000
0001
0000
0000
0000
1000
0000
0000
,
0000
1000
0000
0000
0000
0010
0000
0000
,
0000
0100
0000
0000
0000
0010
0000
0000
,
0000
1000
0000
0000
0000
0100
0000
0000
,
0000
1000
0000
0000
0000
0010
0000
0000
,
0000
1000
0000
0000
0000
0010
0000
0200
,
0000
0000
0300
0000
0000
0100
0000
0000
,
0000
0001
0000
0000
0000
0010
0000
0000
,
0000
0200
0000
0300
0000
0000
0000
0100
,
0000
0000
0000
1000
0000
0000
0000
0200
,
0000
0000
0300
0000
0000
1000
0000
0000
,
0000
1000
0000
0000
0000
0010
0000
0000
,
0000
1000
0000
0000
0000
0000
0100
0000
,
0000
0000
0002
0003
,
0000
0010
0000
0000
0000
0010
0000
0000
,
0000
0000
0000
2000
0000
0000
0000
3000
,
0000
0100
0000
0000
0020
0000
0030
0000
,
0000
0100
0000
0000
0002
0000
0003
0000
,
0000
0100
0000
0000
0000
1000
0000
0000
,
0000
0100
0000
0000
0000
0000
0000
0001
,
0000
0000
0000
0100
0000
0000
0000
0100
,
0000
0000
0000
0100
0000
0000
0000
0001
,
0000
0000
0000
1000
0000
0000
0000
0010
,
0000
0000
0000
0100
0000
0002
0000
0000
,
0003
0000
0000
0100
0000
0000
0000
0100
,
0000
0000
0000
0100
0000
0000
0000
0100
,
0000
0000
0000
1000
0000
0000
0000
0100
,
0000
0000
0000
0010
0000
2000
0000
3000
,
0000
0000
0000
0000
0000
1000
0000
0000
,
0000
0001
0000
0000
0000
0001
0000
0000
,
0000
1000
0000
0000
0000
0001
0000
0000
,
0000
0100
0000
0000
0002
0000
0000
0000
,
0003
0000
0000
0000
0000
0010
0000
0000
,
0000
0100
0000
0000
0000
0010
0000
0000
,
0000
0100
0000
0000
0000
0001
0000
0000
,
0000
0010
0000
0000
0000
0000
0000
0000
,
0002
0000
0000
0003
0000
0100
0000
0000
,
0000
0010
0000
0000
0000
0100
0000
0000
,
0000
0100
0000
0000
0000
0010
0000
0000
,
0000
1000
0000
0000
0000
0100
0000
0000
,
0000
0100
0000
0000
0000
0001
0000
0000
,
0000
0100
0000
0000
0000
0010
0000
0000
,
0000
0100
0000
0000
0000
0010
0000
0000
,
0000
0100
0000
0000
0000
0001
0000
0000
,
0000
0010
0000
0000
0000
0001
0000
0000
,
0000
0000
0000
1000
0000
0010
0000
0000
,
0000
0000
0000
0001
0000
0000
0000
1000
,
0000
0000
0000
1000
0000
0000
0000
0100
,
0000
0000
0000
0010
0000
0000
0000
0100
,
0000
0000
0000
0100
0000
0000
0000
0100
,
0000
0000
0000
0010
0000
0000
0000
0010
,
0000
0000
0000
0100
0000
0000
0000
0100
,
0000
0000
0000
0100
0000
0000
0000
1000
,
0000
0000
0000
1000
0000
0000
0000
0000
,
0000
0100
0000
0000
0000
0010
0000
0000
,
0000
0100
0000
0000
0000
0010
0000
0000
,
0000
1000
0000
0000
0000
0100
0000
0000
,
0000
0010
0000
0000
0000
0100
0000
0000
,
0000
0001
0000
0000
0000
0100
0000
0000
,
0000
0010
0000
0000
0000
0100
0000
0000
,
0000
0001
0000
0000
0000
1000
0000
0100
,
0000
0000
0000
0001
0000
0000
0000
0001
,
0000
0000
0000
1000
0000
0000
0000
0010
,
0000
0100
0000
0000
0000
1000
0000
0000
,
0000
0010
0000
0000
0000
0000
0000
0100
,
0000
0000
0000
0100
0000
0000
0000
0010
,
0000
0000
0000
0100
0000
0000
0000
0001
,
0000
0000
0000
0000
0000
0020
0000
0030
,
0000
1000
0000
0000
0000
1000
0000
0000
,
0000
0001
0000
0000
0000
1000
0000
0000
,
0000
0010
0000
0000
0000
0100
0000
0000
,
0000
0100
0000
0000
0200
0000
0000
0000
,
0000
0000
0000
0300
0000
0100
0000
0000
,
0000
1000
0000
0000
0000
0001
0000
0000
,
0000
0020
0000
0000
0030
0000
0000
0010
,
0000
0000
0000
0010
0000
0000
0000
0000
,
0200
0000
0000
0000
0300
0000
0000
1000
,
0000
0000
0000
0001
0000
0000
0000
0100
,
0000
0000
0000
0010
0000
0000
0000
1000
,
0000
0000
0000
1000
0000
0000
0000
0100
,
0000
0000
0000
0000
0000
0010
0000
0000
,
0000
1000
0000
0000
0000
0010
0000
0000
,
0000
0001
0000
0000
0000
0100
0000
0000
,
0000
0001
0000
0000
0000
0010
0000
0000
,
0000
0001
0000
1000
0000
0000
0000
0100
,
0000
0000
0000
0100
0000
0000
0000
0100
,
0000
0000
0000
0100
0000
0000
0000
0100
,
0000
0000
0000
0100
0000
0000
0000
0100
,
0000
0000
0000
1000
0000
0000
0000
0001
,
0000
0000
0000
0010
0000
0000
0000
1000
,
0000
0000
0000
0010
0000
0000
0000
1000
,
0000
0000
0000
0010
0000
0000
0000
0010
,
0000
0000
0000
0000
0000
0100
0000
0000
,
0000
0010
0000
0000
0000
1000
0000
0000
,
0000
0020
0000
0000
0030
0000
0000
0200
,
0000
0300
0000
0000
0010
0000
0000
0000
,
0200
0000
0000
0000
0300
0001
0000
0000
,
0000
1000
0000
0000
0000
0001
0000
0000
,
0000
0020
0000
0000
0030
0000
0000
0100
,
0000
0000
0000
0010
0000
0000
0000
0000
,
0020
0000
0000
0000
0030
0000
0000
0001
,
0000
0000
0000
1000
0000
0000
0000
0001
,
0000
0000
0000
0100
0000
0000
0000
0010
,
0000
0000
0000
0100
0000
0000
0000
1000
,
0000
0000
0000
1000
0000
0000
0000
0100
,
0000
0000
0000
0010
0000
0000
0000
0010
,
0000
0000
0000
0010
0000
0000
0000
0010
,
0000
0000
0000
0100
0000
0000
0000
0001
,
0000
0000
0000
0000
0000
0020
0000
0000
,
0000
0000
0000
0000
0000
0000
0030
0000
0000
0000
2000
0000
0000
0000
0000
3000
;

//---------------dance-single - ----------------
#NOTEDATA:;
#CHARTNAME:;
#STEPSTYPE:dance-single;
#DESCRIPTION:;
#CHARTSTYLE:;
#DIFFICULTY:Challenge;
#METER:8;
#RADARVALUES:0.716,0.644,0.532,0.616,0.218,879.000,121.000,140.000,14.000,0.000,0.000,0.000,0.000,0.716,0.644,0.532,0.616,0.218,879.000,121.000,140.000,14.000,0.000,0.000,0.000,0.000;
#CREDIT:;
#OFFSET:-0.040;
#BPMS:0.000=132.000
;
#STOPS:;
#DELAYS:;
#WARPS:;
#TIMESIGNATURES:0.000=4=4
;
#TICKCOUNTS:0.000=4
;
#COMBOS:0.000=1
;
#SPEEDS:0.000=1.000=0.000=0
,31.000=0.200=0.000=0
,31.500=1.000=0.000=0
,486.500=10.000=0.000=0
,488.000=1.000=0.000=0
;
#SCROLLS:0.000=1.000
,6.000=0.000
,6.250=1.000
,10.000=0.000
,10.250=1.000
,14.000=0.000
,14.250=1.000
,18.000=0.000
,18.250=1.000
,30.500=4.000
,32.000=1.000
,34.500=0.000
,34.750=1.000
,35.000=0.000
,35.250=1.000
,35.500=0.000
,35.750=1.000
,36.000=0.000
,36.250=1.000
,36.500=0.000
,36.750=1.000
,37.000=0.000
,37.500=1.000
,38.000=0.000
,38.250=1.000
,38.500=0.000
,38.750=1.000
,39.000=0.000
,39.250=1.000
,39.500=0.000
,39.750=1.000
,40.000=0.000
,40.250=1.000
,40.500=0.000
,40.750=1.000
,41.000=0.000
,41.500=1.000
,46.500=0.000
,47.000=1.000
,49.500=1.500
,50.000=1.000
,50.500=0.000
,50.750=1.000
,51.000=0.000
,51.250=1.000
,51.500=0.000
,51.750=1.000
,52.000=0.000
,52.250=1.000
,52.500=0.000
,52.750=1.000
,53.000=0.000
,53.500=1.000
,57.000=0.000
,57.500=1.000
,62.500=0.000
,63.000=1.000
,63.500=0.000
,64.000=1.000
,65.500=1.500
,66.000=1.000
,81.500=1.500
,82.000=1.000
,122.500=1.500
,123.000=0.500
,123.500=1.500
,124.000=0.500
,124.500=1.000
,126.000=0.700
,127.500=1.000
,131.500=1.500
,132.000=1.000
,133.500=1.500
,134.000=1.000
,135.500=1.500
,136.000=1.000
,137.500=1.500
,138.000=1.000
,145.500=0.500
,146.000=1.000
,147.500=1.500
,148.000=1.000
,149.500=1.500
,150.000=1.000
,151.500=1.500
,152.000=1.000
,153.500=1.500
,154.000=1.000
,197.000=0.000
,197.500=1.000
,201.000=0.000
,201.500=1.000
,203.500=0.500
,204.000=1.000
,205.500=0.500
,206.000=1.000
,213.000=0.000
,213.500=1.000
,217.000=0.000
,217.500=1.000
,258.000=0.500
,259.000=1.000
,262.000=0.500
,263.000=1.000
,279.500=0.200
,280.000=1.000
,282.500=1.500
,283.000=1.000
,286.000=5.000
,286.750=1.000
,291.500=1.500
,292.000=1.000
,293.500=1.500
,294.000=1.000
,295.500=1.500
,296.000=1.000
,297.500=1.500
,298.000=1.000
,305.500=0.500
,306.000=1.000
,307.500=1.500
,308.000=1.000
,309.500=1.500
,310.000=1.000
,311.500=1.500
,312.000=1.000
,313.500=1.500
,314.000=1.000
,354.750=0.500
,358.500=1.000
,359.000=0.500
,362.500=1.000
,363.000=0.500
,367.000=1.000
,371.500=1.500
,372.000=1.000
,374.500=0.000
,375.000=1.000
,378.500=1.500
,379.000=1.000
,380.500=0.000
,381.000=1.000
,382.500=0.500
,383.500=1.000
,387.500=1.500
,388.000=1.000
,389.500=1.500
,390.000=1.000
,391.500=1.500
,392.000=1.000
,393.500=1.500
,394.000=1.000
,401.500=1.500
,402.000=1.000
,403.500=1.500
,404.000=1.000
,405.500=1.500
,406.000=1.000
,407.500=1.500
,408.000=1.000
,409.500=1.500
,410.000=1.000
,450.500=0.000
,450.750=1.000
,451.000=0.000
,451.250=1.000
,451.500=0.000
,451.750=1.000
,452.000=0.000
,452.250=1.000
,452.500=0.000
,452.750=1.000
,453.000=0.000
,453.500=1.000
,454.500=0.000
,454.750=1.000
,455.000=0.000
,455.250=1.000
,455.500=0.000
,455.750=1.000
,456.000=0.000
,456.250=1.000
,456.500=0.000
,456.750=1.000
,457.000=0.000
,457.500=1.000
,462.500=0.000
,463.000=1.000
,466.500=0.000
,466.750=1.000
,467.000=0.000
,467.250=1.000
,467.500=0.000
,467.750=1.000
,468.000=0.000
,468.250=1.000
,468.500=0.000
,468.750=1.000
,469.000=0.000
,469.500=1.000
,470.500=0.000
,470.750=1.000
,471.000=0.000
,471.250=1.000
,471.500=0.000
,471.750=1.000
,472.000=0.000
,472.250=1.000
,472.500=0.000
,472.750=1.000
,473.000=0.000
,473.500=1.000
,474.500=0.000
,474.750=1.000
,475.000=0.000
,475.250=1.000
,475.500=0.000
,475.750=1.000
,476.000=0.000
,476.250=1.000
,476.500=0.000
,476.750=1.000
,477.000=0.000
,477.250=1.000
,477.500=0.000
,477.750=1.000
,478.000=0.000
,478.250=1.000
,478.750=0.000
,479.000=1.000
,482.500=1.500
,484.000=1.000
;
#FAKES:;
#LABELS:0.000=Song Start
;
#ATTACKS:TIME=221.176346:LEN=0.681824:MODS=*0.4 200% Mini,*4 10000% Tornado,*4 10000% Bumpy;
#NOTES:
// measure 0
0000
0000
0000
0000
0000
0100
0101
0100
,  // measure 1
0101
0100
0101
0100
0101
0100
0110
0100
,  // measure 2
0110
0100
0110
0100
1100
0100
1100
0100
,  // measure 3
1100
0100
1100
0100
0101
0001
1000
0001
,  // measure 4
1000
0001
1000
0001
1001
0001
0002
1000
,  // measure 5
2003
0010
3020
0100
0230
0001
0302
1000
,  // measure 6
2003
0010
3020
0100
0230
0010
0320
1000
,  // measure 7
2030
0010
3002
1000
1003
2020
0000
0000
,  // measure 8
3030
0000
1000
0000
0010
1000
0000
0010
1000
0000
0110
0000
0010
0000
1000
0000
,  // measure 9
0010
0000
1000
0000
2020
0000
3030
0000
1000
0000
0001
1000
0001
1000
0001
0000
,  // measure 10
1000
0001
2002
3003
0001
0100
0001
0101
,  // measure 11
0100
0100
0010
0120
0100
0130
0000
1100
,  // measure 12
0000
0000
0001
1000
0001
0000
2000
0000
3001
0000
1000
0000
0100
0000
1000
0000
,  // measure 13
0100
0000
1000
0000
1100
0000
0000
0000
0100
0000
0010
0100
0010
0100
0010
0000
,  // measure 14
0100
0001
0101
0000
0100
0010
0100
0020
,  // measure 15
1030
1000
0100
2000
3010
1000
0000
1001
,  // measure 16
0000
0000
1000
0010
1000
0000
0020
0000
0130
0000
0000
0000
0100
0000
1000
0000
,  // measure 17
0100
2000
0000
3001
1000
0100
0010
0200
,  // measure 18
0010
0010
0310
0010
0100
0010
0100
1000
,  // measure 19
0001
0101
0001
1000
0010
1000
0010
2000
,  // measure 20
0000
0002
3003
1002
1003
0000
0010
0100
,  // measure 21
0010
0200
0010
0310
0100
0100
0010
0110
,  // measure 22
0001
0010
0100
1000
0100
0010
0001
0000
0010
0000
0001
0000
0110
0000
0001
0000
,  // measure 23
0100
0101
0101
0001
0100
0110
0100
1010
,  // measure 24
0000
1000
0100
1000
1020
0000
0130
0000
,  // measure 25
0110
0001
0100
0001
0200
0000
0302
0000
,  // measure 26
0003
0010
0100
0010
0200
0000
0310
0100
,  // measure 27
0010
0100
0010
0000
0100
0000
0002
0000
0103
0000
0010
0000
0100
0000
0110
0000
,  // measure 28
0000
0100
1000
0100
0020
0000
1030
0000
,  // measure 29
0010
0100
0010
0100
0002
0000
1000
0000
,  // measure 30
1003
0000
0100
0000
0010
0000
0101
0000
0000
0000
1010
0000
0010
0100
0020
0000
,  // measure 31
0000
0130
0010
0100
2000
0000
0000
3001
,  // measure 32
0000
0000
0110
0000
0010
0100
0000
0010
0100
0000
1000
0000
0100
1000
0200
0000
,  // measure 33
0300
0001
0100
0202
0303
0001
0010
0022
,  // measure 34
0033
0010
0100
0220
0330
0100
0010
1010
,  // measure 35
0000
0000
0100
0000
1000
0000
0110
0000
1000
0000
0020
0000
0030
0100
0020
0000
,  // measure 36
0030
0000
0100
0010
0100
0000
0220
0000
0330
0000
0010
0000
1000
0010
2000
0000
,  // measure 37
3000
1000
0100
2200
3300
0010
0100
2020
,  // measure 38
3030
0010
0100
0202
0303
0100
0010
1200
,  // measure 39
0300
0000
1000
0000
0100
0000
0010
0000
0100
0000
0002
0000
0000
2003
0000
0000
,  // measure 40
0000
0000
3001
0000
1000
0001
1000
0001
0000
0000
0100
0000
0100
0010
0100
0000
,  // measure 41
0010
1001
0000
0101
0000
1000
0100
1000
,  // measure 42
0100
0000
2000
0000
3010
0100
0010
0100
0010
0000
0001
0000
0000
0000
0010
0000
,  // measure 43
0100
0000
0001
0000
0010
0100
0010
0000
0002
0000
0000
0000
1000
0000
0000
0000
,  // measure 44
1003
0000
1000
0010
1000
0000
0010
0000
1010
0000
1000
0000
0001
0010
0001
0000
,  // measure 45
0001
1000
0001
0000
1000
0010
1000
0000
0100
0010
0100
0000
0100
0000
0010
0000
,  // measure 46
0001
0000
0010
0000
0100
0010
0100
0000
0100
0000
0001
0000
0000
0000
1000
0000
,  // measure 47
0100
1000
0010
2000
0100
0000
0010
3000
,  // measure 48
1001
0000
1000
0000
0010
1000
0010
1000
0010
0000
0100
0000
1000
0000
0100
0000
,  // measure 49
1000
0000
0010
0000
1010
0000
0000
0000
0010
0000
0100
0010
0100
0010
0100
0000
,  // measure 50
0010
0100
0101
0000
0001
0010
0100
0020
,  // measure 51
0130
1000
0100
2000
3010
0110
0000
1100
,  // measure 52
0000
0000
0100
0010
0100
0000
0200
0000
0310
0000
0001
0000
0010
0000
0100
0000
,  // measure 53
0001
0000
0100
0000
0101
0000
0000
0000
0100
0000
0001
1000
0001
1000
0001
0000
,  // measure 54
0001
0100
0101
0000
0100
0010
0100
1010
,  // measure 55
0010
0100
0010
0100
0010
1001
0000
0110
,  // measure 56
0000
0000
0010
1000
0010
0000
1000
0000
0001
0000
0100
0000
0100
0000
0001
0000
,  // measure 57
0100
0020
0000
1030
0100
0010
0100
2000
,  // measure 58
0001
0000
0001
3001
0010
0100
0010
1000
,  // measure 59
0100
0000
0010
0000
0100
0000
1000
0000
0010
0000
0100
0000
0010
0000
0100
0010
,  // measure 60
0100
0110
0000
1001
2000
0000
3001
0100
,  // measure 61
0001
0000
0010
0000
0100
0000
0100
0000
0010
0000
0001
0000
0001
0100
0002
0000
,  // measure 62
0003
0000
1000
0010
1000
0010
1000
0000
0010
0000
1000
0000
0010
0000
1000
0000
,  // measure 63
0100
1000
0100
1000
0001
1000
0010
2020
,  // measure 64
3030
1000
0100
1000
0020
0000
1030
0000
,  // measure 65
0010
0100
0010
0100
0002
0000
1003
0000
,  // measure 66
0110
0100
0010
0010
0100
0000
0010
1000
,  // measure 67
1000
0010
1000
0000
0010
0000
0020
0000
0100
0000
1000
0000
0100
0000
1000
0030
,  // measure 68
0000
0100
0010
0100
2000
0000
3001
0000
,  // measure 69
0101
0100
0010
0100
0200
0000
0310
0000
,  // measure 70
0000
0001
0100
0101
0000
0101
0000
0110
,  // measure 71
0000
0100
0001
0010
0220
0000
0330
0110
,  // measure 72
0000
0000
1001
0000
1000
0001
0000
1000
0001
0000
1000
0000
0100
1000
0200
0000
,  // measure 73
0300
0001
0100
0202
0303
1000
0001
2002
,  // measure 74
3003
0100
0010
0220
0330
1000
0100
0010
,  // measure 75
0000
0000
0100
0000
1000
0000
0100
0000
0001
0000
2000
0000
0000
3001
0000
0000
,  // measure 76
1000
0010
1000
0010
1000
0000
0100
0000
0000
0000
1000
0000
0100
0010
0200
0000
,  // measure 77
0000
0300
0001
0000
0100
0000
0202
0000
0303
0000
0001
0000
0010
0000
0022
0000
,  // measure 78
0033
1000
0001
2002
3003
0100
0010
0100
,  // measure 79
0000
0000
0100
0000
0001
0010
0001
0000
0100
0000
0020
0000
0000
0000
0130
0000
,  // measure 80
0000
0000
1000
0010
1000
0010
1000
0010
0000
0000
0110
0000
0010
0100
0010
0000
,  // measure 81
0000
0110
0000
1100
0000
0100
0010
0100
,  // measure 82
1000
0000
0020
0100
0000
0000
1000
0000
0030
0000
0100
0000
0000
0000
0001
0000
,  // measure 83
1000
0000
0100
0000
1000
0100
0010
0000
0200
0000
0000
0000
0000
0000
0000
0000
,  // measure 84
0301
0000
0001
0010
0001
0010
0001
0000
0000
0000
0011
0000
0000
0000
0101
0000
,  // measure 85
0000
0110
0000
0101
0000
0001
0010
0100
,  // measure 86
0001
0000
0100
0010
0100
0010
0100
0000
0010
0000
0100
0000
0000
0000
0010
0000
,  // measure 87
0100
1000
0100
0010
2020
0000
0000
3030
,  // measure 88
0200
0000
0310
0000
0010
0100
0000
0010
0100
0000
0002
0000
0100
0000
1003
0000
,  // measure 89
0010
0100
0100
0001
0100
0202
0303
0100
,  // measure 90
0010
0100
1000
0100
0010
0220
0330
1000
,  // measure 91
0100
0001
0100
1001
0000
0002
0000
0103
,  // measure 92
0000
0000
0010
0100
0000
0100
0010
0000
0110
0000
0010
0000
0100
0000
0200
0000
,  // measure 93
0300
0000
0001
1000
0000
1000
0001
0000
1000
0000
1001
0000
0000
0000
0110
0000
,  // measure 94
0000
0001
0100
0010
0100
2020
3030
0100
,  // measure 95
0010
0101
0000
0010
0100
0110
0000
2000
,  // measure 96
0000
0000
3001
0000
0010
0100
0000
0010
0100
0000
0010
0000
1000
0010
2000
0000
,  // measure 97
3000
0100
0001
0202
0303
0010
0100
0220
,  // measure 98
0330
1000
0100
2200
3300
0010
0100
0010
,  // measure 99
0001
0000
0100
0000
1000
0000
0100
0010
0001
0000
0020
0000
0000
0000
0130
0000
,  // measure 100
0000
0000
1002
0000
0000
0000
1003
0000
0000
0000
0100
0000
0001
0010
0001
0000
,  // measure 101
0000
0010
0001
0022
0033
0010
0100
0220
,  // measure 102
0330
0100
1000
2020
3030
1000
0110
1000
,  // measure 103
0000
0000
0100
0000
0001
0010
0001
0000
0100
0000
2000
0000
0000
0000
3010
0000
,  // measure 104
0000
0000
0100
0010
0100
0010
0100
0010
0000
0000
0110
0000
0010
0100
0010
0000
,  // measure 105
0100
0000
0110
0000
0010
0000
1010
0000
0100
0000
0010
0000
0100
0010
0100
0000
,  // measure 106
0100
0000
0100
0010
0100
0010
0100
0000
0100
0000
0100
0000
0000
0000
0100
0000
,  // measure 107
0010
0001
1000
0100
1020
0000
0000
0000
,  // measure 108
0130
0000
0001
0100
0001
0100
0001
0000
0000
0000
0011
0000
0001
0010
0001
0000
,  // measure 109
0010
0110
0000
0101
0000
0001
0010
0100
,  // measure 110
0001
0000
0010
0100
0010
0100
0010
0000
0010
0000
0200
0000
0000
0000
0301
0000
,  // measure 111
0100
0010
1000
0100
2100
0000
0010
0000
,  // measure 112
3020
0000
0000
0000
0130
0100
0010
0001
,  // measure 113
1000
0000
0100
0000
2200
0000
0000
3300
0000
0000
0100
0010
0100
0010
0100
0000
,  // measure 114
0100
0000
0001
0000
0202
0000
0000
0303
0100
0000
0001
0000
0100
0000
0010
0000
,  // measure 115
0100
0010
0100
0000
0001
0000
0100
0000
0010
0000
0110
0000
0000
0000
1100
0000
,  // measure 116
0000
0000
0100
0010
0001
0000
1000
0000
0001
0000
0010
0000
0100
0000
0010
0000
,  // measure 117
1000
0000
0100
0000
2001
0000
0000
3000
0000
0000
0001
0010
0001
0010
0001
0000
,  // measure 118
0100
0000
0001
0000
2002
0000
0000
3003
0000
0000
1000
0000
0100
0000
0010
0000
,  // measure 119
0100
1000
0100
0010
0100
0110
0000
2002
,  // measure 120
3003
0000
0100
0010
0100
0000
0010
0000
1010
0000
2010
0000
0000
0000
0000
0000
,  // measure 121
3000
0000
0001
0000
1000
0001
0000
0001
1000
0000
2MM2
0MM0
0MM0
0MM0
0MM0
0MM0
,  // measure 122
3MM3
0000
0000
0000
;
