#VERSION:0.81;
#TITLE:Scream;
#SUBTITLE:;
#ARTIST:2NE1;
#TITLETRANSLIT:;
#SUBTITLETRANSLIT:;
#ARTISTTRANSLIT:;
#GENRE:KPop;
#ORIGIN:;
#CREDIT:;
#BANNER:Scream.png;
#BACKGROUND:Scream-bg.png;
#PREVIEWVID:;
#JACKET:;
#CDIMAGE:;
#DISCIMAGE:;
#LYRICSPATH:;
#CDTITLE:cdtitle.png;
#MUSIC:2NE1 SCREAM (Short Ver.).mp3;
#OFFSET:0.120;
#SAMPLESTART:0.140;
#SAMPLELENGTH:12.000;
#SELECTABLE:YES;
#BPMS:0.000=128.000;
#STOPS:;
#DELAYS:;
#WARPS:;
#TIMESIGNATURES:0.000=4=4;
#TICKCOUNTS:0.000=4;
#COMBOS:0.000=1;
#SPEEDS:0.000=1.000=0.000=0;
#SCROLLS:0.000=1.000;
#FAKES:;
#LABELS:0.000=Song Start;
#BGCHANGES:;
#KEYSOUNDS:;
#ATTACKS:
;

//---------------dance-single - Blank----------------
#NOTEDATA:;
#CHARTNAME:;
#STEPSTYPE:dance-single;
#DESCRIPTION:Blank;
#CHARTSTYLE:;
#DIFFICULTY:Hard;
#METER:6;
#RADARVALUES:0.646,0.580,0.492,0.718,0.149,323.000,48.000,70.000,0.000,0.000,0.000,0.000,0.000,0.646,0.580,0.492,0.718,0.149,323.000,48.000,70.000,0.000,0.000,0.000,0.000,0.000;
#CREDIT:Blue Army;
#OFFSET:0.120;
#BPMS:0.000=128.000
;
#STOPS:;
#DELAYS:;
#WARPS:;
#TIMESIGNATURES:0.000=4=4
;
#TICKCOUNTS:0.000=4
;
#COMBOS:0.000=1
;
#SPEEDS:0.000=1.000=0.000=0
,7.000=1.500=0.000=0
,7.250=1.000=0.000=0
,15.000=0.200=0.000=0
,15.125=3.000=0.000=0
,15.250=1.000=0.000=0
,18.000=6.000=0.000=0
,18.167=1.000=0.000=0
,23.000=0.100=0.000=0
,23.167=1.000=0.000=0
,30.750=0.500=0.000=0
,31.000=1.000=0.000=0
,31.500=0.500=0.000=0
,31.750=1.000=0.000=0
,32.500=0.500=0.000=0
,32.750=1.000=0.000=0
,33.500=0.500=0.000=0
,33.750=1.000=0.000=0
,34.500=0.500=0.000=0
,34.750=1.000=0.000=0
,40.500=1.500=0.000=0
,40.750=1.000=0.000=0
,104.250=0.300=0.000=0
,104.500=1.000=0.000=0
,112.250=0.300=0.000=0
,112.500=1.000=0.000=0
,131.500=10.000=0.000=0
,131.750=1.000=0.000=0
,172.500=0.500=0.000=0
,172.750=1.000=0.000=0
,173.000=0.500=0.000=0
,173.250=1.000=0.000=0
,173.500=0.500=0.000=0
,173.750=1.000=0.000=0
,174.000=0.500=0.000=0
,174.250=1.000=0.000=0
;
#SCROLLS:0.000=1.000
,3.250=0.000
,3.500=1.000
,5.250=1.500
,6.000=1.000
,6.500=1.500
,7.500=1.000
,8.000=0.000
,8.125=1.000
,8.500=0.000
,8.625=1.000
,9.000=0.000
,9.125=1.000
,9.500=0.000
,9.750=2.000
,10.750=1.000
,11.000=0.600
,12.500=0.000
,12.625=1.000
,13.000=0.000
,13.125=1.000
,13.500=0.000
,13.625=1.000
,14.000=0.000
,14.125=1.000
,14.500=3.000
,15.500=1.000
,16.000=0.000
,16.167=1.000
,16.500=0.000
,16.667=1.000
,17.000=0.000
,17.167=1.000
,17.500=0.500
,19.000=1.000
,20.500=0.000
,20.667=1.000
,21.000=0.000
,21.167=1.000
,21.500=0.000
,21.667=1.000
,22.000=0.000
,22.167=1.000
,22.500=3.000
,23.500=1.000
,24.000=0.000
,24.250=1.000
,24.500=0.000
,24.750=1.000
,25.000=0.000
,25.250=1.000
,25.500=4.000
,26.500=1.000
,40.500=1.500
,41.000=1.000
,44.500=0.500
,45.000=0.000
,45.250=1.000
,53.500=0.500
,54.000=1.000
,56.500=1.500
,57.000=1.000
,60.500=1.500
,61.000=1.000
,63.000=0.500
,64.000=1.000
,66.500=1.500
,67.000=0.000
,67.250=1.000
,68.000=0.000
,68.250=5.000
,68.500=1.000
,70.000=0.500
,70.250=0.100
,70.750=1.000
,72.500=0.700
,74.000=2.000
,74.250=1.000
,76.500=0.700
,78.000=2.000
,78.250=1.000
,84.500=0.500
,86.000=2.000
,86.250=1.000
,88.500=0.500
,90.000=1.500
,90.250=1.000
,92.500=0.500
,94.000=1.500
,94.250=1.000
,100.500=0.800
,103.000=1.000
,108.500=1.500
,109.500=1.000
,116.500=1.500
,118.000=1.000
,130.000=0.100
,132.500=0.000
,132.750=1.000
,163.250=0.000
,163.500=2.000
,163.750=1.000
,165.250=0.500
,166.000=1.000
,166.500=2.000
,167.500=1.000
,168.000=0.000
,168.125=2.000
,168.375=1.000
,168.500=0.000
,168.625=2.000
,168.875=1.000
,169.000=0.000
,169.250=1.000
,169.500=0.500
,170.500=1.000
,171.000=0.500
,172.000=1.000
,174.500=2.000
,175.500=1.000
,176.000=0.000
,176.125=2.000
,176.375=1.000
,176.500=0.000
,176.625=2.000
,176.875=1.000
,177.000=0.000
,177.125=2.000
,177.375=1.000
,179.000=1.500
,179.250=1.000
,179.500=1.500
,180.000=1.000
,182.500=-1.000
,182.625=1.500
,183.500=1.000
,184.250=0.000
,184.500=1.000
,184.750=0.000
,185.000=1.000
,185.250=0.000
,185.500=1.000
,188.750=0.000
,189.000=1.000
,189.250=0.000
,189.500=1.000
,189.750=0.000
,190.000=1.000
,190.750=-1.000
,191.000=1.000
,191.500=-1.000
,191.750=1.000
,192.500=-1.000
,192.750=1.000
,193.500=-1.000
,193.750=1.000
,194.500=-1.000
,194.750=1.000
,200.500=-2.000
,200.625=2.000
,201.000=1.000
,205.000=0.200
,205.500=1.000
;
#FAKES:;
#LABELS:0.000=Song Start
;
#ATTACKS:TIME=60.817497:LEN=0.937500:MODS=Brake, Mini, Twirl, Roll, Overhead;
#NOTES:
0000
0000
0000
0000
0000
0000
0000
0000
0000
0000
1000
0000
0001
1001
0000
0000
,
0100
0010
0100
0000
0100
0020
0000
0000
0000
0030
2002
0000
0000
0000
3003
0000
,
0002
0003
2000
3000
0002
0003
2000
0000
0000
0000
0000
0000
3002
0000
2003
0000
,
3000
0000
0200
0300
0020
0030
0200
0300
0020
0030
2000
0000
0000
0000
3000
0000
,
0002
0003
0020
0030
0200
0300
2000
0000
0000
0000
0000
0000
3002
0000
2003
0000
,
3000
0010
0110
0010
0100
2000
0000
3000
,
0100
0010
0100
0210
0000
0000
0310
0100
,
0000
0100
1000
0100
0010
0100
0000
0110
,
0000
0000
1001
0000
0000
0000
0101
0000
0000
0000
0110
0000
0001
1000
0000
0000
,
0100
0010
0100
0000
0010
0100
0001
0000
1000
0000
1000
0000
0001
0000
0100
0000
,
0010
0200
0000
0310
0010
0001
0010
0100
,
1000
0000
1000
0000
0001
0000
0010
0100
0010
0000
0100
0000
0001
0000
1010
0000
,
0100
0000
1002
0000
0000
0000
1003
0000
0010
0100
1000
0000
1100
0000
0010
0000
,
0100
1000
1010
0100
0020
0030
0010
0100
,
0010
0000
0000
2010
0000
0000
0000
0000
0000
3001
0000
0000
1001
0000
0000
0100
0010
0100
0010
0000
0000
0100
0000
0000
,
0010
0210
0000
0310
0100
0010
1020
0000
,
2030
0000
3001
0000
0000
0000
0010
0000
0100
0000
0012
0000
0003
1000
0000
0000
,
1001
0000
0000
1000
0001
0000
1000
0000
0001
0000
0000
0000
0010
0000
0100
0010
,
0001
2000
0000
0000
3002
0003
0001
0010
,
0100
2000
0000
3000
2002
3003
0010
0100
,
1000
0000
0100
0000
0010
0001
0010
0000
0100
0000
0011
0000
0100
0000
1000
0000
,
0100
0000
0002
0000
0000
0000
0000
0000
0203
0000
0300
0000
1000
0000
0100
0010
,
0100
0000
0020
0000
0000
0000
0000
0000
2030
0000
3000
0000
0100
0000
0010
0100
,
1000
0000
2000
0000
0000
0000
0000
0000
3002
0000
0003
0000
0010
0100
0010
0100
,
0010
1010
1000
0100
0010
0100
0001
0010
,
0100
2001
0000
0000
3002
0000
0003
0100
,
0010
0110
0000
0000
0100
0000
0010
0000
0100
0000
0001
0000
1000
0000
0100
0000
,
0010
2000
0000
3001
0000
1001
0000
1000
,
0010
1010
0000
0000
0010
0000
0100
0000
0010
0000
1000
0000
0100
0000
0010
0000
,
0001
2000
0000
0000
3001
0000
0001
0010
,
0100
1000
0100
0010
0200
0000
0310
0200
,
0000
0000
0310
1000
0100
1010
0000
0001
,
1000
1001
0000
0100
2002
0000
0000
0000
,
0000
0000
3003
1000
0001
0000
0000
0010
,
0100
0000
0100
0010
0100
0000
0020
0000
,
0200
0330
0010
0100
0101
0000
0010
0100
,
1100
0000
1000
0100
1010
0000
0010
0000
,
0200
0000
0000
0310
2002
0000
3003
0100
,
0010
0000
0100
0010
0100
0000
1000
0000
,
0002
0000
1003
0100
1000
0000
1000
0100
,
1000
0001
1000
0000
0010
0000
0100
0000
0100
0000
0010
0000
0100
0010
0000
0000
,
1000
0010
1000
0000
0010
2020
0000
0000
3030
0000
2002
0000
0000
0000
3003
0000
,
0001
1000
0001
2000
0000
3000
0110
0020
,
0030
1000
0100
1000
0100
0020
0000
0030
,
1010
0000
0100
0000
0110
0000
0100
0000
1000
0100
0010
0000
0002
0000
2003
0000
,
3000
0100
0010
0100
1000
1002
0000
0003
,
1000
0000
1010
0000
1000
0000
1001
0000
0001
0010
0100
0000
0100
0000
0120
0000
,
0000
0030
0100
0000
0010
0000
0100
0000
1000
0000
1001
0000
0000
0000
1010
0000
,
0000
0000
0011
0000
0000
0000
1100
0000
0000
0000
0110
0000
0001
1001
0000
0000
,
0001
0010
0100
0000
1000
1010
0000
0000
0010
0000
0100
0000
1000
0000
0100
0000
,
2000
3002
0003
1000
0100
0010
0100
0010
,
0100
2000
3002
0003
0000
0000
0000
0000
;

//---------------dance-single - Blank----------------
#NOTEDATA:;
#CHARTNAME:;
#STEPSTYPE:dance-single;
#DESCRIPTION:Blank;
#CHARTSTYLE:;
#DIFFICULTY:Challenge;
#METER:7;
#RADARVALUES:0.844,0.867,1.000,0.687,0.297,409.000,100.000,67.000,14.000,1.000,0.000,0.000,0.000,0.844,0.867,1.000,0.687,0.297,409.000,100.000,67.000,14.000,1.000,0.000,0.000,0.000;
#CREDIT:;
#OFFSET:0.120;
#BPMS:0.000=128.000
;
#STOPS:;
#DELAYS:;
#WARPS:;
#TIMESIGNATURES:0.000=4=4
;
#TICKCOUNTS:0.000=4
;
#COMBOS:0.000=1
;
#SPEEDS:0.000=1.000=0.000=0
;
#SCROLLS:0.000=1.000
;
#FAKES:;
#LABELS:0.000=Song Start
;
#NOTES:
0000
0000
0000
0000
0000
0000
0000
0000
0000
0000
1000
0000
0001
1001
0000
0000
,
0100
0010
0100
0000
0100
0120
0000
0000
0000
0030
2002
0000
0000
0000
3003
0000
,
0102
0003
2010
3000
0102
0003
2010
0000
0000
0000
0000
0000
3002
0000
2003
0000
,
3000
0000
0210
0300
1020
0030
0201
0300
1020
0030
0110
0000
0010
0100
0010
0000
,
0012
0003
0120
0030
1200
0300
1001
0000
0010
0001
0010
0000
1002
0003
2002
0000
,
3003
0000
0010
0000
0110
0000
0010
0000
0100
0000
2002
3003
0010
0100
0010
0000
,
0100
0000
0010
0000
0100
0000
0210
0000
0301
0010
1100
0000
0010
0100
0010
0000
,
0110
0100
1010
0101
1010
0110
MMMM
0110
,
M10M
0010
1001
0000
MMMM
0000
0101
0000
MMMM
0000
0110
0000
0001
2002
0000
3003
,
0100
0010
0110
0000
0010
0100
0011
0000
1010
0000
1000
0000
0001
0000
0100
0000
,
0010
0200
0010
0310
0010
0001
0010
0100
,
1000
0000
0010
0000
1001
0000
0010
0100
0010
0000
0100
0000
0001
0000
1010
0000
,
0100
0000
1002
0000
0000
0000
1003
0000
0010
0100
1000
0000
1100
0000
0010
0000
,
0100
0000
1000
0000
1010
0000
0100
0000
0010
0100
0010
0000
0010
0000
0100
0000
,
0010
0000
0000
2010
0000
0000
0000
0000
0000
3001
0000
0000
1001
0000
0000
0100
0010
0100
0010
0000
0000
0100
0000
0000
,
0010
0200
0010
0310
0100
0010
1020
1000
,
2030
0000
3001
0000
0110
0000
0010
0000
0100
0000
0012
0000
0003
1010
0000
0000
,
0101
0000
0000
1010
0101
0000
1000
0000
0001
0000
0000
0000
0010
0000
0100
0010
,
0001
0000
2010
0000
0010
0001
0010
0000
3001
0010
0100
0000
0001
0010
0100
0000
,
0010
0100
2000
0000
0001
0010
3100
0000
2002
0000
3003
0000
0010
0000
0100
0000
,
1000
0000
0100
0000
0010
0001
0010
0000
0100
0000
0011
0000
0100
0000
1000
0000
,
0100
0000
0002
0000
0010
0100
1000
0000
0103
0000
0000
0000
1000
0000
0100
0010
,
0100
0000
0020
0000
0100
1000
0000
0000
1030
0000
0000
0000
0100
0000
0010
0100
,
1000
0000
2000
0000
0001
0010
0001
0000
3001
0000
0000
0000
0010
0100
0010
0100
,
0010
1010
1000
0100
0010
0100
0001
0010
,
0100
0000
2001
0000
0001
0010
0001
0000
3002
0000
0000
0000
0003
0000
0100
0000
,
0010
0110
0000
0000
0100
0000
0010
0000
0100
0000
0001
0000
1000
0000
0100
0000
,
0010
0100
2000
0000
0000
0000
3001
0000
0000
0000
1001
0000
0000
0000
1000
0000
,
0010
1010
0000
0000
0010
0000
0100
0000
0010
0000
1000
0000
0100
0000
0010
0000
,
0010
0100
2000
0000
0002
0000
0003
0000
3001
0000
0000
0000
0001
0000
0010
0000
,
0100
0000
1000
0000
0100
0000
0010
0000
0200
0001
0010
0000
0301
0000
0200
0000
,
0020
0030
0310
1000
0100
1010
0000
0001
,
1000
0000
1001
0000
0000
0000
0100
0000
2000
0001
0010
0000
0001
0000
0000
0000
,
0010
0001
0010
0000
3000
0000
1100
0000
0011
0000
0110
0000
0010
0100
0010
0000
,
0100
0010
0001
0000
0100
0000
0010
0000
1100
0000
0010
0000
0020
0000
0100
0000
,
0200
0330
0010
0100
0101
0010
0010
0100
,
1000
0001
1000
0000
1000
0000
0100
0000
1010
0000
0110
0000
0010
0000
1010
0000
,
0200
0000
0000
0310
2002
0000
3003
0100
,
0010
0100
1000
0000
0100
0000
0010
0000
0100
0000
0010
0000
1000
0100
0010
0000
,
0002
0000
1003
0100
1010
0000
1010
0100
,
1000
0001
1000
0000
0010
0000
0100
0000
0100
0000
0010
0000
0100
0010
0000
0000
,
1000
0010
1000
0000
0010
2020
0000
0000
3030
0000
2002
0000
0000
0000
3003
0000
,
0011
0000
1100
0000
0011
0000
2000
0000
3001
0010
0001
0000
0100
0000
0020
0000
,
0130
1000
0100
1000
0100
0020
0000
0130
,
0101
0000
0100
0000
0110
0000
0100
0000
1000
0100
0010
0000
0002
0000
2003
0000
,
3000
0110
0011
1100
1000
0002
1000
0003
,
1000
0000
1010
0000
1000
0000
1001
0000
0001
0010
0100
0000
0100
0000
0120
0000
,
0100
0130
0010
0100
1000
1001
0110
1010
,
0110
0000
0011
0000
0110
0000
1100
0000
0110
0000
0110
0000
0001
1001
0000
0000
,
0001
0010
0100
0000
1000
1010
0000
0000
0011
0000
1100
0000
1010
0000
0100
0000
,
1000
0100
0020
0000
0130
0000
1000
0000
0100
0010
0100
0000
0100
0000
1010
0000
,
0100
2200
3311
0000
0000
0000
0000
0000
;

//---------------dance-single - SCREAM----------------
#NOTEDATA:;
#CHARTNAME:;
#STEPSTYPE:dance-single;
#DESCRIPTION:SCREAM;
#CHARTSTYLE:;
#DIFFICULTY:Edit;
#METER:9;
#RADARVALUES:1.000,1.000,1.000,0.984,0.354,435.000,334.000,96.000,14.000,102.000,0.000,0.000,0.000,1.000,1.000,1.000,0.984,0.354,435.000,334.000,96.000,14.000,102.000,0.000,0.000,0.000;
#CREDIT:;
#OFFSET:0.120;
#BPMS:0.000=128.000
;
#STOPS:;
#DELAYS:;
#WARPS:;
#TIMESIGNATURES:0.000=4=4
;
#TICKCOUNTS:0.000=4
;
#COMBOS:0.000=1
;
#SPEEDS:0.000=1.000=0.000=0
;
#SCROLLS:0.000=1.000
;
#FAKES:;
#LABELS:0.000=Song Start
;
#NOTES:
0000
0000
0000
0000
0000
0000
0000
0000
0000
0000
1100
0000
0011
1111
0000
0000
,
0110
0011
0110
0000
1100
0121
0000
0000
0000
0030
2222
0000
0000
0000
3333
0000
,
0102
0013
2010
3000
0102
0013
2010
0000
0001
0001
0000
0000
3022
0100
2233
0000
,
3300
0000
0210
0300
1020
0030
0201
0300
1020
0030
0110
0000
0011
1100
0011
0000
,
0112
0003
0120
0030
1200
0300
1001
0000
1010
0101
0110
0000
1122
0003
2002
0000
,
3033
0000
0011
0000
1110
0101
0110
0000
0110
0000
2202
0000
3313
1100
0011
0000
,
0110
0000
0011
0000
1100
0000
0210
0000
0301
0010
1100
0000
0011
1100
0011
0000
,
0110
0100
1010
0101
1010
1110
MMMM
0111
,
M11M
0110
1011
0000
MMMM
0000
0111
0000
MMMM
0000
1110
0000
0001
2002
0000
3003
,
0100
0010
0110
0000
0011
1100
0011
0000
1110
0000
1100
0000
0011
0000
1100
0000
,
0011
0210
0011
1310
0011
1001
0110
0101
,
1100
0000
0011
0000
1101
0000
0011
1100
0011
0000
0110
0000
0101
0000
1011
0000
,
0110
0000
1202
0000
0000
0000
1303
0000
0011
0110
1100
0000
1100
0000
0011
0000
,
0110
0000
1100
0000
1011
0000
1100
0000
0011
1100
0011
0000
1010
0000
0101
0000
,
0110
0000
0000
2010
0000
0000
0010
0000
0000
3101
0000
0000
1101
0000
0000
0110
0011
0110
0011
0000
0000
0110
0000
0000
,
1010
0201
1010
1310
0101
0110
1020
1000
,
2130
0000
3011
0000
0110
0000
1010
0000
0100
0000
0012
0000
0003
1010
0000
0000
,
0101
0000
0000
1010
0101
0000
1010
0000
1011
0000
1111
0000
0110
0000
1100
0010
,
0101
0000
2010
0000
0010
0001
0010
0000
3101
0010
0110
0000
1001
0010
0110
0000
,
1010
0100
2000
0000
0101
0011
3110
0000
2202
0000
3313
0000
0110
0000
1100
0000
,
1010
0000
0100
0000
0110
1001
0110
0000
0101
0000
1011
0000
0110
0000
1100
0000
,
0110
0000
1002
0000
1010
0110
1010
0000
1113
0000
0110
0000
1100
0000
0101
1010
,
0101
0000
0120
0000
0101
1000
0000
0000
1130
0010
0101
0000
0100
0000
0011
0110
,
1100
0010
2000
0000
0011
0110
0011
0000
3101
0010
0000
0000
1010
0100
0011
0100
,
1010
1110
1010
0100
0010
0100
0001
0010
,
0100
0000
2001
0000
0001
0010
0001
0000
3002
0000
0000
0000
0003
0000
0110
0000
,
0011
1110
0000
0000
0100
0000
0010
0000
0100
0000
0001
0000
1100
0000
0110
0000
,
0110
1100
2010
0000
0011
0000
3001
0000
0110
0000
2021
0000
3030
0000
1100
0000
,
0011
1110
0000
0000
1010
0000
0101
0000
0110
0000
1010
0000
1100
0000
0110
0000
,
0011
0110
2121
0000
0000
0000
0101
0000
3031
0000
1010
0000
0011
0000
0110
0000
,
1100
0000
1010
0000
0101
0000
1010
0000
0210
0001
1010
0000
0311
0000
2220
0000
,
0000
0000
3331
1100
0110
1011
0000
0011
,
1100
0000
1011
0000
0000
0000
0110
0000
2010
0001
0110
0000
0011
0000
0000
0000
,
0110
0001
0110
0000
3000
0000
2200
0000
3311
0000
0110
0000
0110
0001
0110
0000
,
1100
0000
0010
0000
1100
0000
0010
0000
0101
0000
0100
0000
0020
0001
1100
0000
,
0200
0000
0330
0000
1010
0000
0110
0000
0101
0000
0010
0000
0110
0001
1100
0000
,
0110
0000
0100
0000
1100
0010
1100
0000
2020
0000
0101
0000
3131
0010
0101
0000
,
0202
0000
0010
0000
0010
0000
0313
0000
2002
0100
0010
0000
3113
0000
0100
0000
,
1010
0100
1010
0000
0101
0000
1110
0000
0101
0000
0010
0000
1100
0000
0010
0000
,
0102
1000
1103
0110
1001
0110
1010
1100
,
1100
0011
1100
0000
0022
0000
0100
0000
0133
0000
1010
0000
0101
1010
0000
0000
,
1100
0011
1100
0000
0010
2220
0000
0000
3330
0000
2202
0000
0020
0000
3333
0000
,
0011
0000
1100
0000
0011
0000
2200
0000
0010
0001
3310
0000
1120
0000
0200
0000
,
0330
0000
1010
0000
0101
0000
1100
0000
0110
0000
0020
0000
0100
0001
0130
0000
,
0101
0000
0100
0000
0110
0000
0100
0000
1100
1100
0110
0000
0202
0000
2323
0000
,
3030
1100
0011
0110
1100
0222
0000
0333
,
1000
0000
1010
0000
1010
0000
1001
0000
0001
1010
0100
0000
0110
0000
0101
0000
,
0010
0100
0010
0100
1000
1101
0110
1011
,
1100
0000
1011
0000
0110
0000
1110
0000
1001
0000
1110
0000
0011
1101
0000
0000
,
0011
1010
0101
0000
1100
1011
0110
0000
1010
0000
0110
0000
1100
0000
0211
0000
,
2000
0000
3311
0000
0110
0001
1100
0000
1100
0000
0011
0000
1100
0011
1010
0000
,
0100
2111
0222
3333
0000
0000
0000
0000
;

//---------------dance-single - Blank----------------
#NOTEDATA:;
#CHARTNAME:;
#STEPSTYPE:dance-single;
#DESCRIPTION:Blank;
#CHARTSTYLE:;
#DIFFICULTY:Medium;
#METER:4;
#RADARVALUES:0.517,0.527,0.297,0.749,0.000,251.000,29.000,73.000,0.000,0.000,0.000,0.000,0.000,0.517,0.527,0.297,0.749,0.000,251.000,29.000,73.000,0.000,0.000,0.000,0.000,0.000;
#CREDIT:;
#OFFSET:0.120;
#BPMS:0.000=128.000
;
#STOPS:;
#DELAYS:;
#WARPS:;
#TIMESIGNATURES:0.000=4=4
;
#TICKCOUNTS:0.000=4
;
#COMBOS:0.000=1
;
#SPEEDS:0.000=1.000=0.000=0
,6.500=0.500=0.000=0
,6.750=1.000=0.000=0
,7.000=1.500=0.000=0
,7.250=1.000=0.000=0
,15.000=0.200=0.000=0
,15.125=3.000=0.000=0
,15.250=1.000=0.000=0
,18.000=6.000=0.000=0
,18.167=1.000=0.000=0
,23.000=0.100=0.000=0
,23.167=1.000=0.000=0
,30.750=0.500=0.000=0
,31.000=1.000=0.000=0
,31.500=0.500=0.000=0
,31.750=1.000=0.000=0
,32.500=0.500=0.000=0
,32.750=1.000=0.000=0
,33.500=0.500=0.000=0
,33.750=1.000=0.000=0
,34.500=0.500=0.000=0
,34.750=1.000=0.000=0
,40.500=1.500=0.000=0
,40.750=1.000=0.000=0
,104.250=0.300=0.000=0
,104.500=1.000=0.000=0
,112.250=0.300=0.000=0
,112.500=1.000=0.000=0
,131.500=10.000=0.000=0
,131.750=1.000=0.000=0
,172.500=0.500=0.000=0
,172.750=1.000=0.000=0
,173.000=0.500=0.000=0
,173.250=1.000=0.000=0
,173.500=0.500=0.000=0
,173.750=1.000=0.000=0
,174.000=0.500=0.000=0
,174.250=1.000=0.000=0
;
#SCROLLS:0.000=1.000
,3.250=0.000
,3.500=1.000
,5.250=1.500
,6.000=1.000
,6.500=1.500
,7.500=1.000
,8.000=0.000
,8.125=1.000
,8.500=0.000
,8.625=1.000
,9.000=0.000
,9.125=1.000
,9.500=0.000
,9.750=2.000
,10.750=1.000
,11.000=0.600
,12.500=0.000
,12.625=1.000
,13.000=0.000
,13.125=1.000
,13.500=0.000
,13.625=1.000
,14.000=0.000
,14.125=1.000
,14.500=3.000
,15.500=1.000
,16.000=0.000
,16.167=1.000
,16.500=0.000
,16.667=1.000
,17.000=0.000
,17.167=1.000
,17.500=0.500
,19.000=1.000
,20.500=0.000
,20.667=1.000
,21.000=0.000
,21.167=1.000
,21.500=0.000
,21.667=1.000
,22.000=0.000
,22.167=1.000
,22.500=3.000
,23.500=1.000
,24.000=0.000
,24.250=1.000
,24.500=0.000
,24.750=1.000
,25.000=0.000
,25.250=1.000
,25.500=4.000
,26.500=1.000
,40.500=1.500
,41.000=1.000
,44.500=0.500
,45.000=0.000
,45.250=1.000
,53.500=0.500
,54.000=1.000
,56.500=1.500
,57.000=1.000
,60.500=1.500
,61.000=1.000
,63.000=0.500
,64.000=1.000
,66.500=1.500
,67.000=0.000
,67.250=1.000
,68.000=0.000
,68.250=5.000
,68.500=1.000
,70.000=0.500
,70.250=0.100
,70.750=1.000
,72.500=0.700
,74.000=2.000
,74.250=1.000
,76.500=0.700
,78.000=2.000
,78.250=1.000
,84.500=0.500
,86.000=2.000
,86.250=1.000
,88.500=0.500
,90.000=1.500
,90.250=1.000
,92.500=0.500
,94.000=1.500
,94.250=1.000
,100.500=0.800
,103.000=1.000
,108.500=1.500
,109.500=1.000
,116.500=1.500
,118.000=1.000
,130.000=0.100
,132.500=0.000
,132.750=1.000
,163.250=0.000
,163.500=2.000
,163.750=1.000
,165.250=0.500
,166.000=1.000
,166.500=2.000
,167.500=1.000
,168.000=0.000
,168.125=2.000
,168.375=1.000
,168.500=0.000
,168.625=2.000
,168.875=1.000
,169.000=0.000
,169.250=1.000
,169.500=0.500
,170.500=1.000
,171.000=0.500
,172.000=1.000
,174.500=2.000
,175.500=1.000
,176.000=0.000
,176.125=2.000
,176.375=1.000
,176.500=0.000
,176.625=2.000
,176.875=1.000
,177.000=0.000
,177.125=2.000
,177.375=1.000
,179.000=1.500
,179.250=1.000
,179.500=1.500
,180.000=1.000
,182.500=-1.000
,182.625=1.500
,183.500=1.000
,184.250=0.000
,184.500=1.000
,184.750=0.000
,185.000=1.000
,185.250=0.000
,185.500=1.000
,188.750=0.000
,189.000=1.000
,189.250=0.000
,189.500=1.000
,189.750=0.000
,190.000=1.000
,190.750=-1.000
,191.000=1.000
,191.500=-1.000
,191.750=1.000
,192.500=-1.000
,192.750=1.000
,193.500=-1.000
,193.750=1.000
,194.500=-1.000
,194.750=1.000
,200.500=-2.000
,200.625=2.000
,201.000=1.000
,205.000=0.200
,205.500=1.000
;
#FAKES:;
#LABELS:0.000=Song Start
;
#ATTACKS:TIME=60.817497:LEN=0.937500:MODS=Brake, Mini, Twirl, Roll, Overhead;
#NOTES:
0000
0000
0000
0000
0000
0000
0000
0000
0000
0000
1000
0000
0002
0000
0000
0003
,
0100
0000
0100
0000
0020
0000
0000
0000
0000
0030
2002
0000
0000
0000
0000
0000
,
0000
0000
0000
0000
0000
0000
0000
0003
,
3000
0000
0200
0000
0020
0000
0000
0300
0000
0030
2000
0000
0000
0000
3000
0000
,
0002
0000
0000
2000
0000
0000
0000
0003
,
3000
0010
0100
0010
0100
2000
0000
3000
,
0020
0000
0000
0230
0000
0000
0310
0100
,
0000
0100
0010
0100
0010
0220
0000
0000
,
0000
0000
0000
0000
0000
0330
1001
0010
,
0100
0100
0010
1000
1000
1000
0001
0100
,
0010
0200
0000
0310
0010
0001
0010
0100
,
1000
0000
0001
0000
2002
0000
0000
3003
0010
0000
0100
0000
0001
0000
1000
0000
,
1000
0002
0000
1003
0010
1000
1100
0010
,
0100
0010
1010
0020
0000
0030
0010
0100
,
0010
2010
0000
3001
1001
0100
0010
0100
,
0010
0210
0000
0310
0100
0010
1020
0000
,
2030
3001
0000
0010
0100
0002
0000
0003
,
1001
0000
1001
1000
0001
0000
0010
0100
,
0010
2000
0000
0000
3002
0003
1000
0100
,
0100
2002
0000
0000
0000
3003
0010
0100
,
1000
0100
0010
0010
0100
0010
0100
0010
,
0100
0202
0000
0000
0003
0300
1000
0010
,
1000
0020
0000
0000
2030
3000
0100
0010
,
0100
0020
0000
0000
0200
0330
0010
0110
,
0010
1010
1000
0100
0010
0100
0010
0010
,
0100
2002
0000
0000
3000
0000
0003
0100
,
0020
0030
0100
0010
0100
0001
1000
0100
,
0010
2000
0000
3001
0000
1001
0000
1000
,
0020
0030
0010
0100
0010
1000
0100
0010
,
0100
2000
0000
0000
3001
0000
0001
0010
,
0001
0010
0100
0010
0200
0000
0310
0200
,
0000
0000
0310
1000
0100
0010
0000
0001
,
1000
1001
0000
0100
0020
0000
0000
0000
,
0000
0000
0030
0000
1001
0000
0000
0010
,
0100
0000
0100
0010
0100
0000
0020
0000
,
0200
0330
0010
0100
0020
0030
0010
0100
,
2000
3000
1000
0100
2000
0000
3020
0000
,
0230
0000
0000
0310
0020
0000
0030
0100
,
0010
0000
0100
0010
0100
0000
1000
0000
,
0002
0000
1003
0100
1000
0000
1000
0100
,
1000
0000
0010
0000
0010
0000
0100
0000
0100
0000
0010
0000
0200
0000
0000
0300
,
1000
1000
0020
0000
0030
2002
0000
0000
,
0000
0000
0000
0000
0000
3003
0220
0000
,
0330
1000
0100
1000
0100
0020
0000
0030
,
2020
0000
0000
3030
0010
1000
2002
0003
,
3000
0100
0010
0100
1000
1002
0000
0003
,
2000
0000
0000
3001
0001
0100
0100
0120
,
0000
0030
0200
0000
0000
0000
0000
0000
0300
0000
0220
0000
0000
0000
0000
0000
,
0000
0000
0000
0000
0000
0330
0010
0000
,
0001
0100
0001
0000
0010
0100
1000
0100
,
2002
0000
3003
1000
0100
0010
1000
0010
,
1000
2002
3000
0003
0000
0000
0000
0000
;

//---------------dance-single - ----------------
#NOTEDATA:;
#CHARTNAME:;
#STEPSTYPE:dance-single;
#DESCRIPTION:;
#CHARTSTYLE:;
#DIFFICULTY:Easy;
#METER:1;
#RADARVALUES:0.105,0.131,0.031,0.144,0.000,55.000,3.000,14.000,0.000,0.000,0.000,0.000,0.000,0.105,0.131,0.031,0.144,0.000,55.000,3.000,14.000,0.000,0.000,0.000,0.000,0.000;
#CREDIT:;
#NOTES:
// measure 0
0000
0000
0000
0000
,  // measure 1
0000
0000
0000
0000
0000
1000
0000
0000
,  // measure 2
0000
0000
0000
0000
,  // measure 3
0000
0000
0000
0000
0000
0001
0000
0000
,  // measure 4
0000
0000
0000
0000
,  // measure 5
0000
0000
0000
0000
0000
0020
0000
0000
,  // measure 6
0000
0000
0000
0000
,  // measure 7
0000
0000
0030
0000
0000
0100
0000
0000
,  // measure 8
0000
0010
0000
0000
0000
0100
0000
0000
,  // measure 9
0000
0010
0000
0000
0000
0000
0000
0000
,  // measure 10
0000
1001
0000
0000
0000
0000
0000
0000
,  // measure 11
0000
0110
0000
0000
0000
0000
0000
0000
,  // measure 12
0000
1000
0000
0000
0000
0000
0000
0000
,  // measure 13
0000
0000
0000
0001
0000
0000
0000
0000
,  // measure 14
0000
1000
0000
0000
0000
0000
0000
0000
,  // measure 15
0000
0010
0000
0000
0000
1000
0000
0000
,  // measure 16
0000
0001
0000
0000
0000
0100
0000
0000
,  // measure 17
0000
0000
0000
0000
,  // measure 18
0000
2000
0000
0000
0000
0000
3000
0000
,  // measure 19
0000
0002
0000
0000
0000
0000
0003
0000
,  // measure 20
0000
0100
0000
0000
0000
0010
0000
0000
,  // measure 21
0000
2000
0000
0000
0000
3000
0000
0000
,  // measure 22
0000
0200
0000
0000
0000
0300
0000
0000
,  // measure 23
0000
0020
0000
0000
0000
0030
0000
0000
,  // measure 24
0000
0000
0000
0000
0000
0000
0000
1000
,  // measure 25
0000
0000
0000
0200
0000
0000
0000
0000
,  // measure 26
0300
0000
0000
0010
0000
0000
0000
1000
,  // measure 27
0000
0000
0000
0010
0000
0000
0000
1000
,  // measure 28
0000
0000
0000
0010
0000
0000
0000
1000
,  // measure 29
0000
0000
0000
0001
0000
0000
0000
1000
,  // measure 30
0000
0000
0000
0001
0000
0000
0000
1000
,  // measure 31
0000
0000
0000
0001
0000
0000
0000
1000
,  // measure 32
0000
0000
0000
0001
0000
0000
0000
0000
,  // measure 33
0000
0000
0000
0000
0000
0200
0000
0000
,  // measure 34
0300
0000
0000
0000
,  // measure 35
0000
0000
0000
0000
0000
1000
0000
0000
,  // measure 36
0000
0001
0000
0000
0000
2000
0000
0000
,  // measure 37
0000
3000
0000
0000
,  // measure 38
0000
0000
0000
0000
,  // measure 39
0010
0000
0000
0000
0000
1000
0000
0000
,  // measure 40
0000
0001
0000
0000
0000
2000
0000
0000
,  // measure 41
0000
0000
3000
0000
0000
0020
0000
0000
,  // measure 42
0000
0000
0000
0000
,  // measure 43
0000
0000
0030
0000
0000
0200
0000
0000
,  // measure 44
0000
0000
0000
0000
,  // measure 45
0000
0000
0000
0000
0300
0002
0000
0000
,  // measure 46
0000
0000
0000
0000
,  // measure 47
0000
0000
0003
0000
0000
1000
0000
0000
,  // measure 48
0000
0001
0000
0000
0000
1000
0000
0000
,  // measure 49
0000
0002
0000
0000
0003
0000
0000
0000
,  // measure 50
0000
1000
0000
0000
0000
0000
0000
0000
,  // measure 51
0000
0110
0000
0000
0000
0000
0000
0000
;
