#TITLE:Ringa Linga;
#SUBTITLE:;
#ARTIST:Taeyang;
#TITLETRANSLIT:;
#SUBTITLETRANSLIT:;
#ARTISTTRANSLIT:;
#GENRE:;
#CREDIT:;
#BANNER:Ringa Linga.png;
#BACKGROUND:Ringa Linga-bg.png;
#LYRICSPATH:;
#CDTITLE:;
#MUSIC:Taeyang - RINGA LINGA.mp3;
#OFFSET:0.060000;
#SAMPLESTART:100.059990;
#SAMPLELENGTH:12.000000;
#SELECTABLE:YES;
#BPMS:0.000000=141.000000
;
#STOPS:
;
#BGCHANGES:0.060=movie.mp4=1.000=0=0=1=====,
99999=-nosongbg-=1.000=0=0=0 // don't automatically add -songbackground-
;
#KEYSOUNDS:;
#ATTACKS:;

//---------------dance-single - ----------------
#NOTES:
     dance-single:
     :
     Hard:
     8:
     0.604621,0.662157,0.382759,0.369561,0.191380,791.000000,87.000000,84.000000,0.000000,0.000000,0.000000,0.604621,0.662157,0.382759,0.369561,0.191380,791.000000,87.000000,84.000000,0.000000,0.000000,0.000000:
0000
0000
1000
0100
0010
0002
0003
0011
,
0000
0001
1000
0100
0010
0002
0003
0011
,
0000
0000
0001
0010
0100
2000
3000
1100
,
0000
1000
0000
0001
0010
0100
0000
0010
,
0110
0000
0100
0001
1000
0020
0000
1030
,
0000
0001
1000
0010
0100
0002
0000
1003
,
0000
0000
0010
0000
1000
0001
1000
0001
0100
0001
0100
0001
0010
0001
0010
0001
,
0010
0000
0000
0011
0000
0000
0000
0110
0000
0000
0000
1100
0000
0000
1000
0000
,
0010
0110
0010
0000
0100
0001
0100
0000
,
0101
0000
0110
0000
1000
0000
0001
0010
,
1000
0000
1000
0000
0010
0001
1000
0000
,
0001
0000
0011
0000
0110
0000
0100
0010
,
0001
1000
0010
1000
,
0001
0010
0001
0000
0100
0020
0000
0000
,
0130
0010
1000
1001
,
0001
0000
0000
0000
1000
0010
1000
0010
1000
0001
1000
0001
0000
0000
1000
0000
,
0010
0100
0002
0003
0100
0010
2000
3000
,
0001
0100
0020
0000
0130
0000
0220
0000
,
0330
0000
0010
0000
1000
0010
0100
0000
,
0001
0000
2000
0000
3001
0000
0002
0103
,
0000
0000
0010
1000
0010
0100
0010
0000
,
0100
0001
1000
0000
0100
0001
2000
3001
,
0000
0100
0010
1000
0001
0100
0020
0030
,
1000
0010
0100
0000
0001
0100
0020
0130
,
0000
0000
0000
0110
0000
0000
0101
0000
0000
0001
1000
0001
,
1000
0000
0000
0010
0100
0001
1000
0010
0100
0001
0100
0001
,
2000
0000
0000
3000
0000
0000
0010
0000
0100
0000
0010
0000
0100
0000
0001
0000
0100
0000
0001
0000
0100
0000
0001
0000
,
2000
0000
0000
3000
0000
0000
0001
0000
0100
0000
0001
0000
0100
0000
0000
0000
0000
0000
0001
0000
0010
0000
0100
0000
,
1000
0000
1100
0000
1000
0010
0100
0000
,
0001
0100
0010
0000
1000
0010
0100
0000
,
0002
0103
0000
0000
0001
0100
1000
0010
,
0100
0000
0000
0010
0000
0000
0001
0000
0000
1000
0000
0000
0010
0000
0000
0100
0000
0000
0001
0000
0010
0000
0100
0000
,
1000
0000
2000
0000
3001
0100
1000
0000
,
1000
0100
0001
0000
0001
0100
1000
0000
,
0000
0000
1001
0000
1000
0010
0001
0000
,
0001
0010
1000
0000
1000
0100
1000
0000
,
0001
0100
1000
0000
1000
0100
0001
0000
,
0010
0001
0010
0000
0001
0100
0001
0000
,
2000
0000
3010
0000
0100
0001
0100
0010
0100
0001
0100
0010
0100
0001
0100
0010
,
0100
0001
0000
0101
0000
0000
0000
0110
0000
0000
0000
0000
1000
0000
0010
0000
,
1000
0010
0100
0000
0010
1000
0010
0000
,
1010
0000
0110
0000
0001
0000
1000
0100
,
0001
0000
0001
0000
0100
1000
0002
0000
,
1003
0000
1100
0000
0110
0000
0010
0100
,
1000
0001
0100
0001
,
1000
0100
1000
0000
0010
0200
0000
0000
,
0310
0100
0001
1001
,
1000
0000
0000
0000
0001
1000
0001
1000
0001
0100
0001
0100
0001
0000
0000
0000
,
0101
0000
0001
0100
0010
0100
0002
0003
,
1000
0000
0010
0000
0100
0000
0010
0000
1000
0000
0000
0000
2200
3300
0000
0000
,
0022
0033
0001
0100
0010
0100
0001
0000
,
1000
0000
0010
0000
0100
0000
0010
0000
1000
0000
0000
0000
2200
3300
0000
0000
,
0022
0033
0001
0100
0010
0100
0002
0003
,
1000
0000
0010
0000
0100
0000
0010
0000
1000
0000
0000
0000
2200
3300
0000
0000
,
0022
0033
1000
0010
0100
0000
0002
0000
,
0000
0000
0103
0000
0001
0100
0001
0100
0001
0100
0001
0100
0001
0100
0001
0100
,
0001
0101
0000
0001
0000
1000
0000
0010
,
0000
0100
0000
0001
0000
1000
0000
0001
,
0100
0001
0100
0000
0110
0000
0000
1000
,
0010
1000
0010
0000
0110
0000
0100
0000
,
0001
1000
0010
1000
0001
0100
0010
0000
,
0100
0001
0100
0000
0110
0000
1100
0000
,
1000
0010
0100
0000
0002
1003
0000
0000
,
0010
1000
0010
0100
0001
0100
0001
0000
,
1000
0000
0010
0000
0001
0000
0000
0000
0001
0000
0200
0000
0000
0300
0000
0000
,
0010
0100
0010
1000
0010
0100
0002
0000
,
1003
0000
1001
0001
0000
1000
0010
0000
,
0100
0010
0100
0001
0100
0010
1000
0010
,
0100
0000
0110
0000
0010
1000
0010
0000
,
1000
0100
1000
0010
1000
0010
0100
0010
,
0100
0110
1100
0110
,
0010
0100
1000
0000
0001
1000
0000
0000
,
0001
1000
1001
0000
0110
0000
1001
0000
,
1100
0000
0011
0000
0001
1000
0000
0002
,
1003
0000
0001
0000
1000
0010
0001
0000
,
0001
0010
1000
0000
1000
0010
0001
0000
,
0000
0000
1001
0000
0001
0100
1000
0000
,
1000
0100
0001
0000
0001
0010
0001
0000
,
1000
0010
0001
0000
0001
0010
1000
0000
,
0100
1000
0100
0000
1000
0010
1000
0000
,
0002
0000
0103
0000
0010
1000
0010
0100
0010
1000
0010
0100
0010
1000
0010
0100
,
0010
1000
0000
1010
0000
0000
0000
0110
0000
0000
0000
0000
0001
0000
0100
0000
,
0001
0100
0010
0000
0100
0001
0100
0000
,
0101
0000
0110
0000
1000
0000
0001
0010
,
1000
0000
1000
0000
0010
0001
2000
3000
,
0001
0000
0011
0000
0110
0000
0100
0010
,
0001
1000
0010
1000
,
0001
0010
0001
0000
0100
0020
0000
0000
,
0130
0010
1000
1001
,
0001
0000
0000
0000
1000
0001
1000
0001
1000
0010
1000
0010
1000
0000
0000
0000
,
1010
0000
1000
0010
0100
0010
2000
3000
,
0001
0000
0100
0000
0010
0000
0100
0000
0001
0000
0000
0000
0022
0033
0000
0000
,
2200
3300
1000
0010
0100
0010
2000
3000
,
0001
0000
0100
0000
0010
0000
0100
0000
0001
0000
0000
0000
0022
0033
0000
0000
,
2200
3300
1000
0010
0100
0010
2000
3000
,
0001
0000
0100
0000
0010
0000
0100
0000
0001
0000
0000
0000
0022
0033
0000
0000
,
2200
3300
0001
0100
0010
0000
2000
0000
,
0000
0000
3010
0000
1000
0010
1000
0010
1000
0010
1000
0010
1000
0010
1000
0010
,
2000
0000
3001
0000
1000
0100
0001
0000
,
1000
0010
0100
0000
0110
0000
0020
0000
,
0130
0000
0001
1000
0001
1000
0001
0000
,
0100
0010
0100
0000
0110
0000
1100
0000
,
0011
0002
1003
0010
,
0100
0001
0200
0000
0302
0000
2003
0000
,
3010
0000
1010
1000
0010
1000
0000
0010
,
0100
0001
0100
0000
0010
0000
1000
0000
,
0001
1000
0001
0000
0100
0001
0100
0000
,
0010
0100
0001
1000
,
1100
0000
1000
0010
0100
0001
0100
0000
,
0010
1000
0010
0000
1000
0000
0000
0010
,
0100
0000
0110
0100
0010
0001
0000
0000
,
0000
1000
0001
1000
0001
1000
0001
1000
,
0001
1000
0001
1000
0001
1000
0001
1000
0001
1000
0001
1000
0001
0000
0000
0000
,
1001
0110
1100
0011
,
1100
0000
0100
0000
0010
1000
0010
0000
,
1010
0000
0110
0000
0001
0000
1000
0100
,
0001
0000
0001
0000
0100
1000
0001
0000
,
1000
0000
1100
0000
0110
0000
0010
0100
,
1000
0001
0100
0001
,
1000
0100
1000
0000
0010
0200
0000
0000
,
0310
0100
0001
1001
,
1000
0000
0000
0000
0001
1000
0001
1000
0001
0100
0001
0100
0001
0000
0000
0000
,
0101
0000
0001
0100
0010
0100
0002
0003
,
1000
0000
0010
0000
0100
0000
0010
0000
1000
0000
0000
0000
2200
3300
0000
0000
,
0022
0033
0001
0100
0010
0100
0001
0000
,
1000
0000
0010
0000
0100
0000
0010
0000
1000
0000
0000
0000
2200
3300
0000
0000
,
0022
0033
0001
0100
0010
0100
0001
0000
,
1000
0000
0010
0000
0100
0000
0010
0000
1000
0000
0000
0000
2200
3300
0000
0000
,
0022
0033
1000
0010
0100
0000
0002
0000
,
0000
0000
0103
0000
0001
0100
0001
0100
0001
0100
0001
0010
0001
0010
0001
0010
,
0001
0022
0000
0000
0000
0000
0000
0033
;

//---------------dance-single - ----------------
#NOTES:
     dance-single:
     :
     Easy:
     3:
     0.362647,0.403052,0.228776,0.268371,0.000000,464.000000,52.000000,61.000000,0.000000,0.000000,5.000000,0.362647,0.403052,0.228776,0.268371,0.000000,464.000000,52.000000,61.000000,0.000000,0.000000,5.000000:
// measure 0
0000
0000
0000
0000
0000
0000
0000
0010
,  // measure 1
0000
0000
0000
0000
0000
0000
0000
0100
,  // measure 2
0000
0000
0000
0000
0000
0000
0000
0010
,  // measure 3
0000
0100
0000
0010
0100
0010
0000
1000
,  // measure 4
0100
0001
1000
0100
1000
0100
0000
0001
,  // measure 5
0000
1000
0000
0000
0001
1000
0000
1001
,  // measure 6
0000
4000
0000
0000
,  // measure 7
3000
0020
0000
0000
,  // measure 8
0030
0100
0010
0100
,  // measure 9
0010
0000
0110
0000
0010
0000
1000
0100
,  // measure 10
1000
0001
1000
0001
,  // measure 11
1000
0000
0001
0000
1000
0000
0001
1000
,  // measure 12
0001
1000
0100
1000
,  // measure 13
0010
0000
1000
0000
0100
2000
0000
3000
,  // measure 14
0002
1003
0001
1000
,  // measure 15
0001
0000
1000
0000
0001
4000
0000
0000
,  // measure 16
3000
0002
0003
2000
,  // measure 17
3000
0020
0030
0220
,  // measure 18
0330
0000
0020
0000
0000
0030
0200
0000
,  // measure 19
0000
0300
2000
0000
3000
0000
2002
0000
,  // measure 20
3003
0000
0002
0000
0000
0003
0020
0000
,  // measure 21
0000
0030
0002
0000
0003
0000
0202
0000
,  // measure 22
0000
0303
0002
0000
0000
0003
0200
0000
,  // measure 23
0000
0300
0002
0000
0000
0003
2000
0000
,  // measure 24
3000
0100
0010
1000
,  // measure 25
0100
1000
0100
0010
,  // measure 26
1000
0100
0010
1000
,  // measure 27
0001
1000
0100
0001
,  // measure 28
1000
0002
1003
0010
,  // measure 29
1000
0100
1000
0010
,  // measure 30
1000
0200
0300
0000
1000
0000
0001
0000
,  // measure 31
1000
0000
0001
0000
1000
0000
0001
1000
,  // measure 32
0001
1000
0001
2000
,  // measure 33
0001
0000
0001
0000
0001
3000
0002
0000
,  // measure 34
0000
0003
1000
0000
1000
0000
2000
0000
,  // measure 35
0001
0000
0001
0000
0001
3000
0001
0000
,  // measure 36
1000
0001
1000
0001
,  // measure 37
1000
0001
1000
0001
,  // measure 38
0100
0020
0000
0000
2030
0000
0000
3000
,  // measure 39
0100
2000
0000
3000
0001
0000
0001
0000
,  // measure 40
0000
0000
1000
0000
0010
1000
0010
0000
,  // measure 41
1000
0000
0100
0000
1000
0000
1000
0100
,  // measure 42
1000
0000
0010
0000
1000
0100
1000
0000
,  // measure 43
0001
0000
1000
0000
0001
0000
0100
0001
,  // measure 44
0100
0010
0100
0010
,  // measure 45
0100
0000
0001
0000
1000
0002
0000
0003
,  // measure 46
1000
0100
1000
0010
,  // measure 47
1000
0000
0010
0000
1000
0020
0000
0000
,  // measure 48
0030
0100
0010
0110
,  // measure 49
0100
0010
0100
0101
,  // measure 50
0101
0010
0100
0110
,  // measure 51
0100
0001
0100
0101
,  // measure 52
0101
0100
0010
0110
,  // measure 53
0100
0001
0100
0101
,  // measure 54
0101
0100
0010
0220
,  // measure 55
0000
0000
0000
0330
0000
0000
2002
0000
,  // measure 56
0000
0000
0000
3003
0000
0000
0000
0000
,  // measure 57
0000
0000
0000
0000
,  // measure 58
0000
1000
0001
0000
,  // measure 59
1000
0100
1000
0010
,  // measure 60
0100
0001
0100
0001
,  // measure 61
1000
0000
0100
0000
1000
0001
0000
0000
,  // measure 62
0000
0000
1000
0000
0001
0020
0000
0000
,  // measure 63
0000
0030
0001
0000
0010
0000
0001
0000
,  // measure 64
1000
0000
0010
0000
1000
0020
0000
0000
,  // measure 65
0000
0030
1000
0000
0010
0000
1000
0000
,  // measure 66
0010
1000
0100
1000
,  // measure 67
0100
1000
0100
1000
,  // measure 68
0001
0010
0001
0010
,  // measure 69
0001
1000
0001
1000
,  // measure 70
0001
0101
0110
0101
,  // measure 71
0011
0000
0010
0000
0001
0010
0000
0000
,  // measure 72
0001
0011
0101
0011
,  // measure 73
0001
0000
0001
0000
1000
0001
0000
1000
,  // measure 74
0001
1000
0001
2000
,  // measure 75
0001
0000
0001
0000
0001
3000
0002
0000
,  // measure 76
0000
0003
1000
0000
1100
0000
2000
0000
,  // measure 77
0001
0000
0001
0000
0001
3000
0001
0000
,  // measure 78
1000
0001
1000
0001
,  // measure 79
1000
0001
1000
0001
,  // measure 80
0100
0020
0000
0000
2030
0000
0000
3000
,  // measure 81
0100
2000
0000
3000
0001
0000
1001
0000
,  // measure 82
0001
0000
1000
0000
0010
1000
0010
0000
,  // measure 83
1000
0000
0100
0000
1000
0000
1000
0100
,  // measure 84
1000
0000
0010
0000
1000
0100
1000
0000
,  // measure 85
0001
0000
1000
0000
0001
0000
0100
0001
,  // measure 86
0100
0010
0100
0010
,  // measure 87
0100
0000
0001
0000
1000
0001
0000
0000
,  // measure 88
1001
0100
1000
0010
,  // measure 89
1000
0000
0010
0000
1000
0040
0000
0000
,  // measure 90
0030
0100
0010
0110
,  // measure 91
0100
0010
0100
0101
,  // measure 92
0110
0010
0100
0110
,  // measure 93
0100
0001
0100
0101
,  // measure 94
0110
0100
0010
0110
,  // measure 95
0100
0001
0100
0101
,  // measure 96
0110
0100
0010
0220
,  // measure 97
0330
0000
4004
0000
0000
3003
2002
0000
,  // measure 98
0000
3003
1000
0000
0010
0000
0100
0000
,  // measure 99
1000
0010
2000
0000
,  // measure 100
3000
0001
0010
0001
,  // measure 101
0010
0000
0001
0000
0020
0000
0000
0030
,  // measure 102
0000
0100
0010
0100
,  // measure 103
0001
1000
0001
1000
,  // measure 104
0001
2000
0000
3000
,  // measure 105
0001
1001
1000
0002
,  // measure 106
0000
0003
1000
0000
0001
0000
1000
0000
,  // measure 107
0100
1000
0020
0000
,  // measure 108
0000
0030
0100
0000
0010
0000
0100
0000
,  // measure 109
0001
0000
0100
0000
0001
0000
0000
0100
,  // measure 110
0001
0200
0000
0000
,  // measure 111
0300
0001
1000
0001
,  // measure 112
1000
0002
0000
0003
,  // measure 113
1000
1100
1000
1100
,  // measure 114
1000
0001
1000
0000
0010
1000
0010
0000
,  // measure 115
1000
0000
0100
0000
1000
0000
1000
0100
,  // measure 116
1000
0000
0010
0000
1000
0100
1000
0000
,  // measure 117
0001
0000
1000
0000
0001
0000
0100
0001
,  // measure 118
0100
0010
0100
0010
,  // measure 119
0100
0000
0001
0000
1000
0002
0000
0000
,  // measure 120
1003
0100
1000
0010
,  // measure 121
1000
0000
0010
0000
1000
0020
0000
0000
,  // measure 122
0030
0100
0010
0110
,  // measure 123
0100
0010
0100
0101
,  // measure 124
0110
0010
0100
0110
,  // measure 125
0100
0001
0100
0101
,  // measure 126
0110
0100
0010
0110
,  // measure 127
0100
0001
0100
0101
,  // measure 128
0110
0100
0010
0220
,  // measure 129
0000
0000
0000
0330
0000
0000
2002
0000
,  // measure 130
0000
0000
0000
0000
0000
0000
0000
3003
;

//---------------dance-double - ----------------
#NOTES:
     dance-double:
     :
     Medium:
     8:
     0.604621,0.662157,0.382759,0.369561,0.191380,791.000000,87.000000,84.000000,0.000000,0.000000,0.000000,0.604621,0.662157,0.382759,0.369561,0.191380,791.000000,87.000000,84.000000,0.000000,0.000000,0.000000:
00000000
00000000
10000000
01000000
00100000
00020000
00030000
00110000
,
00000000
00010000
10000000
01000000
00100000
00020000
00030000
00110000
,
00000000
00000000
00010000
00100000
01000000
20000000
30000000
11000000
,
00000000
10000000
00000000
00010000
00100000
01000000
00000000
00100000
,
01100000
00000000
01000000
00010000
10000000
00200000
00000000
10300000
,
00000000
00010000
10000000
00100000
01000000
00020000
00000000
10030000
,
00000000
00000000
00100000
00000000
10000000
00010000
10000000
00010000
01000000
00010000
01000000
00010000
00100000
00010000
00100000
00010000
,
00100000
00000000
00000000
00110000
00000000
00000000
00000000
01100000
00000000
00000000
00000000
11000000
00000000
00000000
10000000
00000000
,
00100000
01100000
00100000
00000000
01000000
00010000
01000000
00000000
,
01010000
00000000
01100000
00000000
10000000
00000000
00010000
00100000
,
10000000
00000000
10000000
00000000
00100000
00010000
10000000
00000000
,
00010000
00000000
00110000
00000000
01100000
00000000
01000000
00100000
,
00010000
10000000
00100000
10000000
,
00010000
00100000
00010000
00000000
01000000
00200000
00000000
00000000
,
01300000
00100000
10000000
10010000
,
00010000
00000000
00000000
00000000
10000000
00100000
10000000
00100000
10000000
00010000
10000000
00010000
00000000
00000000
10000000
00000000
,
00100000
01000000
00020000
00030000
01000000
00100000
20000000
30000000
,
00010000
01000000
00200000
00000000
01300000
00000000
02200000
00000000
,
03300000
00000000
00100000
00000000
10000000
00100000
01000000
00000000
,
00010000
00000000
20000000
00000000
30010000
00000000
00020000
01030000
,
00000000
00000000
00100000
10000000
00100000
01000000
00100000
00000000
,
01000000
00010000
10000000
00000000
01000000
00010000
20000000
30010000
,
00000000
01000000
00100000
10000000
00010000
01000000
00200000
00300000
,
10000000
00100000
01000000
00000000
00010000
01000000
00200000
01300000
,
00000000
00000000
00000000
01100000
00000000
00000000
01010000
00000000
00000000
00010000
10000000
00010000
,
10000000
00000000
00000000
00100000
01000000
00010000
10000000
00100000
01000000
00010000
01000000
00010000
,
20000000
00000000
00000000
30000000
00000000
00000000
00100000
00000000
01000000
00000000
00100000
00000000
01000000
00000000
00010000
00000000
01000000
00000000
00010000
00000000
01000000
00000000
00010000
00000000
,
20000000
00000000
00000000
30000000
00000000
00000000
00010000
00000000
01000000
00000000
00010000
00000000
01000000
00000000
00000000
00000000
00000000
00000000
00010000
00000000
00100000
00000000
01000000
00000000
,
10000000
00000000
11000000
00000000
10000000
00100000
01000000
00000000
,
00010000
01000000
00100000
00000000
10000000
00100000
01000000
00000000
,
00020000
01030000
00000000
00000000
00010000
01000000
10000000
00100000
,
01000000
00000000
00000000
00100000
00000000
00000000
00010000
00000000
00000000
10000000
00000000
00000000
00100000
00000000
00000000
01000000
00000000
00000000
00010000
00000000
00100000
00000000
01000000
00000000
,
10000000
00000000
20000000
00000000
30010000
01000000
10000000
00000000
,
10000000
01000000
00010000
00000000
00010000
01000000
10000000
00000000
,
00000000
00000000
10010000
00000000
10000000
00100000
00010000
00000000
,
00010000
00100000
10000000
00000000
10000000
01000000
10000000
00000000
,
00010000
01000000
10000000
00000000
10000000
01000000
00010000
00000000
,
00100000
00010000
00100000
00000000
00010000
01000000
00010000
00000000
,
20000000
00000000
30100000
00000000
01000000
00010000
01000000
00100000
01000000
00010000
01000000
00100000
01000000
00010000
01000000
00100000
,
01000000
00010000
00000000
01010000
00000000
00000000
00000000
01100000
00000000
00000000
00000000
00000000
10000000
00000000
00100000
00000000
,
10000000
00100000
01000000
00000000
00100000
10000000
00100000
00000000
,
10100000
00000000
01100000
00000000
00010000
00000000
10000000
01000000
,
00010000
00000000
00010000
00000000
01000000
10000000
00020000
00000000
,
10030000
00000000
11000000
00000000
01100000
00000000
00100000
01000000
,
10000000
00010000
01000000
00010000
,
10000000
01000000
10000000
00000000
00100000
02000000
00000000
00000000
,
03100000
01000000
00010000
10010000
,
10000000
00000000
00000000
00000000
00010000
10000000
00010000
10000000
00010000
01000000
00010000
01000000
00010000
00000000
00000000
00000000
,
01010000
00000000
00010000
01000000
00100000
01000000
00020000
00030000
,
10000000
00000000
00100000
00000000
01000000
00000000
00100000
00000000
10000000
00000000
00000000
00000000
22000000
33000000
00000000
00000000
,
00220000
00330000
00010000
01000000
00100000
01000000
00010000
00000000
,
10000000
00000000
00100000
00000000
01000000
00000000
00100000
00000000
10000000
00000000
00000000
00000000
22000000
33000000
00000000
00000000
,
00220000
00330000
00010000
01000000
00100000
01000000
00020000
00030000
,
10000000
00000000
00100000
00000000
01000000
00000000
00100000
00000000
10000000
00000000
00000000
00000000
22000000
33000000
00000000
00000000
,
00220000
00330000
10000000
00100000
01000000
00000000
00020000
00000000
,
00000000
00000000
01030000
00000000
00010000
01000000
00010000
01000000
00010000
01000000
00010000
01000000
00010000
01000000
00010000
01000000
,
00010000
01010000
00000000
00010000
00000000
10000000
00000000
00100000
,
00000000
01000000
00000000
00010000
00000000
10000000
00000000
00010000
,
01000000
00010000
01000000
00000000
01100000
00000000
00000000
10000000
,
00100000
10000000
00100000
00000000
01100000
00000000
01000000
00000000
,
00010000
10000000
00100000
10000000
00010000
01000000
00100000
00000000
,
01000000
00010000
01000000
00000000
01100000
00000000
11000000
00000000
,
10000000
00100000
01000000
00000000
00020000
10030000
00000000
00000000
,
00100000
10000000
00100000
01000000
00010000
01000000
00010000
00000000
,
10000000
00000000
00100000
00000000
00010000
00000000
00000000
00000000
00010000
00000000
02000000
00000000
00000000
03000000
00000000
00000000
,
00100000
01000000
00100000
10000000
00100000
01000000
00020000
00000000
,
10030000
00000000
10010000
00010000
00000000
10000000
00100000
00000000
,
01000000
00100000
01000000
00010000
01000000
00100000
10000000
00100000
,
01000000
00000000
01100000
00000000
00100000
10000000
00100000
00000000
,
10000000
01000000
10000000
00100000
10000000
00100000
01000000
00100000
,
01000000
01100000
11000000
01100000
,
00100000
01000000
10000000
00000000
00010000
10000000
00000000
00000000
,
00010000
10000000
10010000
00000000
01100000
00000000
10010000
00000000
,
11000000
00000000
00110000
00000000
00010000
10000000
00000000
00020000
,
10030000
00000000
00010000
00000000
10000000
00100000
00010000
00000000
,
00010000
00100000
10000000
00000000
10000000
00100000
00010000
00000000
,
00000000
00000000
10010000
00000000
00010000
01000000
10000000
00000000
,
10000000
01000000
00010000
00000000
00010000
00100000
00010000
00000000
,
10000000
00100000
00010000
00000000
00010000
00100000
10000000
00000000
,
01000000
10000000
01000000
00000000
10000000
00100000
10000000
00000000
,
00020000
00000000
01030000
00000000
00100000
10000000
00100000
01000000
00100000
10000000
00100000
01000000
00100000
10000000
00100000
01000000
,
00100000
10000000
00000000
10100000
00000000
00000000
00000000
01100000
00000000
00000000
00000000
00000000
00010000
00000000
01000000
00000000
,
00010000
01000000
00100000
00000000
01000000
00010000
01000000
00000000
,
01010000
00000000
01100000
00000000
10000000
00000000
00010000
00100000
,
10000000
00000000
10000000
00000000
00100000
00010000
20000000
30000000
,
00010000
00000000
00110000
00000000
01100000
00000000
01000000
00100000
,
00010000
10000000
00100000
10000000
,
00010000
00100000
00010000
00000000
01000000
00200000
00000000
00000000
,
01300000
00100000
10000000
10010000
,
00010000
00000000
00000000
00000000
10000000
00010000
10000000
00010000
10000000
00100000
10000000
00100000
10000000
00000000
00000000
00000000
,
10100000
00000000
10000000
00100000
01000000
00100000
20000000
30000000
,
00010000
00000000
01000000
00000000
00100000
00000000
01000000
00000000
00010000
00000000
00000000
00000000
00220000
00330000
00000000
00000000
,
22000000
33000000
10000000
00100000
01000000
00100000
20000000
30000000
,
00010000
00000000
01000000
00000000
00100000
00000000
01000000
00000000
00010000
00000000
00000000
00000000
00220000
00330000
00000000
00000000
,
22000000
33000000
10000000
00100000
01000000
00100000
20000000
30000000
,
00010000
00000000
01000000
00000000
00100000
00000000
01000000
00000000
00010000
00000000
00000000
00000000
00220000
00330000
00000000
00000000
,
22000000
33000000
00010000
01000000
00100000
00000000
20000000
00000000
,
00000000
00000000
30100000
00000000
10000000
00100000
10000000
00100000
10000000
00100000
10000000
00100000
10000000
00100000
10000000
00100000
,
20000000
00000000
30010000
00000000
10000000
01000000
00010000
00000000
,
10000000
00100000
01000000
00000000
01100000
00000000
00200000
00000000
,
01300000
00000000
00010000
10000000
00010000
10000000
00010000
00000000
,
01000000
00100000
01000000
00000000
01100000
00000000
11000000
00000000
,
00110000
00020000
10030000
00100000
,
01000000
00010000
02000000
00000000
03020000
00000000
20030000
00000000
,
30100000
00000000
10100000
10000000
00100000
10000000
00000000
00100000
,
01000000
00010000
01000000
00000000
00100000
00000000
10000000
00000000
,
00010000
10000000
00010000
00000000
01000000
00010000
01000000
00000000
,
00100000
01000000
00010000
10000000
,
11000000
00000000
10000000
00100000
01000000
00010000
01000000
00000000
,
00100000
10000000
00100000
00000000
10000000
00000000
00000000
00100000
,
01000000
00000000
01100000
01000000
00100000
00010000
00000000
00000000
,
00000000
10000000
00010000
10000000
00010000
10000000
00010000
10000000
,
00010000
10000000
00010000
10000000
00010000
10000000
00010000
10000000
00010000
10000000
00010000
10000000
00010000
00000000
00000000
00000000
,
10010000
01100000
11000000
00110000
,
11000000
00000000
01000000
00000000
00100000
10000000
00100000
00000000
,
10100000
00000000
01100000
00000000
00010000
00000000
10000000
01000000
,
00010000
00000000
00010000
00000000
01000000
10000000
00010000
00000000
,
10000000
00000000
11000000
00000000
01100000
00000000
00100000
01000000
,
10000000
00010000
01000000
00010000
,
10000000
01000000
10000000
00000000
00100000
02000000
00000000
00000000
,
03100000
01000000
00010000
10010000
,
10000000
00000000
00000000
00000000
00010000
10000000
00010000
10000000
00010000
01000000
00010000
01000000
00010000
00000000
00000000
00000000
,
01010000
00000000
00010000
01000000
00100000
01000000
00020000
00030000
,
10000000
00000000
00100000
00000000
01000000
00000000
00100000
00000000
10000000
00000000
00000000
00000000
22000000
33000000
00000000
00000000
,
00220000
00330000
00010000
01000000
00100000
01000000
00010000
00000000
,
10000000
00000000
00100000
00000000
01000000
00000000
00100000
00000000
10000000
00000000
00000000
00000000
22000000
33000000
00000000
00000000
,
00220000
00330000
00010000
01000000
00100000
01000000
00010000
00000000
,
10000000
00000000
00100000
00000000
01000000
00000000
00100000
00000000
10000000
00000000
00000000
00000000
22000000
33000000
00000000
00000000
,
00220000
00330000
10000000
00100000
01000000
00000000
00020000
00000000
,
00000000
00000000
01030000
00000000
00010000
01000000
00010000
01000000
00010000
01000000
00010000
00100000
00010000
00100000
00010000
00100000
,
00010000
00220000
00000000
00000000
00000000
00000000
00000000
00330000
;

//---------------dance-single - ----------------
#NOTES:
     dance-single:
     :
     Medium:
     6:
     0.529829,0.576888,0.395958,0.395958,0.057194,663.000000,90.000000,90.000000,0.000000,0.000000,20.000000,0.529829,0.576888,0.395958,0.395958,0.057194,663.000000,90.000000,90.000000,0.000000,0.000000,20.000000:
0000
0000
1000
0100
1000
0200
0300
1100
,
0000
1001
0000
0100
0001
0200
0300
0101
,
0000
0000
0001
0010
0100
2000
3000
1100
,
0000
1000
0000
0001
0010
0100
0000
0010
,
0110
0000
0100
0001
1000
0020
0000
1030
,
0000
0001
1000
0010
0100
0002
0000
1003
,
0000
0010
4040
0000
0000
0000
0000
0000
,
3030
0000
0000
0110
0000
0000
0000
0101
0000
0000
0000
1001
0000
0000
0000
0000
,
0001
0100
0001
0000
0100
0001
0100
0000
,
0101
0000
0110
0000
1000
0000
0001
0010
,
0001
0000
1000
0000
0010
1000
0010
0000
,
1000
0000
1010
0000
0110
0000
0100
0010
,
0100
0001
0010
0001
,
0001
0010
0100
0000
0100
0020
0000
0000
,
0130
0010
1000
1001
,
0001
0000
0000
0000
4004
0000
0000
0000
0000
0000
3000
0003
0000
0000
1000
0000
,
0010
0100
0002
0003
0100
0010
2000
3000
,
0001
0100
0020
0000
0130
0000
0220
0000
,
0330
0000
0010
0000
1000
0010
0100
0000
,
0001
0000
2000
0000
3001
0000
0002
0103
,
0000
0000
0010
1000
0010
0100
0010
0000
,
0100
0001
1000
0000
0001
1000
0002
1003
,
0000
0100
0010
1000
0001
0100
0020
0030
,
1000
0010
0100
0000
0001
0100
0020
0130
,
0000
0000
0000
0110
0000
0000
0101
0000
0000
0001
1000
0001
,
1000
0000
0000
0001
0100
0001
0100
0001
0100
0001
0100
0001
,
2000
0000
0000
3000
0000
0000
0010
0000
0100
0000
0010
0000
0100
0000
0010
0000
0100
0000
0010
0000
0100
0000
0010
0000
,
2000
0000
0000
3000
0000
0000
0001
0000
0100
0000
0001
0000
0100
0000
0000
0000
0000
0000
0001
0000
0010
0000
0100
0000
,
1000
0000
1100
0000
1000
0010
0100
0000
,
0001
0100
0010
0000
1000
0010
0100
0000
,
0002
0000
0000
0103
0000
0000
0000
0000
0000
0000
0001
0000
1000
0000
0000
0000
0001
0000
0100
0000
0000
0000
0001
0000
,
0100
0000
0000
0000
0000
0000
0001
0000
0000
1000
0000
0000
0010
0000
0000
0100
0000
0000
0001
0000
1000
0000
0010
0000
,
1000
0000
2000
0000
3001
0100
0001
0000
,
1000
0100
1000
0000
0001
0100
0001
0000
,
0000
0000
1001
0000
1000
0010
1000
0000
,
0001
0010
0001
0000
1000
0100
1000
0000
,
0001
0100
1000
0000
1000
0100
0001
0000
,
0010
0001
0010
0000
0001
0100
0001
0000
,
2000
3010
4040
0000
0000
0000
0000
0000
,
3030
0000
1000
0000
0010
0000
1000
0010
,
1000
0010
0100
0000
0010
1000
0010
0000
,
1010
0000
0110
0000
0001
0000
1000
0100
,
0001
0000
0001
0000
0100
1000
0002
0000
,
1003
0000
1100
0000
0110
0000
0010
0100
,
1000
0001
0100
0001
,
1000
0100
1000
0000
0010
0200
0000
0000
,
0310
0100
0001
1001
,
1000
4004
0000
3003
,
0101
0000
0001
0100
0010
0100
0002
0003
,
1000
0000
0010
0000
0100
0000
0010
0000
1000
0000
0000
0000
2200
3300
0000
0000
,
2002
3003
0001
0100
0010
1000
0010
0000
,
1000
0000
0010
0000
0100
0000
0010
0000
1000
0000
0000
0000
2200
3300
0000
0000
,
2002
3003
0001
0100
0010
0100
0002
0003
,
1000
0000
0010
0000
0100
0000
0010
0000
1000
0000
0000
0000
2200
3300
0000
0000
,
2002
3003
1000
0010
0100
0000
0002
0000
,
0000
0000
0103
0000
0404
0000
0000
0000
0000
0000
0000
0000
0000
0000
0000
0303
,
0000
0101
0000
0001
0000
1000
0000
0010
,
0000
0100
0000
0001
0000
1000
0000
0001
,
0100
0001
0100
0000
0110
0000
0000
1000
,
0010
1000
0010
0000
0110
0000
0100
0000
,
0001
1000
0010
1000
0001
0100
0010
0000
,
0100
0001
0100
0000
0110
0000
0101
0000
,
0001
1000
0100
0000
2000
3100
0000
0000
,
0010
0100
0010
0100
0001
0100
0001
0000
,
1000
0000
0010
0000
0001
0000
0000
0000
0001
0000
0200
0000
0000
0300
0000
0000
,
0010
0100
0010
1000
0010
0100
0002
0000
,
1003
0000
1001
0001
0000
1000
0010
0000
,
0100
0010
0100
0001
0100
0010
1000
0010
,
0100
0000
0110
0000
0010
1000
0010
0000
,
1000
0100
1000
0010
1000
0010
0100
0010
,
0100
0110
0101
0110
,
0100
0010
1000
0000
0002
1003
0000
0000
,
0001
1000
1001
0000
0110
0000
1001
0000
,
1100
0000
0110
0000
0001
1000
0000
0002
,
1003
0000
0002
0000
1003
0010
1000
0000
,
0001
0010
0001
0000
1000
0010
1000
0000
,
0000
0000
1001
0000
0001
0100
0001
0000
,
1000
0100
1000
0000
0001
0010
0001
0000
,
1000
0010
0001
0000
0001
0010
1000
0000
,
0100
1000
0100
0000
1000
0010
1000
0000
,
0002
0103
0404
0000
0000
0000
0000
0000
,
0303
0000
0001
0000
0100
0000
0001
0100
,
0001
0100
0010
0000
0100
0001
0100
0000
,
0101
0000
0110
0000
1000
0000
0001
0010
,
1000
0000
1000
0000
0010
0001
2000
0000
,
3001
0000
0011
0000
0110
0000
0100
0010
,
0001
1000
0010
1000
,
0001
0010
0001
0000
0100
0020
0000
0000
,
0130
0010
1000
1001
,
0001
4004
0000
3003
,
1010
0000
1000
0010
0100
0010
2000
3000
,
0001
0000
0100
0000
0010
0000
0100
0000
0001
0000
0000
0000
0022
0033
0000
0000
,
2002
3003
1000
0010
0100
0001
0100
0000
,
0001
0000
0100
0000
0010
0000
0100
0000
0001
0000
0000
0000
0022
0033
0000
0000
,
2002
3003
1000
0010
0100
0010
2000
3000
,
0001
0000
0100
0000
0010
0000
0100
0000
0001
0000
0000
0000
0022
0033
0000
0000
,
2002
3003
0001
0100
0010
0000
2000
0000
,
0000
3000
0040
0000
0000
0000
0000
0000
,
0030
0000
1000
0000
0001
0100
0001
0000
,
1000
0010
0100
0000
0110
0000
0020
0000
,
0130
0000
0001
1000
0001
1000
0001
0000
,
0100
0010
0100
0000
0110
0000
0100
0000
,
0001
2000
3010
0010
,
0100
0001
0200
0000
0302
0000
2003
0000
,
3010
0000
0000
0000
2020
0000
0000
0000
0000
3030
0000
0000
0000
0000
0000
0000
,
1000
0001
0100
0000
0010
0000
1000
0000
,
0001
1000
0001
0000
0100
0001
0100
0000
,
0010
0100
0001
1000
,
1100
0000
1000
0010
0100
0001
0100
0000
,
0010
1000
0010
0000
1000
0000
0000
0010
,
0100
0000
0220
0000
0000
0330
0000
0000
,
0000
1000
0001
1000
0001
1000
0001
1000
,
4004
0000
0000
0000
0000
0000
0000
0000
0000
0000
0000
3000
0003
0000
0000
0000
,
1001
0101
0110
1010
,
1100
0000
0100
0000
0010
1000
0010
0000
,
1010
0000
0110
0000
0001
0000
1000
0100
,
0001
0000
0001
0000
0100
1000
0002
0000
,
1003
0000
1100
0000
0110
0000
0010
0100
,
1000
0001
0100
0001
,
1000
0100
1000
0000
0010
0200
0000
0000
,
0310
0100
0001
1001
,
1000
4004
0000
3003
,
0101
0000
0001
0100
0010
0100
0002
0003
,
1000
0000
0010
0000
0100
0000
0010
0000
1000
0000
0000
0000
2200
3300
0000
0000
,
2002
3003
0001
0100
0010
1000
0010
0000
,
1000
0000
0010
0000
0100
0000
0010
0000
1000
0000
0000
0000
2200
3300
0000
0000
,
2002
3003
0001
0100
0010
0100
0002
0003
,
1000
0000
0010
0000
0100
0000
0010
0000
1000
0000
0000
0000
2200
3300
0000
0000
,
2002
3003
1000
0010
0100
0000
0002
0000
,
0000
0003
4000
0000
0000
0000
0000
0000
,
3000
2002
0000
0000
0000
0000
0000
0000
,
0000
3003
0000
0000
0000
0000
0000
0000
;
