#TITLE:Paparazzi;
#SUBTITLE:;
#ARTIST:Girls Generation;
#TITLETRANSLIT:;
#SUBTITLETRANSLIT:;
#ARTISTTRANSLIT:;
#GENRE:KPop;
#CREDIT:;
#BANNER:Paparazzi.png;
#BACKGROUND:Paparazzi-bg.png;
#LYRICSPATH:;
#CDTITLE:;
#MUSIC:paparazzi.mp3;
#OFFSET:0.000;
#SAMPLESTART:100.000;
#SAMPLELENGTH:12.000;
#SELECTABLE:YES;
#BPMS:0.000=129.000
;
#STOPS:
;
#BGCHANGES:1.500=Paparazzi.avi=1.000=0=0=1=====,
99999=-nosongbg-=1.000=0=0=0 // don't automatically add -songbackground-
;
#KEYSOUNDS:;
#ATTACKS:TIME=0.000000:LEN=0.470000:MODS=Overhead;

//---------------dance-single - ----------------
#NOTES:
     dance-single:
     :
     Hard:
     6:
     0.589,0.558,0.533,0.449,0.035,713.000,121.000,102.000,36.000,0.000,0.000,0.589,0.558,0.533,0.449,0.035,713.000,121.000,102.000,36.000,0.000,0.000:
0000
0000
0000
0000
2002
3003
1000
0001
,
1000
0000
0000
0000
2002
0000
3003
0000
0220
0000
0000
0330
0100
0000
0010
0000
,
0100
0000
1010
0000
0101
0000
0100
1000
,
0100
0000
0000
0000
0202
0000
0000
0000
0000
0303
0001
0000
1000
0000
0001
0000
,
0000
0100
0010
0200
0000
0300
1000
0100
,
1000
0000
0000
0000
0202
0000
0000
0000
0000
0303
0000
0000
0100
0000
0010
0000
,
0100
0000
2020
0000
0000
3030
0100
0010
,
0110
0000
0010
1000
1010
0000
0010
0100
,
0001
0000
1001
0000
1000
0100
0010
0100
,
0010
0100
0010
0100
1000
0100
0010
0100
,
0110
0000
1001
0000
0110
0000
2002
0000
0000
3003
0100
0000
0010
0000
0100
0000
,
1000
0100
0010
0100
0010
0100
0010
0100
,
0001
1000
0000
0000
1001
0000
0100
0000
0000
0000
0001
0000
1000
0000
0100
0000
,
1000
0100
0010
0100
1000
0100
0001
0100
,
1000
0000
0100
0000
0010
0000
0220
0000
0000
0330
1000
0000
0100
0000
0010
0000
,
0100
0001
0010
0100
1000
0100
0001
0010
,
0100
0000
0010
0000
0100
0000
0220
0000
0000
0330
1000
0000
0100
0000
0001
0000
,
0100
0001
0100
1000
0001
1000
0001
0100
,
1000
0010
0100
0110
0000
0010
0100
0010
,
0110
0000
0001
0100
0010
0100
0100
1000
,
1000
0100
0010
0100
0110
0000
1001
0000
,
0110
0000
2002
3003
0100
0010
0001
2000
,
0000
0000
3000
0000
0100
0010
0100
1000
,
0100
0000
1010
0000
0100
0000
0001
2000
,
0000
3000
0110
1001
,
1100
0000
0101
0000
0110
0000
0010
2020
,
0000
0000
3030
0000
0100
0001
0100
0010
,
0100
1000
0100
0001
0100
0001
1000
0001
,
0200
0010
0020
0000
0000
0330
0011
0100
,
1000
0100
0100
1100
0000
0100
0010
0001
,
0100
0010
0022
0000
0033
1000
0010
0100
,
1000
0100
0010
0100
0110
0000
1001
0000
,
0220
0000
0000
0330
2000
0000
0000
0000
3000
0000
0100
0000
0010
0000
0100
0000
,
1000
0220
0000
0000
0330
0001
0010
0100
,
1000
0002
0000
0000
0003
0010
0100
1000
,
0010
0100
0010
0100
0110
0000
1100
0000
,
0101
0000
0000
0000
0020
0000
0000
0030
1000
0000
0100
0000
0010
0000
0100
0000
,
0010
0100
0010
0101
0100
0010
0100
0010
,
0002
0000
1003
0000
0000
0100
1000
0100
,
0020
0000
0000
0000
0130
0000
0002
0000
0000
0003
1000
0000
0100
0000
0010
0000
,
0000
0100
0010
2000
0000
3001
0100
0001
,
0100
1000
0100
0110
0000
0001
0100
0010
,
0100
0000
1000
0000
2020
0000
0000
3030
0000
0000
0010
0000
0001
0000
0010
0000
,
0001
0000
0100
0000
0001
0000
0100
0000
2002
0000
0000
0000
0000
3003
0000
0000
,
0220
0000
0000
0330
2002
3003
0100
1000
,
0100
0000
2020
0000
0000
3030
0100
0010
,
0100
0000
0220
0000
0000
0330
1000
0100
,
1000
0000
0000
0000
2002
0000
0000
0000
3003
0000
0100
0000
0001
0000
0100
0001
,
0100
0001
0101
0000
0110
0000
0010
0100
,
0010
0100
1000
0100
0010
0100
0001
0100
,
0001
0100
0010
0101
0000
0100
0010
1000
,
0200
0000
0310
0100
1000
0100
0001
0100
,
1000
0000
0101
0000
1000
0000
0202
0000
0000
0303
0010
0000
0100
0000
0010
0000
,
0100
1000
0100
1000
0010
0100
1000
0010
,
0100
0000
1010
0000
0100
0000
0220
0000
0000
0330
1000
0000
0100
0000
0001
0000
,
0010
0100
1000
0100
0001
1000
0100
0010
,
0001
0110
1000
1100
0001
0000
0110
0000
,
1000
0000
1100
0000
1001
0000
1000
0002
,
0000
0000
0000
0000
0000
0003
0000
0000
0100
0000
0010
0000
0100
0000
0010
0000
,
1100
0000
1000
0000
0001
0000
1000
0020
,
0000
0000
0000
0030
0110
0000
1100
0000
,
0101
0000
0110
0000
1000
0100
1000
1002
,
0000
0000
0000
0003
1000
0100
0010
0100
,
0010
0001
1000
0001
0100
0010
0100
0010
,
0200
0000
0000
0000
0300
0010
0100
1000
,
0100
0010
0100
0110
0000
0010
0100
0001
,
0010
0100
0202
0000
0303
1000
0100
0001
,
1000
0100
0001
0100
0110
0000
1100
0000
,
0002
0000
2000
0000
3003
1000
0100
0010
,
0100
2020
0000
0000
3030
0100
0001
0010
,
0100
2020
0000
0000
3030
0100
0010
0001
,
0100
0010
0001
0000
0011
0000
1010
0000
,
0110
0000
2002
3003
1000
0100
0010
0100
,
0001
0100
1000
0100
0001
0010
0100
1000
,
0200
1000
1300
0000
0000
0010
0100
0010
,
0100
0000
1000
0200
0000
0301
0010
0200
,
0000
0310
0100
1010
0120
0000
0000
0000
,
0000
0000
0030
1000
0200
0000
0000
0000
,
0000
0300
0000
1010
0200
0000
0000
0000
,
0300
0000
0010
0000
0100
0000
0020
0000
0000
0000
0000
0000
1030
0000
0100
0010
,
0001
0010
0100
0010
0022
0000
0000
0033
0110
0000
0000
0000
1000
0000
0100
0000
,
1000
0010
0100
0010
0200
0000
0000
0300
,
0010
0100
1000
0000
0001
0010
0100
0000
0210
0000
0000
0000
0310
0000
0100
0000
,
0110
0000
1000
0001
1001
0010
0100
0010
,
0101
1000
0110
0000
0101
0000
1000
0001
,
1000
0000
0001
0010
0100
0010
1000
0100
,
0010
0002
0000
0000
1003
0100
1000
0100
,
0110
0000
0001
0010
0001
0010
0011
0000
,
0100
0000
0010
0000
1010
0100
1000
0100
,
0101
0000
0000
0000
1100
0000
0010
0000
1000
0100
0010
0001
0100
0000
1000
0000
,
1000
0100
0010
0001
0010
0100
1000
0000
1000
0000
0000
0000
0100
0000
0010
0000
,
0110
0000
1001
0000
0100
0010
0001
2000
,
0000
0001
3001
0000
0100
0000
0010
1000
,
0100
0000
0010
0000
1000
0100
0001
0000
,
0110
0000
1001
0000
0110
0010
0100
0010
,
0100
0001
0100
0001
0100
0001
0100
0001
,
0000
1000
0001
0000
1000
0000
0101
0000
0001
0000
0100
0000
0010
0000
0100
0000
,
0010
0100
0010
0100
0010
0100
0010
0100
,
0000
0001
1000
0000
0100
0000
1001
0000
0000
0000
0100
0000
0001
0000
0100
0000
,
1000
0100
0001
0100
0010
0100
1000
0001
,
0100
1000
0100
1010
0000
0100
0001
0010
,
0100
1000
0001
0100
0001
1000
0100
0000
,
0110
0000
0000
1001
0000
0000
0101
0000
1000
0000
0100
0000
0010
0000
0100
0000
,
1000
0100
0001
0110
0000
1000
0100
0001
,
0100
0100
0220
0000
0330
1000
0100
0001
,
0100
0010
0100
0001
0101
0000
0011
0000
,
1100
0000
0200
0000
0300
0010
0100
1000
,
0100
2200
0000
0000
3300
0001
0010
0100
,
0001
0220
0000
0000
0330
1000
0100
0010
,
0100
0001
1000
0100
0101
0000
1100
0000
,
0110
0000
1010
0000
0100
0001
0010
0100
,
1000
0100
0010
0100
0010
0100
1000
0100
,
0020
0000
1000
0000
1030
0000
0000
0000
0000
0000
0100
0000
0010
0100
1000
0000
,
1000
0000
0100
0101
0000
1000
0001
1000
,
0010
0100
1000
0220
0330
0100
0010
0100
,
1000
0010
0010
2000
0000
3100
0100
1000
,
0100
0010
0200
0000
0300
0001
0010
0100
,
1000
0001
1000
0010
1010
0000
0000
0000
,
0220
0000
0000
0330
2MM2
0MM0
0MM0
0MM0
,
0MM0
0MM0
0MM0
0MM0
0MM0
0MM0
0MM0
0MM0
,
0MM0
0000
0MM0
0000
0MM0
0000
0MM0
0000
0MM0
0000
0MM0
3003
0000
0000
0000
0000
;

//---------------dance-single - ----------------
#NOTES:
     dance-single:
     :
     Medium:
     4:
     0.478,0.424,0.269,0.181,0.000,658.000,61.000,41.000,0.000,0.000,0.000,0.478,0.424,0.269,0.181,0.000,658.000,61.000,41.000,0.000,0.000,0.000:
0000
0000
0000
0000
0000
0000
1000
0001
,
1000
0000
1001
0000
0000
0000
0100
0010
,
0100
0000
0110
0000
0000
0000
0100
1000
,
0100
0000
1100
0000
0000
0001
1000
0001
,
0000
0100
0010
0100
0000
0000
0001
0100
,
0001
0000
0101
0000
0000
0000
0100
0010
,
0100
0000
1010
0000
0000
0000
0100
0010
,
0100
0000
0100
1000
0100
0000
0001
0100
,
0001
0000
1001
0000
0010
0100
0010
1000
,
0010
0100
0010
1000
0010
0100
0010
0001
,
0010
0001
0010
0001
0000
0100
0010
0100
,
0001
0100
0010
0100
0010
0100
0010
0100
,
0000
0100
0001
0100
0000
0001
1000
0100
,
1000
0100
0010
0100
1000
0100
1000
0100
,
1000
0100
0010
0110
0000
1000
0100
0010
,
0100
0001
0010
0100
1000
0100
0001
0010
,
0100
0010
0100
0110
0000
0010
0100
0001
,
0100
0001
0100
1000
0001
1000
0001
0100
,
1000
0010
0100
0110
0000
1000
0100
0001
,
0100
0000
0001
0100
0010
0100
0010
0000
,
1000
0100
0010
0100
0110
0000
1001
0000
,
0110
0000
1000
0000
0100
0000
0001
2000
,
0000
0000
3000
0000
0100
0010
0100
1000
,
0100
0000
1000
0000
0100
0000
0001
2000
,
0000
3000
0010
1001
,
0100
0000
0101
0000
0100
1000
0100
2000
,
0000
0000
3000
0000
0100
0001
0100
0010
,
0100
0001
0100
0001
0100
0001
0100
0001
,
0200
0000
0000
0000
0300
0000
0010
0100
,
1000
0100
0100
1100
0000
0100
0010
0001
,
0100
0010
0011
0000
0000
1000
0010
0100
,
1000
0100
0010
0100
0110
0000
0101
0000
,
0110
0000
2000
0000
3000
0100
0010
0100
,
1000
0100
0000
0000
0000
0001
0010
0100
,
1000
0002
0000
0000
0003
0010
0100
1000
,
0010
0100
0010
0100
0110
0000
1100
0000
,
0110
0000
0000
0000
1000
0100
0010
0100
,
0010
0100
0010
0001
0100
0010
0100
0001
,
0002
0000
1003
0000
0000
0100
1000
0100
,
0010
0000
0100
0001
0000
1000
0100
0010
,
0000
0100
0010
2000
0000
3000
0100
0001
,
0100
1000
0100
0100
0000
0001
0100
0010
,
0100
1000
1010
0000
0000
0010
0001
0010
,
0001
0100
0001
0100
1001
0000
0000
0000
,
0110
0000
0000
0000
1001
0000
0100
1000
,
0100
0000
2000
0000
0000
3000
0100
0010
,
0100
0000
0110
0000
0000
0000
1000
0100
,
1000
0000
0002
0000
0003
0100
0001
0100
,
0000
0001
0100
0000
0000
0000
0010
0100
,
0010
0100
1000
0100
0010
0100
0001
0100
,
0001
0100
0010
0100
0000
0100
0010
0100
,
0200
0000
0310
0100
1000
0100
0001
0100
,
0001
0100
0001
0100
0000
1000
0100
0010
,
0100
1000
0100
1000
0010
0100
1000
0010
,
0100
1000
0100
1000
0000
1000
0100
0010
,
1000
0100
1000
0100
1000
1000
0100
0010
,
0100
0010
1000
0001
0100
0000
0110
0000
,
1000
0000
1100
0000
0001
0000
1000
0002
,
0000
0000
0003
0000
0100
0010
0100
0010
,
0100
0000
1000
0000
0001
0000
1000
0020
,
0000
0000
0000
0030
0110
0000
1100
0000
,
1010
0000
0110
0000
1000
0001
1000
0002
,
0000
0000
0000
0003
1000
0100
0010
0100
,
0010
0100
1000
0010
0100
0010
0100
1000
,
0200
0000
0000
0000
0300
0010
0100
1000
,
0100
0010
0100
0110
0000
1000
0100
0100
,
0010
0100
0110
0000
0000
1000
0100
1000
,
1000
0100
0010
0100
0110
0000
1100
0000
,
0022
0000
0000
0033
0000
1000
0100
0010
,
0100
2000
0000
0000
3000
0100
0001
0010
,
0100
0020
0000
0000
0030
0100
0010
0001
,
0100
0010
0001
0000
0011
0000
1010
0000
,
0110
0000
0000
0000
1000
0100
0010
0100
,
0001
0100
1000
0100
0001
0010
0100
1000
,
0200
0000
0310
0000
0000
0010
0100
0010
,
0100
0000
0010
0200
0000
0301
0010
0200
,
0000
0310
0100
2000
0000
0000
3002
0000
,
0000
0003
0000
0001
0200
0000
0000
0000
,
0000
0300
0000
0010
0200
0000
0000
0000
,
0300
0010
0100
0020
0000
0000
0130
0001
,
0100
0010
0100
0000
0220
0000
0000
0000
,
0000
0000
0330
0010
0200
0000
0000
0300
,
0000
0001
0200
0300
,
0110
0000
1000
0001
1000
0000
0100
0010
,
0100
1000
0001
1000
,
0100
0000
0000
0000
0010
0000
1000
0010
,
0000
0200
0000
0300
1000
0100
1000
0100
,
0110
0000
0001
0010
0001
0010
0011
0000
,
0100
0000
0010
0000
0110
0000
1000
0100
,
1100
0000
0100
0010
1000
0100
0000
0110
,
1000
0000
0001
0000
1000
0000
0100
0010
,
0100
0000
1000
0000
0100
0000
0001
2000
,
0000
3001
0000
0000
0100
0000
0010
1000
,
0100
0000
0010
0000
1000
0100
0001
0000
,
0010
0000
1000
0000
0110
0000
0100
0001
,
0100
0001
0100
0001
0100
0001
0100
0001
,
0000
1000
0010
1000
0000
0100
0010
0100
,
0010
0100
0010
0100
0010
0100
0010
0100
,
0000
1000
0100
1000
0000
0100
0001
0100
,
1000
0100
0001
0100
0010
0100
1000
0001
,
0100
1000
0100
1000
0000
0100
0001
0010
,
0100
1000
0001
0100
0001
1000
0100
0000
,
0110
0000
1010
0010
1000
0100
0010
0100
,
1000
0100
0001
0100
0000
1000
0100
0001
,
0100
0100
0110
0000
0000
1000
0100
0001
,
0100
0010
0100
0001
0101
0000
0011
0000
,
0110
0000
0100
0000
0000
0010
0100
1000
,
0100
2000
0000
0000
3000
0001
0010
0100
,
0001
0020
0000
0000
0030
1000
0100
0010
,
0100
0001
1000
0100
0110
0000
1100
0000
,
0110
0000
1000
0000
0100
0001
0010
0100
,
1000
0100
0010
0100
0010
0100
1000
0100
,
0020
0000
1030
0000
0000
0100
0010
0100
,
1000
0000
0100
0001
0000
1000
0001
1000
,
0000
0100
1000
0020
0030
0100
0010
0100
,
1000
0010
0010
2000
0000
3100
0100
1000
,
0100
0010
0200
0000
0300
0001
0010
0100
,
1000
0001
1000
0010
1010
0000
0000
0000
,
0110
0000
2002
0000
,
0000
0000
0000
0000
,
0000
3003
0000
0000
;

//---------------dance-single - ----------------
#NOTES:
     dance-single:
     :
     Easy:
     2:
     0.157,0.158,0.035,0.092,0.000,220.000,8.000,21.000,0.000,0.000,0.000,0.157,0.158,0.035,0.092,0.000,220.000,8.000,21.000,0.000,0.000,0.000: // measure 0
0000
0000
0000
1000
,  // measure 1
0000
0001
0000
0100
,  // measure 2
0000
0010
0000
0100
,  // measure 3
0000
1000
0000
0001
,  // measure 4
0000
0010
0000
0001
,  // measure 5
0000
0100
0000
0100
,  // measure 6
0000
0010
0000
0100
,  // measure 7
0000
0100
0000
0001
,  // measure 8
0000
1001
0000
0010
,  // measure 9
0000
0010
0000
0010
,  // measure 10
0200
0000
0000
0300
0000
0000
0010
0000
,  // measure 11
0000
0010
0000
0100
,  // measure 12
0000
0001
0000
1000
,  // measure 13
0000
0010
0000
1000
,  // measure 14
0000
1001
0000
0100
,  // measure 15
0000
0001
0000
1000
,  // measure 16
0000
0020
0030
0100
,  // measure 17
0000
0100
0000
0001
,  // measure 18
0000
0100
0000
0100
,  // measure 19
0000
0001
0000
0010
,  // measure 20
0000
0010
0000
1001
,  // measure 21
0000
1000
0000
0001
,  // measure 22
0000
0000
0100
0000
,  // measure 23
0100
0000
0200
0000
,  // measure 24
0000
0300
0000
0000
0010
0000
0000
0000
,  // measure 25
0000
0001
0000
2000
,  // measure 26
0000
3000
0001
0000
,  // measure 27
0100
0000
0001
0000
,  // measure 28
0200
0000
0300
0010
,  // measure 29
0000
0100
0000
0010
,  // measure 30
0000
0001
0000
0010
,  // measure 31
0000
0010
0000
0001
,  // measure 32
0000
2000
0000
3000
,  // measure 33
0000
0100
0000
0000
,  // measure 34
0000
0001
0000
0100
,  // measure 35
0000
0010
0000
0100
,  // measure 36
0000
0000
1000
0000
,  // measure 37
0010
0000
0100
0000
,  // measure 38
0002
0003
0000
1000
,  // measure 39
0000
0100
0000
0100
,  // measure 40
0000
0010
0000
0100
,  // measure 41
0000
0100
0000
0010
,  // measure 42
0000
1000
0000
0001
,  // measure 43
0000
0000
1000
0000
,  // measure 44
0001
0000
1000
0000
,  // measure 45
0100
0000
0000
0100
,  // measure 46
0000
0010
0000
1000
,  // measure 47
0000
0002
0003
0000
,  // measure 48
0000
0100
0000
0010
,  // measure 49
0000
1000
0000
0001
,  // measure 50
0000
1000
0000
0010
,  // measure 51
0000
0100
0000
0001
,  // measure 52
0000
1000
0000
0100
,  // measure 53
0000
1000
0000
0001
,  // measure 54
0000
0100
0000
0010
,  // measure 55
0000
1000
0000
0100
,  // measure 56
0000
0010
0000
0110
,  // measure 57
0000
0100
0000
0010
,  // measure 58
0000
0000
0100
0000
,  // measure 59
0010
0000
0001
0000
,  // measure 60
1000
0000
0100
0000
,  // measure 61
1000
0000
0010
0000
,  // measure 62
1000
0000
1000
0000
,  // measure 63
0010
0000
1000
0000
,  // measure 64
0010
0000
0000
0100
,  // measure 65
0000
0010
0000
0100
,  // measure 66
0000
0010
0000
0100
,  // measure 67
0000
0010
0000
1000
,  // measure 68
0000
0000
0002
0000
0000
0003
0000
0000
,  // measure 69
1000
0000
0000
0000
,  // measure 70
0000
1001
0000
0010
,  // measure 71
0000
0001
0000
1000
,  // measure 72
0000
0001
0000
0010
,  // measure 73
0000
0100
0000
0010
,  // measure 74
0000
0100
0000
1000
,  // measure 75
0000
0010
0000
1000
,  // measure 76
0000
0100
0000
0002
,  // measure 77
0000
0003
0000
0000
0200
0000
0000
0000
,  // measure 78
0000
0300
0000
0000
0200
0000
0000
0000
,  // measure 79
0300
0000
0000
1001
,  // measure 80
0000
0000
0200
0000
,  // measure 81
0000
0000
0300
0000
0200
0000
0000
0300
,  // measure 82
0000
0001
0200
0300
,  // measure 83
0110
0000
1000
0000
,  // measure 84
0100
0000
0001
0000
,  // measure 85
0100
0000
0010
0000
,  // measure 86
0000
0200
0000
0000
0000
0300
0000
0000
,  // measure 87
0010
0000
0100
0000
,  // measure 88
0010
0000
0100
0000
,  // measure 89
1000
0000
0001
0000
,  // measure 90
1000
0000
0010
0000
,  // measure 91
0100
0000
0100
0000
,  // measure 92
0000
0001
0000
0000
0100
0000
0000
0000
,  // measure 93
0100
0000
0010
0000
,  // measure 94
0100
0000
0010
0100
,  // measure 95
0000
0001
0000
0100
,  // measure 96
0000
0010
0000
0010
,  // measure 97
1000
0000
0010
0000
,  // measure 98
0000
0100
0000
0001
,  // measure 99
0000
0100
0000
0010
,  // measure 100
0000
0100
0000
0001
,  // measure 101
0000
0100
0000
0100
,  // measure 102
0000
0000
0000
0110
0000
0000
0100
0000
,  // measure 103
0000
0001
0000
0100
,  // measure 104
0000
0010
0000
0100
,  // measure 105
0000
0010
0000
0010
,  // measure 106
0000
0100
0000
0001
,  // measure 107
2000
0000
3000
1000
,  // measure 108
0002
0000
0003
0100
,  // measure 109
0000
1000
0000
0100
,  // measure 110
0000
0010
0000
0010
,  // measure 111
0000
0100
0000
1000
,  // measure 112
0000
0010
0000
0010
,  // measure 113
0000
0100
0000
0001
,  // measure 114
0000
1000
0000
0010
,  // measure 115
0000
2000
3000
0100
,  // measure 116
0000
0200
0300
0010
,  // measure 117
0000
1000
0000
0000
,  // measure 118
0100
0000
0020
0000
,  // measure 119
0000
0000
0000
0000
0000
0000
0000
0030
;
