#TITLE:Mr;
#SUBTITLE:;
#ARTIST:Kara;
#TITLETRANSLIT:;
#SUBTITLETRANSLIT:;
#ARTISTTRANSLIT:;
#GENRE:K Pop;
#CREDIT:;
#BANNER:Mr.png;
#BACKGROUND:Mr-bg.png;
#LYRICSPATH:;
#CDTITLE:cdtitle.png;
#MUSIC:Kara - Mr.mp3;
#OFFSET:0.000;
#SAMPLESTART:100.000;
#SAMPLELENGTH:12.000;
#SELECTABLE:YES;
#BPMS:0.000=126.020
;
#STOPS:
;
#BGCHANGES:;
#KEYSOUNDS:;
#ATTACKS:;

//---------------dance-single - Blank----------------
#NOTES:
     dance-single:
     :
     Medium:
     3:
     0.549,0.465,0.258,0.310,0.039,634.000,50.000,60.000,0.000,0.000,0.000,0.549,0.465,0.258,0.310,0.039,634.000,50.000,60.000,0.000,0.000,0.000:
0000
0000
0000
0000
0000
0020
0000
0000
,
0000
0000
0030
0000
0000
1000
1000
0001
,
0001
0000
0001
1000
0000
0001
1000
0000
0001
0000
1001
0000
1000
0000
0001
0000
,
1000
0002
0003
0010
0000
0100
0010
0100
,
0010
0200
0300
1000
0000
1000
0100
1000
,
0100
2000
0000
3000
0001
0010
0100
1000
,
0100
0001
1001
0000
0010
0100
0010
0100
,
0010
0100
0000
1000
0000
1000
0001
1000
,
0001
1000
0000
0001
0000
0001
0010
0001
,
0010
0001
0000
0110
0000
0001
0010
0001
,
0000
1000
0100
1000
0000
0000
1000
0100
,
1000
0100
1000
0100
0000
0001
0010
1000
,
0100
0001
0000
0010
0000
0000
2000
0000
,
3002
0003
2000
3000
0002
0000
2003
3000
,
0002
0000
2003
0000
3000
0000
0010
0100
,
0010
0100
1000
0100
0000
1001
0001
0010
,
0100
1000
0000
0002
0003
0000
2000
3000
,
0002
0003
2000
3000
0020
0000
0230
0300
,
0020
0000
0130
0000
1000
0001
1000
0001
,
1000
0000
0001
1000
0000
0000
0010
0000
0100
0000
0010
0000
0100
0000
0010
0000
,
0100
0000
0100
0010
0000
0000
0001
0000
1000
0000
0001
0000
1000
0000
0001
0000
,
0001
0000
1000
0001
0000
0000
0001
0000
0010
0000
0100
0000
1000
0000
0100
0000
,
2000
0000
3001
0000
0001
0010
0001
0010
,
0001
0000
0001
1000
0000
0000
0100
0000
1000
0000
0100
0000
1000
0000
0100
0000
,
1000
0000
1000
0100
0000
0000
0010
0000
0100
0000
0010
0000
0100
0000
1000
0000
,
0001
0000
1000
0001
0000
0000
0110
0000
0000
0000
1000
0000
0001
0000
1000
0000
,
0010
0100
1000
1100
0000
0001
0010
0001
,
0100
0001
0100
0101
0000
1000
0100
1000
,
0010
0100
1000
1010
0000
0100
0010
0100
,
0001
0010
0100
0110
0000
0010
0001
0100
,
1000
0001
1000
1001
0000
1000
0100
0010
,
0100
0001
0010
0110
0000
1000
0100
0010
,
0100
0001
0010
0101
0000
1000
0100
0010
,
0100
1000
0100
1001
1000
0001
1000
0001
,
1000
0020
0000
0030
1000
1000
1000
1000
,
0001
0100
0000
0110
0000
0100
0010
0100
,
0010
0200
0300
1000
0000
1000
0100
0010
,
0100
0002
0000
0003
1000
0100
0010
0001
,
0010
0001
0110
0000
1000
0100
1000
0010
,
0100
0010
1001
0000
0010
0001
0010
0001
,
0100
0010
1001
0100
0000
0100
0010
0100
,
0001
0010
0000
1001
0000
0010
0001
0020
,
0000
0030
0002
0000
1003
0000
0100
0010
,
0100
1000
0100
0001
0000
0100
0001
0100
,
0010
0100
0000
1000
0000
0001
2000
0000
,
3020
2030
3200
0302
,
0023
1000
2030
0000
3000
0000
0001
0010
,
0001
0010
0001
1000
0000
1000
0100
0001
,
0010
0100
0000
0110
1000
0000
0002
0000
,
2003
3200
0320
2030
,
3002
0000
1003
0000
0001
0100
0001
0100
,
0001
0000
1000
0001
0000
0000
0001
0000
0010
0000
0100
0000
1000
0000
0100
0000
,
0010
0000
0100
0010
0000
0000
0001
0000
1000
0000
0001
0000
0010
0000
0001
0000
,
0010
0000
0001
0100
0000
0000
2000
0000
0000
0000
3100
0000
0001
0000
0010
0000
,
0100
0000
0000
0200
0000
0000
0300
0000
0010
0000
0100
0000
0010
0000
0100
0000
,
0010
0000
0100
0010
0000
0000
0200
0000
0300
0000
0001
0000
0100
0000
0001
0000
,
0100
0000
1000
0001
0000
0000
0020
0000
0030
0000
1000
0000
0100
0000
0010
0000
,
0100
0000
0001
0100
0000
0000
2002
0000
3003
0000
1000
0000
0100
0000
0010
0000
,
0001
1000
0100
1001
0000
0010
0100
1000
,
0100
1000
0100
1100
0000
0010
0001
0100
,
0001
0010
0100
0011
0000
1000
0100
0010
,
0100
0001
0100
0000
0001
1000
0001
1000
,
0001
1000
0100
0110
0000
1000
0100
0001
,
0010
0100
0001
0011
0000
1000
0100
0010
,
0100
1000
0100
1100
0000
0100
0010
0100
,
0001
0010
0100
0110
1000
0001
1000
0001
,
1000
0002
0000
0003
0010
0100
0010
0100
,
0010
0200
0300
1000
0000
1000
0001
0010
,
0100
0101
0000
0110
0000
1000
0100
0001
,
0010
0220
0330
1001
0000
0010
0001
0010
,
0100
1000
0100
0001
0100
0010
0100
0010
,
0100
2000
0000
3001
0000
0001
0010
0001
,
0100
0020
0030
0100
0000
0010
0100
0010
,
0100
0020
0030
1001
0000
0001
0010
0100
,
1000
0100
0001
0110
0000
1000
0100
1000
,
0010
0100
0001
0011
0000
1000
0100
0001
,
0010
0100
1000
1100
0000
1000
0001
1000
,
0010
0100
1000
0110
0001
1000
0001
1000
,
0001
1000
0100
0110
0000
1000
0001
0010
,
0100
1000
0100
0101
0000
1000
0100
0010
,
0001
1000
0100
1010
0000
0010
0001
0100
,
1000
0010
0100
0011
1000
0100
0001
0010
,
0100
2000
3001
1001
0001
1000
0100
0001
,
0010
0100
1000
0110
0000
0001
0010
0100
,
0010
0001
0100
0101
0000
0010
0100
0010
,
0100
1000
0100
0110
1000
1000
0001
0001
,
0001
2000
0000
3010
0000
0100
0001
0010
,
0100
1000
0100
1010
0000
0001
0010
0100
,
0001
0010
0100
0110
0000
1000
0100
0001
,
0010
0100
2000
0000
3001
0010
0001
0010
,
0100
1000
0100
1000
0001
0010
0100
0001
,
0100
0110
0000
2000
3000
0001
0010
0001
,
0100
0020
0000
1030
0000
1000
0100
0001
,
0010
0200
0000
0300
0001
1000
0011
1100
,
1000
0110
0001
0000
1000
0100
1000
0001
,
0010
0010
0000
0100
0000
0001
0100
1000
,
0001
2000
0000
3001
0000
0001
1000
0100
,
0001
0020
0000
0030
2000
0000
3001
0010
,
0000
1000
0100
0002
0000
0000
0000
0000
,
0000
0000
0000
0000
,
0003
0000
0000
0000
;

//---------------dance-single - Blank----------------
#NOTES:
     dance-single:
     :
     Hard:
     7:
     0.958,1.000,1.000,0.945,0.317,783.000,293.000,183.000,0.000,76.000,2.000,0.958,1.000,1.000,0.945,0.317,783.000,293.000,183.000,0.000,76.000,2.000: // measure 0
0000
0000
0000
0000
0000
0020
0000
0200
,  // measure 1
0000
0000
0000
0000
0330
1000
1100
0001
,  // measure 2
0011
0000
0001
1000
0000
0001
1000
0000
0001
0000
1001
0000
1000
0000
0002
0000
,  // measure 3
2003
3002
0003
0110
0000
0200
0320
0230
,  // measure 4
0320
0230
0300
1001
0000
2000
3200
2300
,  // measure 5
3200
2300
0000
3000
0001
0110
1110
1111
,  // measure 6
0110
0000
0011
0000
1010
0100
1010
0000
0020
0000
0230
0000
0320
0000
0230
0000
,  // measure 7
0320
0000
0130
0010
2002
0000
3003
0000
0002
0000
2003
0000
3002
0000
2003
0000
,  // measure 8
3002
0000
0103
0010
1001
0000
0220
0000
0330
0000
0002
0000
0023
0000
0032
0000
,  // measure 9
0023
0032
0003
0110
0000
0101
0010
0101
,  // measure 10
0000
0000
1010
0000
0100
0000
1010
0000
0000
0000
0000
0000
1000
0100
0010
0000
,  // measure 11
1000
0100
0010
0000
1000
0100
0010
0000
0000
0000
0001
0000
0110
0000
1000
0000
,  // measure 12
0110
0000
0001
0010
0100
0000
0010
0100
0010
0000
0000
0000
2000
0000
0000
0000
,  // measure 13
3001
0000
0001
1100
0000
0011
1000
0000
0002
0000
0000
0000
2003
0000
0000
0000
,  // measure 14
3001
0000
0001
1100
0000
0011
1000
0000
0100
1000
0100
0000
0010
0000
0100
0000
,  // measure 15
0010
0000
0100
0000
1000
0100
0010
0001
0000
0000
1001
0000
0001
0000
0010
0000
,  // measure 16
0100
0000
1000
0100
0010
0001
2000
0000
0000
3000
0000
0000
2000
0000
0000
0000
,  // measure 17
3001
0000
0110
1000
0000
0110
0001
0000
0020
0000
0000
0000
0230
0000
0000
0000
,  // measure 18
0310
0000
1100
0010
0100
1000
0100
0010
0001
0000
0001
0000
1000
0000
0011
0000
,  // measure 19
1000
0000
0001
1100
0000
0000
0010
0000
0100
0000
0010
0000
0100
0000
1010
0000
,  // measure 20
0100
0000
0100
0011
0000
0000
0001
0000
1000
0000
0101
0000
1000
0000
0001
0000
,  // measure 21
0001
0000
1000
0101
0000
0000
0001
0000
0010
0000
0100
0000
1000
0000
0100
0000
,  // measure 22
2000
0001
3001
0000
0001
0010
0001
1010
,  // measure 23
0001
0000
0001
1100
0000
0000
0100
0010
0001
0000
0110
0000
1000
0000
0100
0000
,  // measure 24
1000
0000
0001
0110
0000
0001
0010
0100
1000
0000
1010
0000
0100
0000
1000
0000
,  // measure 25
0100
0000
0010
1001
0000
0000
0220
0000
0330
0000
1000
0000
0001
0000
1000
0000
,  // measure 26
0010
0000
1000
0100
1000
0100
1100
0000
0000
0000
0001
0000
0010
0000
0001
0000
,  // measure 27
0100
0000
0001
0010
0100
0010
0101
0000
0000
0000
1000
0000
0100
0000
1000
0000
,  // measure 28
0010
0000
1000
0100
1000
0100
1010
0000
0000
0000
0100
0000
0010
0000
0100
0000
,  // measure 29
0001
0000
0100
0010
0100
0010
0110
0000
0200
0000
0320
0000
0032
0000
0203
0000
,  // measure 30
0310
0000
1000
0001
1000
0001
1001
0000
0000
0000
1000
0000
0100
0000
0010
0000
,  // measure 31
0100
0000
0001
0100
0010
0100
0110
0000
0000
0000
1000
0000
0100
0000
0010
0000
,  // measure 32
0100
0000
0001
0100
0010
0100
0101
0000
0000
0000
1000
0000
0100
0000
0010
0000
,  // measure 33
0100
0000
1000
0010
0100
0010
1001
0000
1002
0000
2003
0000
3002
0000
2003
0000
,  // measure 34
3200
0320
0000
0030
1000
1100
1000
1100
,  // measure 35
1000
0210
0000
0310
0000
1100
0010
1100
,  // measure 36
0010
0200
0300
1000
0000
1001
0100
1001
,  // measure 37
0100
0002
0000
0003
1000
0110
0111
1111
,  // measure 38
0110
0000
1010
0001
0220
0000
0330
0000
2000
0000
3200
0000
2300
0000
3020
0000
,  // measure 39
0230
0000
0310
0100
1001
0000
0000
0000
0020
0000
0031
0000
0020
0000
0032
0000
,  // measure 40
0203
0000
0310
0100
1001
0000
0110
0000
0000
0000
0200
0000
0320
0000
0230
0000
,  // measure 41
0302
0023
0030
1101
0000
0210
1301
0020
,  // measure 42
0030
0000
0001
1000
0002
0000
0000
0000
1003
0000
0000
0000
0100
0000
0011
0000
,  // measure 43
0100
1010
0100
1001
0000
0100
0001
0100
,  // measure 44
0010
0000
0100
0010
0100
0010
0100
0000
0000
0000
0001
0000
2100
0000
0000
0000
,  // measure 45
3021
0000
0100
1100
0030
0001
0110
0000
0210
0000
0000
0000
0312
0000
0000
0000
,  // measure 46
1023
0000
1000
0100
2032
0000
0000
3003
0100
0010
0100
0000
0001
0000
0110
0000
,  // measure 47
0001
0110
0001
1010
0000
1010
0100
1001
,  // measure 48
0010
0100
0000
0110
1000
0000
0012
0000
,  // measure 49
2103
0000
0100
0011
3000
0011
0100
0000
0021
0000
0000
0000
2130
0000
0000
0000
,  // measure 50
3012
0000
0100
1000
0103
1000
0100
0010
0001
0000
1100
0000
0001
0000
1100
0000
,  // measure 51
0001
0000
1100
0011
0000
0000
0001
0010
0001
0000
0100
0000
1000
0000
0100
0000
,  // measure 52
0010
0000
0100
0110
0000
0000
0001
0010
0100
0000
1001
0000
0010
0000
1001
0000
,  // measure 53
0010
0000
0001
0100
0000
0000
2002
0000
0000
0000
3103
0000
0001
0000
0010
0000
,  // measure 54
1100
0000
0000
0210
0000
0000
0300
0000
0010
0000
1100
0000
0010
0000
1100
0000
,  // measure 55
0010
0000
0100
0011
0000
0000
0200
0010
0301
0000
1001
0000
0100
0000
1001
0000
,  // measure 56
0100
0000
1000
0011
0000
0000
0020
0100
1030
0000
1000
0000
0100
0000
1010
0000
,  // measure 57
0100
0000
0001
1100
0000
0000
2112
0000
3003
0000
1100
0000
0100
0000
0110
0000
,  // measure 58
0001
0010
0100
0000
0100
0000
1101
0000
0000
0000
0010
0000
0100
0000
1000
0000
,  // measure 59
0100
0000
1000
0100
0010
0000
1110
0000
0000
0000
0010
0000
0001
0000
0100
0000
,  // measure 60
0001
0000
0010
0100
0010
0000
0111
0000
0000
0000
1100
0000
0100
0000
0011
0000
,  // measure 61
0100
0000
1001
0000
0100
0010
0001
0000
1111
0000
2100
0000
3012
0000
2103
0000
,  // measure 62
3012
0000
1003
0100
1000
0000
1110
0000
0000
0000
1010
0000
0100
0000
0011
0000
,  // measure 63
0010
0000
0100
0010
0001
0000
0111
0000
0000
0000
1100
0000
0100
0000
0110
0000
,  // measure 64
0100
0000
1000
0010
1000
0000
1110
0000
0000
0000
1100
0000
0010
0000
1100
0000
,  // measure 65
0001
0000
0010
0100
1000
0000
0111
0000
2010
0000
3102
0000
2013
0000
3002
0000
,  // measure 66
2013
0000
3002
0010
0100
1000
0103
0000
1010
0000
0101
0000
1010
0000
0101
0000
,  // measure 67
1010
0220
0330
2002
3003
0110
0001
0010
,  // measure 68
0100
0111
0000
1110
0000
1010
0100
1001
,  // measure 69
0010
0100
0220
0000
0330
0000
2002
0000
0000
3003
0110
0000
1001
0000
0010
0100
,  // measure 70
1000
0000
1100
0011
1100
0011
1100
0000
1200
0000
0321
0000
1230
0000
0321
0000
,  // measure 71
1230
0000
2300
0000
0010
0001
3010
0000
1200
0000
0312
0000
0123
0000
1032
0000
,  // measure 72
0213
0000
0320
0000
0130
1000
0100
0000
2010
0000
3120
0000
1230
0000
0321
0000
,  // measure 73
0231
0320
0030
1001
0000
1001
0010
0100
,  // measure 74
1010
0101
1010
0101
1010
0000
0110
0000
0000
0000
1010
0000
0100
0000
1001
0000
,  // measure 75
0010
0000
0100
0010
0001
0000
0111
0000
0000
0000
1010
0000
0100
0000
1001
0000
,  // measure 76
0010
0000
0100
0010
0100
0000
1110
0000
0000
0000
1100
0000
0001
0000
1010
0000
,  // measure 77
0010
0000
0100
0010
0100
0000
1110
0000
0012
0000
2103
0000
3012
0000
2103
0000
,  // measure 78
3012
0000
2103
0010
3100
0000
2220
0000
3330
0000
1010
0000
0001
0000
1010
0000
,  // measure 79
0100
0000
1000
0100
0010
0000
0222
0000
0333
0000
1010
0000
0100
0000
0110
0000
,  // measure 80
0001
0000
1000
0110
1000
0000
2220
0000
3330
0000
0110
0000
0001
0000
0110
0000
,  // measure 81
1000
0000
1100
0010
1100
0000
0111
0000
2100
0000
3210
0000
0312
0000
0123
0000
,  // measure 82
1230
0000
1300
0000
0011
1000
0011
1000
0011
0000
1000
0000
0100
0000
1001
0000
,  // measure 83
0010
0000
1000
0110
1000
0000
0222
0000
0333
0000
1001
0000
0010
0000
1100
0000
,  // measure 84
0010
0000
0001
0010
0100
0000
1111
0000
0000
0000
1020
0000
0231
0000
1320
0000
,  // measure 85
0031
0000
1000
0110
0001
0000
0111
0000
1100
0000
1010
0000
0101
0000
0011
0000
,  // measure 86
0101
0000
2000
0100
0010
0001
3020
0000
0000
0000
0130
0000
0001
0000
1010
0000
,  // measure 87
0100
0000
1010
0100
1010
0000
1110
1110
0000
0000
1001
0000
0010
0000
0110
0000
,  // measure 88
0001
0000
0110
1000
0110
0000
1111
0000
0000
0000
1010
0000
0100
0000
1001
0000
,  // measure 89
0010
0000
0101
0000
2000
0010
0001
0010
3001
0000
0020
0000
0032
0000
0023
0000
,  // measure 90
0230
2300
3200
1300
0001
0010
0100
0001
,  // measure 91
0100
0000
1100
0011
1100
0000
2000
0000
3000
0000
0001
0000
0010
0000
0001
0000
,  // measure 92
0100
0000
0110
1001
0110
0000
2000
0000
0000
3000
1001
0000
0100
0000
1001
0000
,  // measure 93
0010
0000
1000
0100
0010
1001
0000
0000
0001
0000
1100
0000
0111
0000
1111
0000
,  // measure 94
1000
0110
2222
3333
1010
0100
1010
1001
,  // measure 95
0010
0000
0110
1100
0110
1100
0101
0000
0000
0000
1002
0000
0123
0000
2030
0000
,  // measure 96
3011
0000
1100
0110
1100
0110
2002
0000
0000
3003
0120
0000
2130
0000
3120
0000
,  // measure 97
0031
0000
0011
0110
0011
0110
1100
0110
2100
0000
0000
0000
3000
0000
0220
0000
,  // measure 98
0330
1001
0100
4004
0000
0000
0000
0000
,  // measure 99
0000
0000
0000
0000
,  // measure 100
3003
0000
0000
0000
;
