#VERSION:0.81;
#TITLE:masquerade;
#SUBTITLE:;
#ARTIST:Rania;
#TITLETRANSLIT:;
#SUBTITLETRANSLIT:;
#ARTISTTRANSLIT:;
#GENRE:K Pop;
#ORIGIN:;
#CREDIT:;
#BANNER:Masquerade.png;
#BACKGROUND:Masquerade-bg.png;
#JACKET:;
#CDIMAGE:;
#DISCIMAGE:;
#LYRICSPATH:;
#CDTITLE:cdtitle.png;
#MUSIC:masquerade.mp3;
#OFFSET:0.000;
#SAMPLESTART:100.000;
#SAMPLELENGTH:12.000;
#SELECTABLE:YES;
#BPMS:0.000=129.000;
#STOPS:;
#DELAYS:;
#WARPS:;
#TIMESIGNATURES:0.000=4=4;
#TICKCOUNTS:0.000=4;
#COMBOS:0.000=1;
#SPEEDS:0.000=1.000=0.000=0;
#SCROLLS:0.000=1.000;
#FAKES:;
#LABELS:0.000=Song Start;
#BGCHANGES:;
#KEYSOUNDS:;
#ATTACKS:
;

//---------------dance-single - Blank----------------
#NOTEDATA:;
#CHARTNAME:;
#STEPSTYPE:dance-single;
#DESCRIPTION:Blank;
#CHARTSTYLE:;
#DIFFICULTY:Hard;
#METER:6;
#RADARVALUES:0.663,0.633,0.374,0.723,0.277,711.000,75.000,145.000,0.000,0.000,2.000,0.000,0.000,0.663,0.633,0.374,0.723,0.277,711.000,75.000,145.000,0.000,0.000,2.000,0.000,0.000;
#CREDIT:Blue Army;
#OFFSET:-0.100;
#BPMS:0.000=129.000
;
#STOPS:;
#DELAYS:;
#WARPS:;
#TIMESIGNATURES:0.000=4=4
;
#TICKCOUNTS:0.000=4
;
#COMBOS:0.000=1
;
#SPEEDS:0.000=1.000=0.000=0
;
#SCROLLS:0.000=1.000
,83.250=2.000
,83.500=1.000
,100.250=0.800
,114.500=1.000
,194.500=0.000
,194.750=-1.000
,195.000=0.000
,195.250=1.000
,212.500=0.800
,227.000=1.000
;
#FAKES:;
#LABELS:0.000=Song Start
;
#ATTACKS:TIME=16.379070:LEN=0.348837:MODS=-35% Mini, Beat, Overhead:TIME=195.681396:LEN=1.395340:MODS=Blink, Centered, Overhead;
#NOTES:
0000
0000
0000
2000
0000
0000
0000
3002
0000
0000
0000
0003
2000
0000
0000
3000
,
0000
1000
0001
1000
0000
0000
0001
0000
0000
1000
0000
0000
0001
0000
0000
1000
0000
0000
0001
0000
0000
1000
0000
0000
,
0001
0000
0000
1000
0000
0000
0102
0000
0000
0000
0000
0000
0000
0000
0000
0003
0000
1000
0001
1000
0001
1000
0001
1000
,
0001
1000
0001
2000
0000
0000
0000
0000
0000
0000
0000
0000
0000
0000
0000
3000
0000
0000
1010
0000
0000
0002
0000
0000
,
0000
0003
1000
0100
0010
0100
0020
0000
,
0000
1030
0001
0000
0010
0100
1000
0100
,
0010
0100
0001
0100
0001
1000
0001
1000
,
0001
1000
0001
0100
1000
1000
0001
1000
,
0001
0000
1000
0000
2002
0000
0000
0000
0000
0000
0000
3003
0440
0000
0000
0000
,
0330
0000
0110
0000
0000
0000
1001
0000
0000
0000
1000
0000
0100
0000
0001
1000
,
0001
0000
0120
0000
0000
0000
1030
0000
0000
0000
0001
0000
1000
0000
0001
0100
,
1000
0000
1020
0000
0000
0000
1030
0000
0000
0000
0010
0000
0100
0000
0001
1000
,
0001
0000
2100
0000
0000
0000
3100
0000
0000
0000
0010
0000
0100
0000
1000
0100
,
1000
0000
1002
0000
0000
0003
0010
0100
1000
0100
0010
0100
0010
0000
0010
0100
,
0010
0000
2001
0000
0000
0000
3001
0000
0010
0000
0010
0000
0100
0000
1000
0010
,
1000
0000
1020
0000
0000
0000
1030
0000
0000
0000
0100
0000
0010
0000
0100
0001
,
0100
0000
1002
0000
0000
0003
2000
0000
0000
3000
0010
0000
0000
0000
0100
0000
,
1001
0000
0002
0000
0000
0000
0023
0000
0000
0000
0130
0000
0010
0000
0010
0100
,
1000
0000
0201
0000
0000
0000
0310
0000
0000
0000
1000
0000
0100
0000
0010
0100
,
1000
0000
0102
0000
0000
0000
0103
0000
0000
0000
1000
0000
0100
0000
1000
0001
,
1000
1002
0000
0103
0000
2000
0000
3001
,
0010
0000
0010
0100
0010
0000
0110
0000
0000
0000
1000
0000
0100
0000
0001
0010
,
0100
0000
1002
0000
0000
0000
1003
0000
0000
0000
0001
0000
1000
0000
1000
0100
,
1000
0000
1020
0000
0000
0000
1030
0000
0000
0000
0100
0000
0010
0000
0001
0010
,
0100
0201
0000
0301
0000
0001
0000
1000
,
0000
2002
0000
0000
0000
0000
3003
0000
0001
0000
0020
0000
0000
0000
0000
0030
,
1000
0000
0200
0000
0000
0300
0001
0000
2000
0000
0001
0000
3000
0000
0010
0000
,
0001
0020
0000
0000
0030
0200
0000
0000
,
0310
0000
0002
0000
0100
0000
1000
0000
0103
0000
2000
0000
3100
0000
0100
0010
,
0100
0000
0020
0000
0000
0000
1000
0000
0130
0000
1000
0100
1000
0100
2000
0000
,
0000
0000
0001
0000
0010
0000
3001
0010
0100
1000
0002
0000
0000
0000
0203
0000
,
0000
0302
0000
0013
0100
1000
0100
0001
,
0020
0000
0030
0110
2000
0000
0000
0000
,
3001
0000
0102
0000
0000
0003
0100
1000
0100
1000
0200
0000
0000
0000
0320
0000
,
0000
0000
2030
0000
0000
0000
3001
0010
0100
1000
0200
0000
0000
0000
0320
0000
,
0000
0032
0000
0013
0100
1000
0100
0010
,
0100
0000
0000
0001
0000
1000
0000
0001
0000
1000
0000
0001
0000
1000
0000
0001
0000
1000
0000
0001
0000
0100
0000
0000
,
0110
0000
0200
0000
0000
0000
1300
0000
0000
0000
0001
0000
0010
0000
0100
0010
,
0100
0000
0210
0000
0000
0000
0310
0000
0000
0000
0100
0000
0001
0000
0100
1000
,
0100
0000
0200
0000
0000
0000
0301
0000
0000
0000
0010
0000
1000
0000
0010
0100
,
1000
0000
1200
0000
0000
0000
0310
0000
0000
0000
0220
0000
0000
0330
0001
0010
,
0100
0000
2100
0000
0000
0000
3001
0000
0000
0000
0010
0000
0100
0000
1000
0100
,
1000
0000
1002
0000
0000
0000
0103
0000
0000
0000
0001
0000
0010
0000
0100
0010
,
0001
0000
0102
0000
0000
0000
1003
0000
0000
0000
1000
0000
0010
0000
1000
0100
,
0010
0000
1020
0000
0000
0000
0130
0000
0000
0000
0020
0000
0000
0030
1000
0000
,
0100
0000
2000
0000
0000
0000
3001
0000
0000
0000
1000
0000
0001
0000
0010
0100
,
0100
0000
2000
0000
0000
3000
0020
0000
0000
0030
1000
0000
0100
0000
0001
0010
,
0100
0000
1002
0000
0000
0000
0013
0000
0000
0000
0100
0000
1000
0000
0010
0010
,
1000
0200
0000
0310
0000
1001
0000
1010
,
0000
0002
0000
1003
0000
0100
0010
0100
,
1000
0000
0010
0100
0010
0000
0110
0000
0000
0000
1000
0000
0100
0000
0001
0010
,
0100
0000
2000
0000
0000
0000
3001
0000
0000
0000
0010
0000
0100
0000
1000
0100
,
1000
0002
0003
0020
0000
1030
0000
0100
,
0001
2000
0000
3000
0001
0002
0000
0003
,
1000
0100
1000
0100
0110
0200
0000
0300
,
0010
0200
0000
0000
0300
0002
0000
0000
,
1003
0000
2000
0000
0000
0000
0001
0000
3001
0000
0001
0000
0010
0000
0100
0010
,
0100
2000
0000
3100
0001
0100
0010
0200
,
0000
1300
0010
0100
0010
0100
0010
2000
,
0000
3002
0003
0010
0100
1000
0100
0001
,
0020
0000
0000
0130
0200
0000
0000
0001
,
0301
0220
0000
0000
0030
0000
0000
2300
,
0000
0000
3001
0000
0001
0000
1000
0000
0000
0000
0010
0001
0010
0000
1010
0000
,
0000
0100
0001
0010
1000
0100
0001
0010
,
0100
0000
0000
1001
0000
0001
0000
1000
0000
0001
0000
1000
0000
0001
0000
1000
0000
0001
0000
1000
0000
0001
0000
0000
,
0010
0000
0020
0000
0100
0000
0000
0000
0030
0000
0000
0000
1010
0000
0100
0010
,
1001
0000
0200
0000
1300
0000
0020
0000
0000
0000
0030
0000
1000
0000
0010
0100
,
0020
0000
2000
0000
0000
3000
0100
0000
0000
0000
0030
0000
1000
0000
0100
0010
,
0002
0000
2000
0000
0000
3000
0100
0000
0000
0000
0003
0000
1000
0000
0100
0010
,
0100
0000
0010
0000
1001
0000
1000
0100
0010
0001
0010
0100
1000
0000
0001
0000
,
0020
0000
0000
2030
0000
3000
0100
0001
,
0020
0000
2000
0000
0000
3000
0002
0000
0000
0000
0033
0000
1000
0000
0100
0000
,
0002
0000
0200
0000
0000
0300
2000
0000
0000
0000
3003
0000
0000
0000
1000
0000
,
0200
0000
0010
0000
0320
0000
0100
0000
0000
0000
0030
0000
0100
0000
1001
0001
,
2000
0001
3002
2003
0000
3001
0100
0010
,
0210
0000
0020
0000
0300
0000
0230
0000
0000
0000
0300
0000
1001
0000
0100
0010
,
0002
0200
0300
2000
0000
3003
1000
0100
,
0110
0000
1000
0001
1000
0001
1000
0001
1000
0001
1000
0001
1000
0000
0010
0000
,
0100
0010
0100
0000
0002
0000
2000
0000
0000
3000
0103
0000
1000
0000
0001
0010
,
0100
2010
0000
0002
0000
3003
0001
1000
,
0002
0000
0200
0000
0000
0300
2000
0000
0000
0000
3003
0000
0010
0000
0100
0010
,
0100
0000
2001
0000
3000
0000
1001
0000
0000
0000
0010
0100
0010
0000
0101
0000
,
0000
0000
2000
0000
0000
0000
3001
0000
0000
0000
0010
0100
1000
0000
0110
0000
,
0000
0100
0000
0100
0010
0100
1000
0100
,
0002
0000
0003
0010
0200
0010
0000
0010
,
0300
0000
0020
0000
0000
0000
0130
0000
0000
0000
1000
0100
0010
0000
0201
0000
,
0000
0000
0310
0000
0100
0000
1010
0000
0000
0000
0100
0001
0100
0000
1001
0000
,
0000
0100
0000
0010
0100
1000
0100
0010
,
2000
0000
0000
3001
0200
0000
0000
0301
,
1001
0000
0002
0000
0000
0000
1003
0000
0100
0010
0001
0000
1010
0000
0010
0000
,
0000
0000
0200
0000
0000
0000
1300
0000
0100
0010
0100
0000
0000
0000
0010
0000
,
0000
0110
0000
1000
0100
0001
0010
0100
,
0002
0000
0003
0011
1200
0000
0000
0010
,
0301
0000
0020
0000
0000
0000
0130
0000
1000
0001
1000
0000
0110
0000
0002
0000
,
0000
0000
0103
0000
0010
0000
0100
0000
0000
0000
1000
0100
0010
0000
0101
0000
,
0000
0002
0003
0010
0100
1000
0100
0001
,
0200
0000
0000
0310
0000
0100
0000
0010
0000
0100
0000
0010
0000
0100
0000
0010
0000
0100
0000
0010
0000
0100
0000
0000
,
1010
0000
0020
0000
0030
0000
0100
0000
0001
0000
0200
0000
0301
0000
0001
1000
,
0001
0000
2001
0000
0000
0000
3010
0000
0100
1000
0100
0000
1010
0000
0100
0010
,
0200
0000
0301
0000
0000
0000
0110
0000
0001
0010
0100
0000
1010
0000
0100
0010
,
0200
0000
0301
0000
0000
0000
0110
0000
0001
1000
0001
0000
1001
0000
0010
0100
,
0020
0000
0130
0000
0000
0000
0001
0000
0100
0010
0200
0000
1300
0000
0010
0001
,
0020
0000
0130
0000
0000
0000
1010
0000
0001
0010
0100
0000
1100
0000
0001
0010
,
0002
0000
0023
0000
0000
0000
1030
0000
0100
0010
0100
0000
1001
0000
0010
0100
,
0110
0000
0200
0000
0000
0000
0301
0000
0010
0100
1000
0000
1001
0000
0010
0001
,
0110
0200
0000
0000
0000
0000
0000
0300
;

//---------------dance-single - Blank----------------
#NOTEDATA:;
#CHARTNAME:;
#STEPSTYPE:dance-single;
#DESCRIPTION:Blank;
#CHARTSTYLE:;
#DIFFICULTY:Medium;
#METER:3;
#RADARVALUES:0.329,0.422,0.164,0.379,0.000,353.000,33.000,76.000,0.000,0.000,0.000,0.000,0.000,0.329,0.422,0.164,0.379,0.000,353.000,33.000,76.000,0.000,0.000,0.000,0.000,0.000;
#CREDIT:;
#OFFSET:-0.100;
#BPMS:0.000=129.000
;
#STOPS:;
#DELAYS:;
#WARPS:;
#TIMESIGNATURES:0.000=4=4
;
#TICKCOUNTS:0.000=4
;
#COMBOS:0.000=1
;
#SPEEDS:0.000=1.000=0.000=0
;
#SCROLLS:0.000=1.000
,234.500=0.001
,235.000=10.000
,235.500=0.001
,236.000=10.000
,236.500=1.000
,249.000=6.000
,249.500=0.000
,250.000=10.000
,250.500=0.000
,251.000=5.000
,251.500=0.000
,252.000=1.000
,420.500=0.100
,420.750=1.000
,421.000=0.100
,421.250=1.000
,421.500=0.100
,421.750=1.000
,422.000=0.100
,422.250=1.000
;
#FAKES:;
#LABELS:0.000=Song Start
;
#ATTACKS:TIME=16.379070:LEN=0.232557:MODS=Drunk, Confusion, Mini, Invert, Bumpy, Space:TIME=108.239525:LEN=1.627914:MODS=Mini, Beat, Twirl, Overhead:TIME=115.681389:LEN=0.930229:MODS=Drunk, Dizzy, Confusion, 50% Tornado, Tipsy, Bumpy, Beat, 45% XMode, Twirl, Roll, Distant:TIME=195.681396:LEN=1.162781:MODS=Drunk, Dizzy, Mini, Flip, Invert, 50% Tornado, Tipsy, Bumpy, Beat, 45% XMode, Twirl, Roll, Hallway:TIME=195.913956:LEN=0.116272:MODS=Reverse, Overhead:TIME=196.262787:LEN=0.348831:MODS=Reverse, Split, Alternate, Cross, Centered, Overhead;
#NOTES:
0000
0000
0000
0000
,
0000
0000
0000
0000
,
0000
2000
0000
0000
0000
0000
0000
3000
,
0000
0002
0000
0000
0000
0000
0000
0003
,
0000
0000
0000
0000
0100
0010
0100
0010
,
0100
0010
0000
0000
1000
0001
1000
0001
,
1000
0001
1000
0001
1000
0001
1000
0001
,
0100
0001
0100
0001
0100
1000
0001
0100
,
0001
0200
0000
0000
0000
0300
2002
0000
,
3003
0010
0000
1001
0000
0010
0000
0100
,
0000
0010
0000
1000
0000
0100
0000
0010
,
0000
0110
0000
1000
0000
0001
0000
0010
,
0000
0100
0000
0010
0000
1000
0000
0100
,
0000
0001
0000
1001
0000
0010
0000
1000
,
0000
0100
0000
1100
0000
0010
0000
0100
,
0000
0001
0000
0011
0000
1000
0000
0010
,
0000
0100
0000
0110
0000
1000
0000
0100
,
0000
0002
0000
1003
0000
0001
0000
0010
,
0000
0200
0000
0310
0000
1000
0000
0100
,
0000
2000
0000
3100
0000
0001
0000
0010
,
0000
0020
0000
0130
0000
0100
0000
0010
,
0000
0200
0000
0310
0000
0100
0000
0001
,
0000
1000
0000
1001
0000
0010
0000
1000
,
0000
0100
0000
1100
0000
0010
0000
0100
,
0000
0001
0000
1001
0000
0010
0000
0100
,
0000
0020
0000
0000
0030
2000
0000
0000
,
3000
0002
0000
0000
0003
2000
0000
3000
,
0000
0002
0000
0000
0003
2000
0000
0000
,
3000
0001
0000
1000
0000
0001
0000
0010
,
0000
0200
0000
0000
0000
0000
0300
0010
,
0000
0200
0000
0000
0000
0000
0000
0000
,
0000
0300
0000
1000
0000
0001
0000
1000
,
0000
0001
0000
1100
0000
0001
0000
0101
,
0000
2000
0000
0000
0000
0000
3000
0001
,
0000
2000
0000
0000
0000
0000
0000
0000
,
0000
0000
3000
0010
0000
0100
0000
0010
,
0000
1000
0000
0100
0000
0020
0000
0000
,
0030
1000
0000
0001
0000
1000
0000
0010
,
0000
0100
0000
1100
0000
0001
0000
0010
,
0000
0010
0000
0110
0000
0100
0000
1000
,
0000
0001
0000
1001
0000
0010
0000
1100
,
0000
0010
0000
0100
0000
0001
0000
0010
,
0000
2000
0000
3100
0000
0001
0000
0010
,
0000
0002
0000
0103
0000
1000
0000
0010
,
0000
0200
0000
0010
0300
2000
0000
3100
,
0000
0002
0003
2000
3000
0010
0000
0100
,
0000
0010
0000
0110
0000
1000
0000
0001
,
0000
0001
0000
1001
0000
0010
0000
1000
,
0000
0100
0000
1100
0000
0001
0000
0011
,
0000
0010
0000
1010
0000
0010
0000
0001
,
0000
0100
0000
1001
0000
0010
0000
1000
,
0000
0001
0000
1001
0000
0010
0000
0100
,
0000
0001
0000
0010
0000
0100
0000
1000
,
0000
0002
0000
0000
0003
2000
0000
0000
,
3000
0010
0000
0100
0000
0001
0000
0010
,
0000
2000
0000
0000
3000
0002
0000
0000
,
0003
1000
0000
0010
0000
0100
0000
0010
,
0000
2000
0000
0000
0000
0000
3000
0001
,
0000
2000
0000
0000
0000
0000
0000
0000
,
0000
0000
3000
0010
0000
0100
0000
0010
,
0000
0100
0000
1000
0000
0002
0000
0000
,
0003
0020
0000
0000
0000
0000
0030
0100
,
0000
0020
0000
0000
0000
0000
0000
0000
,
0000
0030
0000
1000
0000
0001
0000
0010
,
0000
0100
0000
0110
0000
2000
0000
0000
,
3000
0002
0000
0000
0000
0003
1000
0001
,
1000
0000
0020
0000
0000
0030
0100
0010
,
0200
0000
0000
0000
0300
0000
1000
0001
,
2000
0000
0000
0000
0000
3000
0010
0100
,
0020
0000
0230
0000
0300
0000
0100
0010
,
0200
0000
0302
0000
0000
0003
1000
0010
,
0200
0000
0000
0000
0300
0000
1000
0010
,
2000
0000
0000
0020
0000
3030
0000
0110
,
0200
0000
0320
0000
0000
0030
0100
0010
,
0200
0000
0320
0000
0000
0030
0100
0010
,
0200
0000
0000
0000
0300
0000
0001
0100
,
0002
0000
0000
0000
0003
0000
0100
0001
,
0200
0000
0010
0300
0000
0000
1000
0100
,
2000
0000
3002
0000
0000
0003
0010
0100
,
0020
0000
0000
0000
0030
0000
1000
0100
,
0002
0000
0000
0000
0000
0003
0010
0100
,
0000
2000
0000
0000
0000
0000
3000
0001
,
0000
2000
0000
0000
3000
0010
0000
0100
,
0000
0010
0000
1000
0000
0100
0000
0001
,
0000
0010
0000
1100
0000
0001
0000
0101
,
0000
0020
0000
0000
0000
0000
0030
0100
,
0000
0020
0000
0000
0000
1000
0000
1000
,
0000
1000
0030
0100
0000
0010
0000
0100
,
0000
0010
0000
0100
0000
0002
0000
0000
,
0003
2000
0000
0000
0000
0000
3000
0001
,
0000
2000
0000
0000
0000
0010
0000
0010
,
0000
0001
0000
3010
0000
0100
0000
0010
,
0000
0100
0000
1000
0000
0001
0000
0101
,
0000
1000
0000
0010
0000
1000
0000
1100
,
0000
0001
0000
0011
0000
0010
0000
0110
,
0000
1000
0000
1100
0000
0001
0000
0101
,
0000
2000
0000
3002
0000
2003
0000
0000
,
3000
0010
0000
0100
0000
1000
0000
0100
,
0000
0001
0000
0010
0000
1000
0000
0010
,
0000
0200
0000
0010
0300
0000
0000
0010
,
0000
0200
0000
0010
0000
0300
0000
0001
,
0000
2000
0000
3001
0000
0000
0000
0010
,
0000
2000
0000
3001
0000
0000
0000
0010
,
0000
0200
0000
0310
0000
0000
0000
1000
,
0000
2000
0000
0010
3000
0000
0000
0001
,
0000
0002
0000
0000
0000
0000
0000
0003
;

//---------------dance-single - Blank----------------
#NOTEDATA:;
#CHARTNAME:;
#STEPSTYPE:dance-single;
#DESCRIPTION:Blank;
#CHARTSTYLE:;
#DIFFICULTY:Challenge;
#METER:8;
#RADARVALUES:0.919,0.950,0.967,0.882,0.581,910.000,194.000,177.000,0.000,44.000,2.000,0.000,0.000,0.919,0.950,0.967,0.882,0.581,910.000,194.000,177.000,0.000,44.000,2.000,0.000,0.000;
#CREDIT:;
#OFFSET:-0.100;
#BPMS:0.000=129.000
;
#STOPS:;
#DELAYS:;
#WARPS:;
#TIMESIGNATURES:0.000=4=4
;
#TICKCOUNTS:0.000=4
;
#COMBOS:0.000=1
;
#SPEEDS:0.000=1.000=0.000=0
;
#SCROLLS:0.000=1.000
,83.250=2.000
,83.500=1.000
,100.250=0.800
,114.500=1.000
,194.500=0.000
,194.750=-1.000
,195.000=0.000
,195.250=1.000
,212.500=0.800
,227.000=1.000
;
#FAKES:;
#LABELS:0.000=Song Start
;
#ATTACKS:TIME=16.379070:LEN=0.348837:MODS=-35% Mini, Beat, Overhead:TIME=195.681396:LEN=0.232559:MODS=Blink, Cross, Centered, Overhead:TIME=196.146515:LEN=0.232559:MODS=Flip, Reverse, Overhead:TIME=196.379074:LEN=0.232544:MODS=Confusion, 45% XMode, Reverse, Alternate, Distant;
#NOTES:
// measure 0
0000
0000
0000
2200
0000
0300
0000
3022
0000
0030
0000
0003
2112
0000
0000
3003
,  // measure 1
0000
1000
0001
1000
0000
0000
0011
0000
0000
1000
0000
0000
0011
0000
0000
1000
0000
0000
0011
0000
0000
1000
0000
0000
,  // measure 2
0011
0000
0000
1000
0000
0000
0102
0000
0000
0000
0000
0000
0000
0000
0000
0003
0000
1100
0011
1100
0011
1100
0011
1100
,  // measure 3
0011
1100
0011
2202
0000
0000
0000
0000
0000
0000
0000
0000
0000
0000
0000
3303
0000
0000
1010
0000
0000
0002
0000
0000
,  // measure 4
0000
0003
1000
0100
0010
0100
0220
0300
,  // measure 5
1000
1030
0001
0000
0010
0100
1000
0100
,  // measure 6
0010
0100
0001
0100
0001
1000
0001
1000
,  // measure 7
0001
1000
0001
0100
1000
1000
0001
1000
,  // measure 8
0001
0000
1000
0000
2202
0000
0000
0000
0000
0000
0000
3303
2442
0000
0000
0000
,  // measure 9
3333
0000
0110
0000
0000
0000
1001
0000
0000
0000
1000
0000
0100
0000
0001
1000
,  // measure 10
0001
0000
0120
0000
1000
0000
1030
0000
0000
0000
0001
0000
1001
0000
0001
0100
,  // measure 11
1000
0000
1020
0000
0100
0000
1030
0000
0110
0000
0010
0000
0100
0000
0001
1000
,  // measure 12
0001
0000
2100
0000
0011
0000
3100
0000
0000
0000
0010
0000
0100
0000
1001
0100
,  // measure 13
1001
0000
1002
0000
0100
1003
0010
0100
1000
0100
0010
0100
0010
0100
0010
0100
,  // measure 14
0010
0000
2001
0000
0000
0000
3001
0100
0010
0001
0010
0001
0100
0001
1000
0010
,  // measure 15
1000
0000
1020
0000
0000
0000
1030
0000
0100
0010
0100
0001
0010
0001
0100
0001
,  // measure 16
0100
0000
1002
0000
0000
0003
2000
0000
0000
3000
0010
0100
0010
0100
0010
0100
,  // measure 17
1001
0000
2002
0000
0000
0000
3023
0000
0000
0000
0130
0000
0010
0000
0010
0100
,  // measure 18
1000
0000
0201
0000
0001
0000
0310
0000
1001
0000
1000
0000
0100
0000
0010
0100
,  // measure 19
1000
0000
0102
0000
0010
0000
0103
0000
1001
0000
1000
0000
0100
0000
1000
0001
,  // measure 20
1000
1002
0000
0103
0000
2201
0000
3301
,  // measure 21
0010
0000
0010
0100
0010
0000
0110
0010
0100
0010
1000
0010
0100
0010
0001
0010
,  // measure 22
0100
0000
1002
0000
0000
0000
1003
0000
2000
0000
3001
0000
1000
0100
1000
0100
,  // measure 23
1000
0001
1020
0000
0000
0000
1030
0000
0000
0000
1100
0000
0110
0000
0001
0010
,  // measure 24
0100
0010
0201
0000
0000
0000
0301
0010
0100
1000
0100
0010
0001
0010
0100
1000
,  // measure 25
0100
2002
0000
0000
0000
0000
3003
0000
0001
0000
0020
0000
0000
0000
0000
0030
,  // measure 26
1000
0000
0200
0000
0000
0300
0001
0000
2000
0000
0001
0000
3000
0000
0010
0000
,  // measure 27
0001
0000
0020
0030
0100
0010
0100
0010
0100
0010
0200
0001
0010
0001
0010
0001
,  // measure 28
0310
0000
0002
0000
0100
0000
1000
0000
0103
0000
2000
0000
3100
0000
0100
0010
,  // measure 29
0100
0000
0020
0000
0000
0000
1000
0000
0130
0000
1000
0100
1000
0100
2000
0000
,  // measure 30
0000
0000
0001
0000
0010
0000
3001
0010
0100
1000
0002
0010
0100
1000
0203
0010
,  // measure 31
0001
0010
1302
0010
0100
0000
0013
0000
0100
0000
1000
0000
0100
0000
0001
0000
,  // measure 32
0020
0000
0100
1000
0130
0000
0110
0000
2001
0000
0010
0000
0001
0010
0001
0000
,  // measure 33
3001
0000
0102
0000
0000
0003
0100
1000
0100
1000
0200
0001
0010
0001
0320
0001
,  // measure 34
0100
0001
2030
0001
0010
0100
3001
0010
0100
1000
0201
0000
0000
0000
1320
0000
,  // measure 35
0000
0132
0000
0013
0100
1000
0100
0010
,  // measure 36
0100
0000
0000
0101
0000
1010
0000
0101
0000
1010
0000
0101
0000
1010
0000
0101
0000
1010
0000
1001
0000
0100
0000
0000
,  // measure 37
0110
0000
0201
0000
0000
0000
0321
0000
0000
0000
0131
0000
0010
0000
0100
0010
,  // measure 38
0100
0000
0210
0000
0001
0000
0310
0000
0000
0000
0100
0000
0001
0000
0100
1000
,  // measure 39
0100
0000
0201
0000
0010
0000
0301
0000
0000
0000
0010
0000
1000
0000
0010
0100
,  // measure 40
1000
0000
1200
0000
0010
0000
0310
0000
0000
0000
0220
0000
0000
0330
0001
0010
,  // measure 41
0100
0000
2100
0010
0001
0010
3001
0100
0010
0100
0010
0001
0100
0010
1000
0100
,  // measure 42
1000
0010
1002
0000
0000
0000
0103
0000
0010
0100
0001
0100
0010
0001
0100
0010
,  // measure 43
0001
0010
0102
0000
0000
0000
1003
0000
0000
0000
1000
0100
0010
0001
1000
0100
,  // measure 44
0010
0001
1020
0000
0000
0000
0130
0000
1010
0000
0020
0000
1000
0130
1000
0100
,  // measure 45
1000
0100
2001
0000
0000
0000
3001
0000
0000
0000
1010
0000
1001
0000
0020
0100
,  // measure 46
0100
0130
2000
0000
0000
3000
0020
0000
0000
0030
1000
0000
0110
0000
0101
0010
,  // measure 47
0010
0010
1002
0000
0000
0000
0013
0000
0000
0000
0110
0000
2000
0000
0010
0010
,  // measure 48
3010
0200
0000
0310
0000
1011
0000
1110
,  // measure 49
0000
0000
0002
0010
0100
1000
0103
0000
0010
0001
0100
0001
0010
0001
0100
0001
,  // measure 50
1000
0001
0010
0100
0010
0000
0110
0000
0000
0000
1000
0100
1000
0100
0001
0010
,  // measure 51
0100
1000
2000
0000
0000
0000
3001
0000
0010
0100
0010
1000
0100
0010
1000
0100
,  // measure 52
1000
0000
1002
1000
1003
0000
0020
0000
0000
0000
1030
0000
0001
0000
0110
0000
,  // measure 53
1001
2200
0000
3300
0011
0202
0000
0303
,  // measure 54
1000
0100
1000
0100
0120
0200
0000
1331
,  // measure 55
0110
0000
0200
0010
0001
0010
0001
0010
0301
0010
0002
0100
1000
0100
1000
0100
,  // measure 56
1003
0100
2000
0100
0010
0100
0001
0010
3001
0100
0001
0000
1010
0000
0110
0011
,  // measure 57
0110
0000
2000
0000
0000
0000
3100
0000
1001
0010
0100
0000
0110
0000
1200
0000
,  // measure 58
0000
0000
1300
0000
0010
0000
0100
0000
0010
0001
0010
0000
0110
0000
2002
0000
,  // measure 59
0003
0000
3202
0000
0003
0000
0310
0000
0100
0000
1000
0000
0100
0010
1001
0000
,  // measure 60
0220
0000
0000
0300
0000
0000
0130
0000
0200
0000
0000
0000
0000
0000
0001
0000
,  // measure 61
0301
0000
0220
0000
0000
0000
1000
0000
0031
1000
0001
0000
1001
0000
2300
0000
,  // measure 62
0000
0000
3001
0000
0001
0000
1000
0000
0001
1000
0010
0000
0010
0000
1010
0000
,  // measure 63
0000
0000
0100
0000
0001
0000
0010
0000
1000
0100
1000
0000
0101
0000
0010
0000
,  // measure 64
0100
0000
0000
1001
0000
0110
0000
1001
0000
0110
0000
1001
0000
0110
0000
1001
0000
0110
0000
1001
0000
0110
0000
0000
,  // measure 65
0010
0000
0020
0000
0100
0000
0100
0000
0130
0000
0000
0000
1010
0000
0100
0010
,  // measure 66
1001
0000
0200
0000
1300
0000
0020
0000
0100
0000
0130
0000
1000
0000
0010
0100
,  // measure 67
0020
0000
2001
0000
0000
3000
0202
0000
0000
0000
0333
0000
1000
0000
0100
0010
,  // measure 68
0002
0000
2000
0000
0000
3000
0220
0000
0000
0000
0333
0000
1000
0000
0100
0010
,  // measure 69
0100
0000
0010
0000
1001
0000
1000
0100
0010
0001
0010
0100
1000
0000
0001
0000
,  // measure 70
0020
0100
1000
0100
1000
0100
2030
0001
0100
0001
3100
0001
0100
0000
1001
0000
,  // measure 71
0020
0000
2002
0000
0003
3000
0002
0100
1000
0100
1033
0100
1000
0000
0100
0000
,  // measure 72
0002
0010
0200
1000
0010
1300
2000
0010
0100
0010
3103
0000
0000
0000
1000
0000
,  // measure 73
0200
0000
0010
0000
0320
0000
0100
0000
0000
0000
0030
0000
0100
0000
1001
0001
,  // measure 74
2000
0001
3002
2003
0000
3001
0101
0010
,  // measure 75
1210
0000
0021
0000
0300
0000
1230
0000
0000
0000
0300
0000
1001
0000
0100
0010
,  // measure 76
0002
0200
0300
2000
0000
3003
1000
0100
,  // measure 77
0110
0000
1100
0001
1010
0001
1100
0001
1010
0001
1100
0001
1010
0100
1001
0010
,  // measure 78
0101
0010
1100
0000
0002
0000
2000
0000
0000
3000
0103
0000
1000
0000
0001
0010
,  // measure 79
0100
0000
2010
0000
0001
0001
0002
0000
0000
0000
3003
0000
0101
0000
1010
0000
,  // measure 80
1002
0000
0200
0000
1000
1300
2000
0000
0000
0000
3003
0000
0010
0000
0100
0010
,  // measure 81
0100
0000
2001
0000
3000
0000
1001
0000
0000
0000
0010
0100
0010
0000
0101
0000
,  // measure 82
0000
0000
2000
0000
0000
0000
3001
0000
0000
0000
0010
0100
1000
0000
0110
0000
,  // measure 83
0000
0102
0000
0100
0010
0100
1000
0103
,  // measure 84
0002
0000
0003
0010
0200
0010
0000
0010
,  // measure 85
0300
0000
0020
0000
0000
0000
0130
0000
0000
0000
1000
0100
0010
0000
0201
0000
,  // measure 86
0000
0000
0310
0000
0100
0000
1010
0000
0000
0000
0100
0001
0100
0000
1001
0000
,  // measure 87
0000
0000
0100
0000
1010
0000
0010
0000
0100
0000
1000
0000
0100
0000
0010
0100
,  // measure 88
2000
0001
0000
3001
0200
0000
0000
0301
,  // measure 89
1001
0000
0002
0000
0000
0000
1003
0000
0100
0010
0001
0000
1010
0000
0210
0000
,  // measure 90
0300
0000
0200
0000
0000
0000
1300
0000
0100
0010
0200
0000
0000
0000
0321
0000
,  // measure 91
0000
1130
0000
1000
0100
0001
0010
0100
,  // measure 92
0002
0000
0003
0011
1200
0000
0000
0010
,  // measure 93
0301
0000
0020
0000
0000
0000
0130
0000
1000
0001
1000
0000
0210
0000
0302
0000
,  // measure 94
0000
0000
0103
0000
0010
0000
0100
0000
0000
0000
1000
0100
0010
0000
0101
0000
,  // measure 95
0000
0002
0003
0010
0100
1000
0100
0001
,  // measure 96
0200
0000
0000
0311
0000
1100
0000
0011
0000
1100
0000
0011
0000
1100
0000
0011
0000
1100
0000
0011
0000
1100
0000
0000
,  // measure 97
1010
0000
0020
0000
0030
0000
0100
0000
0001
0000
0200
0000
0301
0000
0001
1000
,  // measure 98
0001
0000
2001
0000
0000
0000
3010
0000
0100
1000
0100
0000
1010
0000
0100
0010
,  // measure 99
0200
0000
0301
0000
0000
0000
0110
0000
0001
0010
0100
0000
1010
0000
0100
0010
,  // measure 100
0200
0000
0301
0000
0000
0000
0110
0000
0001
1000
0001
0000
1001
0000
0010
0100
,  // measure 101
0020
0000
0130
0010
0100
0010
0001
0010
0100
0010
0200
0000
1300
0000
0010
0001
,  // measure 102
0020
0000
0130
0000
0100
0010
0100
0010
0001
0010
0100
0000
1100
0000
0001
0010
,  // measure 103
0002
0000
0023
0000
0000
0000
1030
0000
0100
0010
0100
0010
0101
0010
0010
0100
,  // measure 104
0110
0010
0200
0000
0000
0000
0301
0000
0010
0100
1000
0000
1001
0100
0010
0001
,  // measure 105
0100
0010
0220
0000
0000
0000
0000
0000
0000
0000
0000
0000
0000
0000
0330
0000
;
