#TITLE:Lovey Dovey;
#SUBTITLE:;
#ARTIST:T-ara;
#TITLETRANSLIT:;
#SUBTITLETRANSLIT:;
#ARTISTTRANSLIT:;
#GENRE:KPop;
#CREDIT:;
#BANNER:Lovey Dovey.png;
#BACKGROUND:Lovey Dovey-bg.png;
#LYRICSPATH:;
#CDTITLE:;
#MUSIC:lovey dovey.mp3;
#OFFSET:0.000;
#SAMPLESTART:100.000;
#SAMPLELENGTH:12.000;
#SELECTABLE:YES;
#BPMS:0.000=128.000
;
#STOPS:
;
#BGCHANGES:;
#KEYSOUNDS:;
#ATTACKS:;

//---------------dance-single - Blank----------------
#NOTES:
     dance-single:
     :
     Hard:
     6:
     0.614,0.584,0.367,0.460,0.204,748.000,79.000,99.000,0.000,0.000,0.000,0.614,0.584,0.367,0.460,0.204,748.000,79.000,99.000,0.000,0.000,0.000:
0000
0000
1000
0000
0000
0001
0000
0000
0010
0000
0100
0000
1000
0000
0100
0000
,
0010
0000
0100
0000
0000
0110
0000
0000
0010
0000
0100
0000
1000
0000
0100
0000
,
0001
0000
0001
0000
0000
1001
0000
0000
1000
0000
0100
0000
0010
0000
0100
0000
,
1000
0000
0010
0000
0000
1010
0000
0000
0100
0000
1000
0000
0100
0000
1000
0000
,
0010
0000
1000
0000
0000
1001
0000
0000
0001
0000
0010
0000
0100
0000
1000
0000
,
0100
0000
0001
0000
0000
0101
0000
0000
1000
0000
0100
0000
1000
0000
0100
0000
,
1000
0000
0100
0000
0000
1010
0000
0000
1000
0000
0001
0000
1000
0000
0001
0000
,
1000
0001
1000
0000
0001
1000
0001
0000
0010
0100
1000
0000
0100
0010
0100
0010
,
0100
0200
0000
0310
0100
2000
0000
3001
,
0010
0100
1000
0100
0010
0100
0000
0110
,
0000
0000
2000
0000
0000
0000
0001
0000
3001
0000
2000
0000
0000
3000
0100
0000
,
0010
0100
0010
0100
0010
0100
0000
1001
,
0000
0002
0000
0103
0010
0000
0010
0200
,
0000
0300
0010
0000
0000
0000
0010
0000
0100
0000
0000
0000
0010
0000
0100
0000
,
0000
0220
0000
0000
0330
1000
0100
1000
,
0010
0000
0000
0000
0001
0000
0000
0000
1000
0001
1000
0001
1000
0001
1000
0001
,
0000
0020
0000
2030
0000
3001
0010
0100
,
0010
0000
0100
0000
0010
0100
0010
0100
0010
0000
0100
0000
0000
0000
0100
0000
,
0000
0000
0001
1000
0001
0000
0001
0000
1000
0000
0100
0000
0010
0000
0100
0000
,
0010
0000
0110
0000
1000
0001
1000
0001
1000
0000
1001
0000
0000
0000
0010
0000
,
0000
0000
0020
0000
0000
0000
0130
0000
0200
0000
0000
0300
0001
0000
0020
0000
,
0000
0000
0230
0000
0000
0300
0010
0000
0100
0000
0000
0000
1000
0000
0100
0000
,
0000
2020
0000
0000
3030
0001
0010
0100
,
1000
0101
0000
0110
0000
1001
0000
0110
,
0000
0000
0100
0010
0100
0010
0100
0000
0100
0000
0100
0000
0101
0000
0100
0000
,
0101
0000
1000
0100
1000
0100
1000
0000
1000
0000
1000
0000
1001
0000
1000
0000
,
1001
0000
0100
0010
0100
1000
0100
0010
,
2000
0000
0000
0000
3200
0000
0000
0000
0000
0300
0020
0000
0000
0000
0130
0000
,
0000
0000
0001
0010
0001
0010
0001
0000
0010
0000
0010
0000
1010
0000
0010
0000
,
1010
0000
1000
0010
1000
0010
1000
0000
0100
0000
0100
0000
0110
0000
0100
0000
,
0110
1000
0000
1001
0000
0010
0000
0100
,
0200
0000
0000
0000
0000
0000
0300
0000
0001
1000
0001
1000
0001
1000
1001
0000
,
0000
0000
0010
1000
0010
1000
0010
0000
0100
0000
0100
0000
0101
0000
0100
0000
,
0101
0000
1000
0100
1000
0100
1000
0000
0010
0000
0010
0000
0110
0000
0010
0000
,
0120
0000
0130
0010
0100
1000
0100
1000
,
0002
0000
2003
0000
0000
3010
0000
0110
,
0000
0010
0100
0100
1000
1000
0002
0000
,
2003
0000
3010
1000
0100
1000
0020
0000
,
0000
0000
0000
0030
1000
0000
0001
0000
1000
0000
0001
0000
1000
0000
0001
0000
,
1002
0000
0000
0003
0020
0000
0000
0000
0000
0030
0200
0000
0000
0000
2300
0000
,
0000
0000
0000
3010
0000
0000
0100
0010
0000
0100
0000
0000
0100
0000
0000
0100
0000
0000
0000
0000
0000
0001
0000
0000
,
0110
0000
0000
0000
1000
0010
1000
0010
1000
0001
1000
0000
0001
0000
1001
0000
,
1000
0000
0000
0001
0000
0000
0000
0000
0000
0000
0000
0000
1000
0000
0100
0000
0000
0000
1000
0000
0000
0000
0000
0000
0010
0000
0000
0000
0000
0000
1001
0000
0000
0000
0000
0000
0000
0000
0000
0000
0000
0000
1000
0000
0000
0000
0000
0000
,
0000
0002
0000
2003
3200
0300
0010
0200
,
0000
0000
0300
1000
0100
1000
0100
0000
0100
0000
0020
0000
0000
0000
0000
0000
,
0000
0000
0030
0000
0010
0100
0010
0100
0010
0100
0010
0000
0001
0000
0002
0000
,
1003
0000
0000
0001
0000
0000
0000
0000
0000
0000
0000
0000
0010
0000
0100
0000
0000
0000
0010
0000
0000
0000
0000
0000
0100
0000
0000
0000
0000
0000
0200
0000
0000
0000
0000
0000
0000
0000
0000
0000
0000
0000
0000
0000
0000
0000
0000
0000
,
0300
0000
0002
0000
0000
0003
2000
0000
3002
0000
0000
0000
2003
0000
3200
0000
,
0300
0000
0020
0000
0000
0030
0100
0000
0100
0000
0101
0000
0000
0000
1000
0000
,
0010
0100
1000
0100
0010
0010
0000
0110
,
0000
0000
2000
0000
0000
3000
0001
0000
0001
0000
2000
0000
0000
3000
0010
0000
,
0100
1000
0100
0010
0100
0002
0000
1003
,
0000
0020
0000
1030
0100
0000
0010
0110
,
0000
2000
0000
3001
0010
0000
0100
0010
,
0000
2020
0000
0000
3030
0100
0010
0100
,
2000
0000
0000
0000
3001
0000
0000
0000
0001
1000
0001
1000
0001
1000
0001
1000
,
0001
0020
0000
0130
0000
0100
0010
0100
,
0010
0100
0000
1000
0001
1000
0000
0110
,
0000
0000
2000
0000
0000
3000
0002
0000
0000
0003
1000
0000
0100
0000
0010
0000
,
0100
0010
0000
0010
0100
0010
0000
0110
,
0000
2000
0000
3001
1000
0000
0010
2000
,
0000
3001
0000
0010
0100
0000
0010
0100
,
0000
0000
2020
0000
0000
0000
0000
3000
0030
0000
1000
0000
1000
0000
0001
0000
,
0010
0101
0000
1100
0000
0110
0000
1001
,
0000
0000
0100
1000
0100
1000
0100
0000
0100
0000
0100
0000
0110
0000
0100
0000
,
0110
0000
0100
0010
0100
0010
0100
0000
1000
0000
1000
0000
1001
0000
1000
0000
,
1001
0000
0001
0010
0100
1000
0100
0010
,
0001
0000
2002
0000
3003
0010
0000
0100
,
0000
0000
1000
0010
1000
0010
1000
0000
0010
0000
0010
0000
1010
0000
0010
0000
,
1010
0000
0100
1000
0100
1000
0100
0000
0001
0000
0001
0000
1001
0000
0001
0000
,
1001
0002
0000
1003
0000
0100
0000
0010
,
0200
0000
0000
0000
0000
0000
0300
0000
0020
0000
0000
0000
0000
0030
1000
0000
,
0000
0000
1000
0100
1000
0100
1000
0000
0010
0000
0010
0000
0010
0000
0010
0000
,
1010
0000
0100
0001
0100
0001
0100
0000
0010
0000
0010
0000
0010
0000
0010
0000
,
1010
0000
1000
0100
0001
0010
0100
1000
,
0120
0000
0000
0000
2030
0000
0000
0000
0000
3000
0002
0000
0000
0000
0023
0000
,
0000
1030
0100
0010
0100
0001
0101
0000
,
1000
0000
0100
0010
1000
0010
1010
0000
,
0000
0000
0100
0010
0100
0010
0100
0001
,
0020
0000
2030
0000
0000
3001
0000
1001
,
0000
0010
0100
0010
0100
0010
1000
0001
,
1000
1010
0000
0010
0100
0000
0100
0020
,
0000
0000
0000
0030
1000
0000
0100
0000
0010
0000
0100
0000
0010
0000
0100
0000
,
0010
0002
0000
1003
1000
0000
0100
0020
,
0000
0000
0000
0030
0100
0000
0010
0000
0100
0000
0010
0000
0100
0000
0110
0000
,
0100
0000
0010
0100
0010
0100
1000
1001
,
1000
0000
0001
0010
0100
1000
0100
1001
,
1000
0020
0000
0130
0010
0000
0010
0200
,
0000
0000
0000
0000
0000
0000
0000
0300
0000
0000
0001
0000
0000
0000
1000
0000
,
0001
0000
0000
0000
0001
0000
1000
0000
0000
0000
1000
0100
1000
0100
1000
0000
,
0001
0000
0010
0000
1010
0000
1000
0000
1010
0000
1000
0010
1000
0010
1000
0000
,
0100
0010
1001
0010
0110
0000
0001
0010
,
0100
0000
0010
0000
0100
0000
0010
0000
0020
0000
0000
0030
2000
0000
0000
0000
,
0000
3000
0200
0000
0000
0000
0301
0000
0000
0000
0001
0100
0001
0100
0001
0000
,
0010
0000
0010
0000
1010
0000
0010
0000
1010
0000
0100
1000
0100
1000
0100
0000
,
1000
0000
0001
0000
1001
0000
0001
0000
1001
0000
2000
0000
0000
3000
0001
0000
,
0000
0000
0010
0000
0000
0000
0100
0000
0020
0000
0000
0000
0000
0000
0000
0030
,
2000
0000
0000
0000
0000
3000
0002
0000
0000
0003
0010
0100
0010
0100
0010
0000
,
1000
0000
0001
0000
1001
0000
0001
0000
1001
0000
0100
0010
0100
0010
0100
0000
,
0010
0100
0110
0100
0120
0000
1030
0100
,
0010
0100
0010
0001
0010
0000
0002
0000
,
0000
0003
2000
0000
0000
0000
3001
0000
0000
0000
0010
0000
0100
0000
0010
0000
,
0100
0010
0100
0000
1000
0000
1001
0001
,
1000
0001
0002
0000
0000
0003
1000
0100
,
0010
0100
1000
0100
0002
0000
2003
0000
,
3000
0000
0000
0000
0000
0000
0200
0000
0000
0000
0000
0000
0000
0000
0000
0300
0000
0000
0020
0000
0000
0000
0000
0000
0000
0000
0000
0000
0000
0000
0130
0000
0000
0000
0000
0000
1000
0000
0100
0000
0000
0000
1000
0000
0000
0000
0000
0000
,
1000
0000
0002
0000
0000
0003
2000
0000
0000
0000
3000
0000
0010
0100
0010
0100
,
0010
0000
0000
0100
0000
0000
0010
0000
0000
0000
0000
0000
0100
0000
0000
0000
0000
0000
0010
0000
0000
0000
0000
0000
0010
0000
0000
0100
0000
0000
0000
0000
0000
0000
0000
0000
0001
0000
1000
0000
0000
0000
0001
0000
0000
0000
0000
0000
,
0001
0000
2000
0000
0000
0000
0000
3000
0000
0000
0002
0000
0000
0000
1003
0000
,
0001
0000
0000
0000
0000
0000
0010
0000
0000
0200
0000
0000
0000
0000
0000
0300
0000
0000
1000
0100
0000
1000
0000
0000
,
0100
0000
0020
0000
0000
0000
0000
0000
0030
0000
0000
0000
0001
1000
0001
1000
,
0001
0000
0000
0000
0000
0000
0100
0000
0000
0000
0000
0000
0010
0000
0000
0000
0000
0000
2000
0000
0000
0000
0000
0000
0001
0000
0000
0001
0000
0000
0000
0000
0000
3000
0000
0000
0001
0000
1000
0000
0000
0000
0001
0000
0000
0000
0000
0000
,
0100
0020
0000
0000
0030
0110
0000
1000
,
0010
0000
2000
0002
0000
0000
0000
0000
,
0000
0000
0000
0000
0000
3003
0000
0000
0000
0000
0000
0000
0000
0000
0000
0000
;

//---------------dance-single - Blank----------------
#NOTES:
     dance-single:
     :
     Challenge:
     8:
     0.773,0.663,0.701,0.715,0.283,861.000,151.000,154.000,0.000,4.000,2.000,0.773,0.663,0.701,0.715,0.283,861.000,151.000,154.000,0.000,4.000,2.000: // measure 0
0000
0000
2000
0000
0000
3001
0000
0000
0010
0000
0100
0000
1000
0000
0100
0000
,  // measure 1
1010
0000
0100
0000
0000
0220
0000
0330
0010
0000
0100
0000
1010
0000
0100
0000
,  // measure 2
1001
0000
1000
0000
0000
2002
0000
3003
1000
0000
0100
0000
1010
0000
0100
0000
,  // measure 3
1001
0000
0010
0000
0000
2020
0000
3030
0100
0000
1000
0000
0110
0000
1000
0000
,  // measure 4
0011
0000
1000
0000
0000
2002
0000
3003
0001
0000
0010
0000
0110
0000
1000
0000
,  // measure 5
0110
0000
0001
0000
0000
0202
0000
0303
1000
0000
0100
0000
1010
0000
0100
0000
,  // measure 6
1010
0000
0100
0000
0000
2020
0000
3030
1000
0000
0001
0000
1010
0000
0001
0000
,  // measure 7
1000
0001
1000
0000
0001
1000
0001
0000
0010
0100
1000
0000
0100
0010
0100
0010
,  // measure 8
0100
0010
0200
0000
0000
0000
0310
0000
0100
0000
2001
0000
0001
0000
3001
0000
,  // measure 9
0010
0100
1010
0100
0010
0100
0010
0110
,  // measure 10
1001
2000
0000
0001
3001
0020
0000
0130
,  // measure 11
0010
0100
2010
0100
0010
3100
0110
1001
,  // measure 12
0000
0002
0000
0103
0010
0101
0010
0200
,  // measure 13
0000
0300
2000
0000
0000
0000
0010
0000
3100
0000
1001
0000
0010
0000
0100
0000
,  // measure 14
0010
0220
0000
0000
0330
1000
0100
1000
,  // measure 15
0010
0000
1001
0000
0001
0000
0000
0000
1000
0001
1000
0001
1000
0001
1000
0001
,  // measure 16
0000
0000
0020
0000
0100
1000
0230
0000
0000
0010
0301
0000
0010
0000
0100
0000
,  // measure 17
0010
0000
0100
0000
0010
0100
0010
0100
0010
0000
0100
0000
1001
0000
0100
0000
,  // measure 18
1010
0000
0001
1000
0001
0000
0001
0000
1000
0000
1000
0100
0010
0000
0100
0000
,  // measure 19
0010
0000
0110
0000
1000
0001
1000
0001
1000
0000
1001
0000
0100
0000
0010
0000
,  // measure 20
0000
0000
0020
0000
0000
0000
0130
0000
0200
0000
0000
0300
0001
0000
0020
0000
,  // measure 21
0000
0000
0230
0000
0000
0300
0010
0000
0100
0000
0001
0000
1000
0000
0100
0000
,  // measure 22
0000
0000
0000
2000
0000
0000
0001
0010
0000
0100
0000
0000
3010
0000
0000
0001
0000
0000
0010
0000
0000
0110
0000
0000
,  // measure 23
1000
0101
0000
0220
0330
2002
3003
0220
,  // measure 24
0330
0000
0100
0010
0100
0010
0100
0000
1000
0000
0100
0000
0101
0000
0100
0000
,  // measure 25
0202
0303
1000
0100
1000
0100
1000
0000
1000
0000
0001
0000
1001
0000
0001
0000
,  // measure 26
2002
3003
0100
0010
0100
1000
0100
0010
,  // measure 27
2000
0000
0100
0000
3200
0000
0010
0000
0000
0300
0020
0000
0000
0000
0130
0000
,  // measure 28
1000
0000
0001
0010
0001
0010
0001
0000
0010
0000
0001
0000
1010
0000
0001
0000
,  // measure 29
1010
0000
1000
0010
1000
0010
1000
0000
0100
0000
0001
0000
0110
0000
0001
0000
,  // measure 30
0110
1001
0110
1001
0000
0010
0000
0100
,  // measure 31
0200
0000
0010
0000
0000
0000
0310
0000
0001
1000
0001
1000
0001
1000
0001
0010
,  // measure 32
0100
0000
0010
1000
0010
1000
0010
0000
0100
0000
1000
0000
0101
0000
1000
0000
,  // measure 33
0101
0000
1000
0100
1000
0100
1000
0000
1010
0000
1000
0000
0110
0000
1000
0000
,  // measure 34
0120
0000
0130
0010
0100
1000
0100
1000
,  // measure 35
0002
1000
2003
0001
0000
3010
0100
0110
,  // measure 36
0000
0010
0100
0110
1000
1000
0002
1000
,  // measure 37
2003
0100
0010
0000
3010
0000
1000
0000
0100
0000
1000
0000
0020
0000
0100
0000
,  // measure 38
0000
0000
0100
0030
1000
0000
0101
0000
1000
0000
0101
0000
1000
0000
0101
0000
,  // measure 39
1000
0001
1000
0000
0020
0000
0100
0000
0000
0030
0200
0000
0000
0000
2300
0000
,  // measure 40
0000
0000
0000
3010
0000
0000
0100
0010
0000
0100
0000
0000
0110
0000
0000
2100
0000
0000
0010
0000
0000
3001
0000
0000
,  // measure 41
0110
0000
0010
0000
1000
0010
1000
0010
1000
0001
1000
0000
0001
0000
1001
0000
,  // measure 42
1000
0000
0000
1001
0000
0000
0000
0000
0000
0000
0000
0000
1000
0000
0100
0000
0000
0000
1000
0000
0000
0000
0000
0000
0010
0000
0000
0000
0000
0000
2002
0000
0000
0000
0000
0000
0000
0000
0000
3003
0000
0000
0010
0000
0000
0000
0000
0000
,  // measure 43
0100
0000
0002
0000
0000
0000
2003
0000
3200
0010
0301
0000
1010
0000
0200
0000
,  // measure 44
0000
0000
0000
0310
0000
0000
0100
0010
0000
0100
0000
0000
0110
0000
0000
1020
0000
0000
0000
0000
0000
1000
0000
0000
,  // measure 45
0000
0000
0030
0000
0010
0100
0001
0100
0010
0100
0001
0000
0001
0000
0002
0000
,  // measure 46
1003
0000
0000
0001
0000
0000
0000
0000
0000
0000
0000
0000
0010
0000
0100
0000
0000
0000
0010
0000
0000
0000
0000
0000
0110
0000
0000
0000
0000
0000
0202
0000
0000
0000
0000
0000
0000
0000
0000
0000
0000
0000
0000
0000
0000
0000
0000
0000
,  // measure 47
0303
0000
0002
0000
0000
0003
2100
0000
3012
0000
0000
0000
2103
0000
3210
0000
,  // measure 48
0300
0000
2020
0000
3000
0030
0100
0000
1000
0000
0101
0000
0000
0000
1000
0000
,  // measure 49
0010
0100
1000
0100
0010
0010
1000
0120
,  // measure 50
0000
0000
2030
0000
0000
3000
0001
0000
0001
0000
2000
0000
0000
3000
0010
0000
,  // measure 51
0100
1000
0100
0010
0100
0002
0000
1003
,  // measure 52
0000
0020
0000
1030
0100
0010
0010
0120
,  // measure 53
0000
2030
0000
3001
0110
1000
0100
2002
,  // measure 54
3003
2020
0000
0000
3030
0100
0010
0100
,  // measure 55
2000
0000
0000
0000
3001
0000
0000
0000
0001
1000
0010
1000
0100
1000
0010
1000
,  // measure 56
0001
0000
0000
0010
0000
0100
0010
0000
0000
0100
0000
0000
1010
0000
0000
0100
0000
0000
0010
0000
0000
0100
0000
0000
,  // measure 57
0010
0000
0100
0000
1000
0100
1000
0100
1000
0100
1000
0000
0100
0000
0110
0000
,  // measure 58
0010
0000
0000
0100
0000
0000
2000
0000
0000
0000
0000
0000
0100
0000
0010
3000
0000
0000
0002
0000
0000
0000
0000
0000
0100
0000
0000
0003
0000
0000
1000
0000
0000
0000
0000
0000
0110
0000
0000
0000
0000
0000
0010
0000
0000
0000
0000
0000
,  // measure 59
0100
0000
0010
0000
0100
0010
0100
0010
0100
0000
0100
0000
0100
0000
0110
0000
,  // measure 60
1000
0100
2000
0000
0000
0000
3001
0000
1000
0000
0000
0000
0110
0000
2001
0000
,  // measure 61
0000
3001
0000
0010
1200
0000
0310
0100
,  // measure 62
0000
4004
0000
0000
3003
1000
1000
0001
,  // measure 63
0010
0000
0202
0000
0303
0000
2200
0000
3300
0000
0220
0000
0000
0330
2002
0000
,  // measure 64
0000
3003
0100
1000
0100
1000
0100
0000
0100
0000
1000
0000
0110
0000
0001
0000
,  // measure 65
0110
0000
0100
0010
0100
0010
0100
0000
1000
0000
0100
0000
1001
0000
0010
0000
,  // measure 66
2002
3003
0001
0010
0100
1000
0100
0010
,  // measure 67
1001
0110
2002
0000
3003
0010
0000
0100
,  // measure 68
0000
0000
1000
0010
1000
0010
1000
0000
0010
0000
1000
0000
1010
0000
0001
0000
,  // measure 69
1010
0000
0100
1000
0100
1000
0100
0000
0001
0000
0100
0000
1001
0000
0010
0000
,  // measure 70
1001
2002
3000
1003
0000
0100
0000
0010
,  // measure 71
0200
0000
0010
0000
0010
0000
0300
0000
1000
0100
0010
0001
0010
0100
1000
0100
,  // measure 72
0010
0000
1000
0100
1000
0100
1000
0000
0010
0000
1000
0000
0110
0000
0001
0000
,  // measure 73
1010
0000
0100
0001
0100
0001
0100
0000
0010
0000
1000
0000
0110
0000
0001
0000
,  // measure 74
2020
3030
1000
0100
0001
0010
0100
1000
,  // measure 75
0120
0000
0100
0000
2030
0000
0000
0000
0000
3000
0002
0000
0000
0000
0023
0000
,  // measure 76
0000
1030
0100
0010
0100
0001
0200
0000
,  // measure 77
0301
0000
0100
0010
0100
0000
0010
0000
1000
0000
0010
0000
2010
0000
0010
0000
,  // measure 78
0100
3010
0100
0010
0100
0010
0100
0001
,  // measure 79
0010
0100
1000
0000
2000
0100
0010
0000
0000
0000
3001
0000
0000
0000
1000
0001
,  // measure 80
1000
0001
1000
0000
0100
0000
0010
0000
0100
0000
0010
0000
1000
0000
0001
0000
,  // measure 81
1000
0000
2020
0000
3030
0000
0010
0000
0100
0010
0001
0000
0100
0000
2020
0000
,  // measure 82
0000
3000
0000
0030
1000
0000
0100
0000
0010
0000
0100
0000
0010
0000
0100
0000
,  // measure 83
0010
0000
0002
0000
0000
0000
1003
0000
1001
0000
0000
0000
1000
0100
0020
0000
,  // measure 84
0000
0000
0000
0030
0100
0000
0010
0000
0100
0000
0010
0000
0100
0000
0110
0000
,  // measure 85
2200
0000
0000
3300
0010
0000
0100
0000
0010
0000
0100
0000
1000
0000
1001
0000
,  // measure 86
1020
0000
0130
0010
0100
1000
0100
1001
,  // measure 87
1000
0020
0000
0130
0010
0000
0010
0220
,  // measure 88
0000
0000
0000
0000
0000
0000
0000
0330
0000
0000
0001
0000
0000
0000
0110
0000
,  // measure 89
1001
0000
0000
0000
0002
0000
1003
0000
0000
0000
1000
0100
1000
0100
1000
0000
,  // measure 90
0001
0000
0010
0000
1010
0000
1000
0000
1010
0000
1000
0010
1000
0010
1000
0000
,  // measure 91
0100
0000
0010
0000
1001
0000
0010
0000
0220
0000
0000
0330
0001
0000
0010
0000
,  // measure 92
0100
0000
0010
0000
0100
0000
0010
0000
0020
0000
0000
0030
2000
0000
0000
0000
,  // measure 93
0000
3000
0200
0000
0000
0000
0301
0000
0000
0000
0001
0100
0001
0100
0001
0000
,  // measure 94
0010
0000
1000
0000
1010
0000
0001
0000
1010
0000
0100
1000
0100
1000
0100
0000
,  // measure 95
1000
0100
1001
0010
1001
2000
0000
3001
,  // measure 96
0110
0000
0010
0000
1100
0000
0100
0000
0020
0000
0100
0000
0000
0000
0000
0030
,  // measure 97
1000
0100
0010
0001
0010
0100
0002
0000
0000
0003
0010
0100
0010
0100
0010
0000
,  // measure 98
1000
0000
0100
0000
1001
0000
0010
0000
1001
0000
0100
0010
0100
0010
0100
0000
,  // measure 99
0010
0001
0110
1000
0120
0000
1030
0100
,  // measure 100
0010
0100
0010
0001
0010
0100
0002
0000
,  // measure 101
0000
0003
2000
0000
0000
0000
3001
0000
0000
0000
0010
0000
0100
0000
0010
0000
,  // measure 102
0100
0000
0010
0000
0100
0000
1001
0000
1000
0100
1000
0000
1001
0000
0001
0000
,  // measure 103
1000
0001
0002
1000
1000
1003
1000
0100
,  // measure 104
0010
0000
0100
0000
1000
0000
0100
0000
0002
0010
0100
0000
2003
0000
0000
0000
,  // measure 105
3000
0000
0000
0000
0000
0000
0200
0000
0000
0000
0000
0000
0000
0000
0000
0300
0000
0000
0020
0000
0000
0000
0000
0000
0000
0000
0000
0000
0000
0000
0130
0000
0000
0000
0000
0000
1000
0000
0100
0000
0000
0000
1000
0000
0000
0000
0000
0000
,  // measure 106
1000
0000
1002
0000
0000
0003
2001
0000
0000
0000
3000
0000
0010
0100
0010
0100
,  // measure 107
0010
0000
0000
0100
0000
0000
0010
0000
0000
0000
0000
0000
0100
0000
0000
0000
0000
0000
0010
0000
0000
0000
0000
0000
0010
0000
0000
0110
0000
0000
0000
0000
0000
0000
0000
0000
0001
0000
1000
0000
0000
0000
0001
0000
0000
0000
0000
0000
,  // measure 108
1001
0000
2020
0000
0000
0000
0000
3030
0000
0000
0002
0000
0000
0000
1003
0000
,  // measure 109
0001
0000
0000
0000
0000
0000
1000
0000
0000
0100
0000
0000
0010
0000
0000
0000
0000
0000
0200
0000
0000
0000
0000
0000
0000
0000
0000
0000
0000
0000
0300
0000
0000
0000
0000
0000
1000
0000
0100
0000
0000
0000
1000
0000
0000
0000
0000
0000
,  // measure 110
0100
0000
2020
0000
0000
0000
0000
0000
3030
0000
0000
0000
0001
1000
0001
1000
,  // measure 111
0001
0000
0000
0000
0000
0000
0110
0000
0000
0000
0000
0000
1010
0000
0000
0000
0000
0000
2000
0000
0000
0000
0000
0000
0001
0000
0000
0001
0000
0000
0000
0000
0000
3000
0000
0000
0001
0000
1000
0000
0000
0000
0001
0000
0000
0000
0000
0000
,  // measure 112
0100
0000
0220
0000
0000
0000
0000
0300
0030
0000
0110
0000
0000
0000
1000
0000
,  // measure 113
1010
0000
2100
0012
0000
0000
0000
0000
,  // measure 114
0000
0000
0000
0000
0000
3003
0000
0000
0000
0000
0000
0000
0000
0000
0000
0000
;

//---------------dance-single - Blank----------------
#NOTES:
     dance-single:
     :
     Medium:
     4:
     0.536,0.504,0.274,0.529,0.000,635.000,59.000,114.000,0.000,0.000,0.000,0.536,0.504,0.274,0.529,0.000,635.000,59.000,114.000,0.000,0.000,0.000:
0000
0000
0000
0000
0010
0100
0010
0100
,
0010
0000
0200
0000
0000
0300
0000
0000
1000
0000
0100
0000
1000
0000
0100
0000
,
1000
0000
0200
0000
0000
0300
0000
0000
1000
0000
0001
0000
1000
0000
0001
0000
,
1000
0002
0000
0003
0100
0010
0100
0010
,
0100
2000
0000
3000
0001
0010
0100
1000
,
0100
0000
2000
0000
0000
3000
0000
0000
1000
0000
0100
0000
1000
0000
0100
0000
,
1000
0000
0200
0000
0000
0300
0000
0000
1000
0000
0001
0000
1000
0000
0001
0000
,
1000
0002
0000
0000
0000
0003
0000
0000
,
0000
0200
0000
0310
0100
2000
0000
3001
,
0010
0100
1000
0100
0010
0100
0000
0110
,
0000
0000
2000
0000
0000
0000
0001
0000
3001
0000
2000
0000
0000
3000
0100
0000
,
0010
0100
0010
0100
0010
0100
0000
1001
,
0000
0002
0000
0103
0010
0000
0010
0200
,
0000
0300
0010
0000
0000
0000
0010
0000
0100
0000
0000
0000
0010
0000
0100
0000
,
0000
0220
0000
0000
0330
1000
0100
1000
,
0010
0000
2002
0000
0000
0000
0000
3003
,
0000
0020
0000
2030
0000
3001
0010
0100
,
0010
0000
0200
0000
0000
0000
0000
0300
0000
0000
0100
0000
0000
0000
0100
0000
,
0000
0001
0000
1000
0000
0100
0010
0100
,
0010
0220
0000
0000
0000
0330
0000
0010
,
0000
0000
0020
0000
0000
0000
0130
0000
0200
0000
0000
0300
0010
0000
0020
0000
,
0000
0000
0230
0000
0000
0300
0010
0000
0100
0000
0000
0000
0010
0000
0100
0000
,
0000
2020
0000
0000
3030
0001
0010
0100
,
1000
0101
0000
0110
0000
1001
0000
0110
,
0000
0100
0100
0100
0100
0100
0100
0100
,
0101
1000
1000
1000
1000
1000
1000
1000
,
1001
0000
0100
0010
0100
0010
0100
0010
,
2000
0000
0000
0000
3200
0000
0000
0000
0000
0300
0020
0000
0000
0000
0130
0000
,
0000
1000
0001
1000
0001
1000
0001
1000
,
1001
0100
0010
0100
0010
0100
0010
0100
,
0110
1000
0000
1001
0000
0010
0000
0100
,
0200
0000
0000
0300
2002
0000
0000
3003
,
0000
0010
0010
0010
0100
0100
0100
0100
,
0101
1000
0001
1000
0010
0010
0010
0010
,
0110
0000
0100
0010
0100
1000
0100
1000
,
0002
0000
2003
0000
0000
3010
0000
0110
,
0000
0010
0100
0100
1000
1000
0002
0000
,
2003
0000
3010
1000
0100
1000
0020
0000
,
0000
0000
0000
0030
1000
0000
0001
0000
1000
0000
0001
0000
1000
0000
0001
0000
,
1002
0000
0000
0003
0020
0000
0000
0000
0000
0030
0200
0000
0000
0000
2300
0000
,
0000
3010
0100
0100
0100
0100
0000
0001
,
0110
0000
0001
1000
0001
1000
0001
2002
,
3003
0000
1000
1000
0010
1001
0000
1000
,
0000
0002
0000
2003
3200
0300
0010
0200
,
0000
0300
0100
0010
0100
0020
0000
0000
,
0000
0030
0010
0100
0010
0100
0001
0002
,
1003
0000
0010
0100
0010
0200
0000
0000
,
0300
0000
0002
0000
0000
0003
2000
0000
3002
0000
0000
0000
2003
0000
3200
0000
,
0300
0000
0020
0000
0000
0030
0100
0000
0100
0000
0101
0000
0000
0000
1000
0000
,
0010
0100
1000
0100
0010
0010
0000
0110
,
0000
0000
2000
0000
0000
3000
0001
0000
0001
0000
2000
0000
0000
3000
0010
0000
,
0100
1000
0100
0010
0100
0002
0000
1003
,
0000
0020
0000
1030
0100
0000
0010
0110
,
0000
2000
0000
3001
0010
0000
0100
0010
,
0000
2020
0000
0000
3030
0100
0010
0100
,
2000
0000
3001
0000
0001
1000
0001
1000
,
0001
0020
0000
0130
0000
0100
0010
0100
,
0010
0100
0000
1000
0001
1000
0000
0110
,
0000
0000
2000
0000
0000
3000
0002
0000
0000
0003
1000
0000
0100
0000
0010
0000
,
0100
0010
0000
0010
0100
0010
0000
0110
,
0000
2000
0000
3001
1000
0000
0010
2000
,
0000
3001
0000
0010
0100
0000
0010
0100
,
0000
0000
2020
0000
0000
0000
0000
3000
0030
0000
1000
0000
1000
0000
0001
0000
,
0010
0101
0000
1100
0000
0110
0000
1001
,
0000
0100
0100
0100
0100
0100
0100
0100
,
0110
0100
0100
0100
1000
1000
1000
1000
,
1001
0000
0001
0010
0100
1000
0100
0010
,
0001
0000
2002
0000
3003
0010
0000
0100
,
0000
1000
1000
1000
0010
0010
0010
0010
,
1010
0100
0100
0100
0001
0001
0001
0001
,
1001
0002
0000
1003
0000
0100
0000
0010
,
0200
0000
0000
0000
0000
0000
0300
0000
0020
0000
0000
0000
0000
0030
1000
0000
,
0000
1000
1000
1000
0010
0010
0010
0010
,
1010
0100
0100
0100
0010
0010
0010
0010
,
1010
0000
1000
0100
0001
0010
0100
1000
,
0120
0000
0000
0000
2030
0000
0000
0000
0000
3000
0002
0000
0000
0000
0023
0000
,
0000
1030
0100
0010
0100
0001
0101
0000
,
1000
0000
0100
0010
1000
0010
1010
0000
,
0000
0000
0100
0010
0100
0010
0100
0001
,
0020
0000
2030
0000
0000
3001
0000
1001
,
0000
0010
0100
0010
0100
0010
1000
0001
,
1000
1010
0000
0010
0100
0000
0100
0020
,
0000
0000
0000
0030
1000
0000
0100
0000
0010
0000
0100
0000
0010
0000
0100
0000
,
0010
0002
0000
1003
1000
0000
0100
0020
,
0000
0000
0000
0030
0100
0000
0010
0000
0100
0000
0010
0000
0100
0000
0110
0000
,
0100
0000
0010
0100
0010
0100
1000
1001
,
1000
0000
0001
0010
0100
1000
0100
1001
,
1000
0020
0000
0130
0010
0000
0010
0200
,
0000
0000
0000
0000
0000
0000
0000
0300
0000
0000
0001
0000
0000
0000
1000
0000
,
0001
0000
0001
1000
0000
1000
1000
1000
,
0001
0010
1010
1000
1010
1000
1000
1000
,
0100
0010
1001
0010
0110
0000
0001
0010
,
0100
0000
0010
0000
0100
0000
0010
0000
0020
0000
0000
0030
2000
0000
0000
0000
,
0000
3000
0200
0000
0000
0000
0301
0000
0000
0000
0001
0000
0001
0000
0001
0000
,
0010
0010
0010
0010
1010
0100
0100
0100
,
1000
0000
0001
0000
0001
0000
0001
0000
1001
0000
2000
0000
0000
3000
0001
0000
,
0000
0000
0010
0000
0000
0000
0100
0000
0020
0000
0000
0000
0000
0000
0000
0030
,
2000
0000
0000
0000
0000
3000
0002
0000
0000
0003
0010
0000
0010
0000
0010
0000
,
1000
0001
0001
0001
1001
0100
0100
0100
,
0010
0100
0100
0100
0120
0000
1030
0100
,
0010
0100
0010
0001
0010
0000
0002
0000
,
0000
0003
2000
0000
0000
0000
3001
0000
0000
0000
0010
0000
0100
0000
0010
0000
,
0100
0010
0100
0000
1000
0000
1001
0001
,
1000
0001
0002
0000
0000
0003
1000
0100
,
0010
0100
1000
0100
0002
0000
2003
0000
,
3000
0000
0200
0000
0000
0300
0020
0000
0000
0000
0130
0000
1000
0000
0010
0000
,
1000
0000
0002
0000
0000
0003
2000
0000
0000
0000
3000
0000
0010
0000
0010
0000
,
0010
0010
0100
0010
0010
0000
0001
1000
,
0001
0000
2000
0000
0000
0000
0000
3000
0000
0000
0002
0000
0000
0000
1003
0000
,
0001
0000
0010
0200
0000
0300
1000
1000
,
0100
0020
0000
0000
0030
0000
0001
0001
,
0001
0000
0100
0000
0010
0000
2000
0000
0001
0000
0000
3000
0001
0000
0001
0000
,
0100
0020
0000
0000
0030
0110
0000
1000
,
0010
0000
2000
0002
0000
0000
0000
0000
,
0000
0000
0000
0000
0000
3003
0000
0000
0000
0000
0000
0000
0000
0000
0000
0000
;
