#TITLE:iroha no uta;
#SUBTITLE:;
#ARTIST:Kagamine Rin;
#TITLETRANSLIT:;
#SUBTITLETRANSLIT:;
#ARTISTTRANSLIT:;
#GENRE:;
#CREDIT:;
#BANNER:Iroha Uta.png;
#BACKGROUND:Iroha Uta-bg.png;
#LYRICSPATH:;
#CDTITLE:cdtitle.png;
#MUSIC:iroha uta.mp3;
#OFFSET:0.000;
#SAMPLESTART:0.000;
#SAMPLELENGTH:12.000;
#SELECTABLE:YES;
#BPMS:0.000=172.160
;
#STOPS:
;
#BGCHANGES:;
#KEYSOUNDS:;
#ATTACKS:;

//---------------dance-single - Blank----------------
#NOTES:
     dance-single:
     :
     Hard:
     5:
     0.826,0.781,0.510,0.510,0.183,533.000,57.000,57.000,0.000,1.000,2.000,0.826,0.781,0.510,0.510,0.183,533.000,57.000,57.000,0.000,1.000,2.000:
0000
0000
0000
0000
,
0000
0220
0000
0000
0000
0000
0000
0000
,
0330
2002
0000
3000
2000
0000
0003
3000
,
0220
0000
0000
0300
2000
0000
0030
0000
,
3022
0000
0000
0000
0000
0033
4004
0000
,
0000
0000
0000
0000
,
0000
0000
0000
0000
0000
0000
0000
0000
0000
0000
3003
0000
0000
0000
1000
0001
,
1000
0001
1000
0001
1000
0001
1000
0000
1000
0000
1000
0010
1000
0000
0100
0010
,
0100
0110
1000
0100
0010
0100
0010
1000
,
0000
0100
0001
0010
1200
0000
1300
0000
,
0100
0000
0010
0000
0100
0000
0010
0000
1000
0000
0100
0010
0100
0000
0020
0000
,
0000
0130
0010
0001
0110
0000
1010
0000
,
0100
0010
1000
0001
0010
0001
0000
0110
,
0000
0000
1100
0000
0100
0000
0010
0000
0001
0010
0100
0000
1010
0000
0000
0000
,
0100
0010
0100
0001
0010
0001
0000
0011
,
0000
0000
1010
0000
0100
0000
1000
0000
0020
0000
0000
0000
1000
0030
0100
0000
,
0200
0000
0310
0001
0010
0000
1000
0100
,
0010
0000
0001
0000
0020
0000
1000
0000
0000
0000
1000
0000
0000
0030
1000
0000
,
0100
0000
0002
0000
0100
0000
0000
0003
0100
0000
0020
0000
0000
0000
0130
0000
,
0010
0000
0100
0000
0010
0000
0200
0000
0000
0000
0000
0000
0000
0300
0010
0000
,
0100
0020
0000
1030
0010
1001
0000
0100
,
0001
0100
0000
1010
0002
0000
0000
0010
,
1003
0010
0100
1000
0010
1000
0010
0201
,
0000
0000
0001
0300
0000
0000
0100
0000
1000
0100
0010
0000
0020
0000
0000
0000
,
0130
0000
0000
0000
1000
0000
0001
0000
0020
0000
0000
0000
0100
0030
1000
0000
,
0100
0000
0010
0000
2000
0000
0001
0000
0000
0000
0001
0000
0000
3000
0001
0000
,
0010
0000
0002
0000
1000
0000
0100
0003
1000
0000
0100
0000
0010
0000
0100
0000
,
0010
0100
2010
0000
0001
0001
0010
3001
,
0110
0001
0000
1000
0110
1000
0000
0100
,
1010
0100
0010
0120
1030
0000
0100
0010
,
0001
0010
1000
0100
1000
0100
0001
1100
,
0100
0010
0100
0000
0010
0100
0010
0000
0100
0000
1000
0000
0001
0000
0000
0000
,
0002
1000
0100
1000
0103
0010
0100
0010
,
1000
0001
0100
0010
1001
0010
1000
0100
,
2000
0000
0100
0010
0001
3000
0010
0000
0200
0000
0001
0010
0001
0000
0010
0300
,
0001
0000
0100
0010
1010
0000
0000
0000
0001
0000
0000
0000
0010
0000
0000
0000
,
0200
0000
0000
0000
0000
0000
0000
0000
0310
0000
0000
0000
1100
0000
0010
0001
,
0010
1001
0010
0110
,
1100
0011
0000
1001
0000
1010
0000
0101
,
0000
2000
0000
3001
0000
1000
0010
0100
,
0010
0100
1000
0200
0000
0301
0010
0100
,
1000
0100
0010
0200
0000
1300
0100
0001
,
0010
0100
1010
0100
0010
0100
0001
0010
,
0100
0010
0001
1001
0000
0100
0010
0100
,
1000
0100
1000
0002
0000
1003
0010
0100
,
0000
0010
0100
0010
0100
0001
0000
0110
,
0110
1000
0100
0001
0010
0100
0000
1000
,
0010
0000
1000
0000
0010
0000
0001
0000
0010
0000
0100
0010
0001
0000
0100
0000
,
0010
0100
0010
0200
0000
0310
0100
0001
,
0100
0010
0100
0001
0010
1000
0001
0100
,
0010
1000
0100
0001
0010
0100
1000
0010
,
0100
0001
0010
2000
0000
3001
0100
0001
,
0010
0000
0100
0000
1000
0000
0100
0000
0001
0000
0110
0000
1000
0100
0010
0000
,
1000
0010
1000
0100
0001
0010
0000
2000
,
0001
3001
1001
1010
,
0110
0000
0010
0100
1000
2010
0001
3002
,
0003
0000
1000
0100
1000
0000
1000
0000
0010
0000
2000
0000
3100
0010
0001
0000
,
0110
0000
0010
0000
0100
0000
0002
0003
0010
0100
1000
0000
0110
0000
0010
0000
,
0000
0000
0100
1000
0100
0000
0100
0000
1001
0000
0010
0100
0010
0000
1000
0000
,
0100
0010
0001
0100
0010
0100
1000
0220
,
0000
0000
0000
0000
0000
0000
0330
0000
0000
0001
0000
1000
0000
0001
0000
1000
0000
0001
0000
1000
0000
0002
0000
0000
,
0000
0000
2000
0000
3000
0000
1000
0003
0010
0000
1000
0000
0001
0000
0100
0000
,
0102
0000
0000
0003
0010
0000
0100
0000
0120
0000
0031
0000
1000
0000
0100
0000
,
0010
0000
0100
0000
1000
0000
0001
0000
0010
0000
0100
0010
0100
0000
2001
0000
,
0000
0000
3001
0000
0010
0000
0100
0010
0100
0000
1010
0000
0100
0000
0100
0000
,
0010
0000
0100
0010
1001
0000
0101
0000
0010
0000
0100
0000
0000
0000
0100
0000
,
0010
0100
0010
0000
0100
0000
0001
0000
1000
0000
0001
0000
1000
0010
1000
0000
,
0010
1000
0001
0010
0100
0010
0100
1000
,
0010
1000
1001
0010
0100
0010
0100
0010
,
0100
0010
0100
0001
0010
0100
1000
0100
,
0001
0000
0010
0000
0100
0000
1000
0100
0010
0000
0100
0000
0010
0000
0100
0000
,
1000
0000
0100
0000
0010
0000
0100
0000
0010
0100
1000
0000
0110
0000
1002
0003
,
0010
0100
1000
0000
1000
0000
0010
0000
1000
0000
0010
0000
0100
0010
0001
0000
,
0100
0000
0010
0000
1000
0000
0100
0000
0010
0001
0010
0000
0100
0000
0001
0000
,
0000
0000
0120
0000
0000
0000
0130
0000
1000
0100
0020
0000
0000
0000
1030
0000
,
0001
0010
0100
1000
0010
0100
0000
0202
,
0000
0000
0000
0000
0000
0000
0000
0000
0000
0000
0000
0000
0300
0000
0000
0003
0000
0000
1000
0000
0000
0000
0001
0000
0000
0000
1000
0000
0000
0000
0001
0000
0000
0000
1000
0000
0000
0000
0001
0000
0000
0000
2000
0000
0000
0000
0000
0000
,
0000
0000
0002
0000
3003
0001
0010
0001
,
0010
0100
1000
0100
0010
0001
0010
0100
,
1000
0000
0100
0000
0020
0000
0000
0030
0000
0000
0000
0000
0000
0000
0000
0000
;

//---------------dance-single - Blank----------------
#NOTES:
     dance-single:
     :
     Medium:
     3:
     0.580,0.630,0.215,0.528,0.000,371.000,24.000,59.000,0.000,0.000,0.000,0.580,0.630,0.215,0.528,0.000,371.000,24.000,59.000,0.000,0.000,0.000:
0000
0000
0000
0000
,
0000
0200
0000
0000
0000
0000
0000
0000
,
0300
0002
0000
0003
2000
0000
0000
3000
,
0020
0000
0000
0030
2000
0000
0000
3000
,
0002
0000
0000
0000
0000
0003
2002
0000
,
0000
0000
0000
0000
,
0000
0000
0000
0000
0000
3003
0000
1000
,
0001
1000
0001
1000
0001
1000
0000
0000
,
0000
1001
0010
0100
0010
0100
0010
1000
,
0000
0100
0001
0010
2000
0000
3001
0000
,
0100
0010
0100
0010
0100
0001
0100
0020
,
0000
0130
0010
0000
0110
0000
1010
0000
,
0100
0010
1000
0001
0010
0001
0000
0110
,
0000
0101
0000
0010
0001
0010
0001
0000
,
0100
0010
0100
0001
0010
0001
0000
0011
,
0000
0000
0110
0000
0000
0000
1000
0000
0020
0000
0000
0000
0100
0030
0001
0000
,
0200
0000
0300
0010
0100
0000
0010
0100
,
0010
0000
1000
0000
0020
0000
0000
0000
0000
0000
0000
0000
0000
0030
0000
0000
,
0100
0020
0000
0030
0100
0020
0000
0130
,
0010
0000
0100
0000
0010
0000
0200
0000
0000
0000
0000
0000
0000
0300
0010
0000
,
0100
0020
0000
1030
0010
1000
0000
0100
,
0001
0100
0000
1002
0000
0003
0000
0010
,
1000
0010
0100
1000
0010
1000
0010
1000
,
0020
0000
0030
0100
0000
0010
0020
0000
,
0130
0000
0000
0000
0010
0000
0100
0000
0020
0000
0000
0000
0100
0030
1000
0000
,
0100
0010
0200
0000
0000
0000
0300
0000
,
0010
0100
0010
0100
0001
0100
0010
0100
,
0010
0000
2010
0000
0000
0000
0000
3000
,
0001
1000
0000
0001
1000
0001
0000
0100
,
0010
0100
0001
0100
0000
0000
0100
0010
,
0001
0010
1000
0100
0010
0100
0010
2002
,
0000
0000
0000
3003
,
0220
0000
0000
0330
0010
0000
0100
0000
,
0010
0100
1001
0001
,
2000
0000
0000
0000
0000
3000
0000
0000
0100
0000
0000
0000
0001
0000
0000
0000
,
0010
0100
0001
0010
,
0200
0000
0310
0110
,
0010
1001
0010
0110
,
1000
0001
0000
1000
0000
0010
0000
0201
,
0000
0000
0301
0000
0000
1000
0010
0100
,
0010
0100
0010
0200
0000
0310
0000
0100
,
1000
0100
0010
0200
0000
0310
0001
0010
,
0100
0001
0010
0100
0010
0100
0002
1000
,
0000
1000
0003
1001
0000
0100
0010
0100
,
1000
0200
0000
0302
0000
1003
0000
0000
,
0100
0010
0100
0010
0000
0100
0000
0010
,
0100
0010
0100
0220
0000
0000
0000
0000
,
0000
0000
0000
0330
0000
1000
0001
0100
,
0010
0100
0010
0200
0000
0301
1000
0000
,
0100
0010
0100
0010
0000
1000
0001
0100
,
0010
1000
0100
0001
0010
0100
1000
0010
,
0100
0001
2000
0000
3000
0001
0010
0001
,
0010
0000
1000
0200
0000
0000
0000
0310
,
0000
0100
1000
0100
0001
0010
0000
2000
,
0001
3001
1001
0110
,
1001
0000
0010
0100
0010
2000
0001
3002
,
0000
0000
0000
0000
,
0000
0000
0000
0000
,
0003
2000
0000
0000
0000
3001
1000
0001
,
1000
0001
1000
0001
1000
0001
1000
0002
,
0000
0000
0003
0020
0000
0230
0000
0320
,
0000
0200
0030
0300
0000
0000
0001
0100
,
0001
0000
0010
0100
0010
0000
1000
0100
,
0010
0000
1000
0001
0010
0100
1000
0100
,
0000
0001
0010
0100
0010
0100
0010
0100
,
0010
0100
0001
0100
0010
0100
0000
0100
,
0010
0100
0010
0001
1000
0001
1000
0001
,
1000
0001
0100
0010
0000
0010
2000
0000
,
3000
0010
0100
0020
0000
0000
0000
0000
,
0000
0000
0000
0000
0000
0000
0000
0030
,
0100
0010
0000
1000
0010
1000
0010
0100
,
1000
0100
0010
0100
0010
1000
0010
1000
,
0010
1000
0010
0100
1000
0010
0100
0001
,
0100
0010
1000
0100
0010
0010
0100
0001
,
0000
0120
0000
0130
1000
0020
0000
1030
,
0001
0010
0100
1000
0010
0100
0000
0202
,
0000
0000
0303
2000
0000
3002
0000
2003
,
0000
0002
3000
0000
,
0000
0003
0000
0000
;

//---------------dance-single - Blank----------------
#NOTES:
     dance-single:
     :
     Challenge:
     7:
     1.000,1.000,1.000,0.706,0.384,655.000,150.000,79.000,0.000,81.000,0.000,1.000,1.000,1.000,0.706,0.384,655.000,150.000,79.000,0.000,81.000,0.000: // measure 0
0000
0000
0000
0000
,  // measure 1
0000
0000
0220
0001
1000
0001
1000
0001
1000
0001
1000
0001
1000
0001
1000
0001
,  // measure 2
1330
2102
0000
3000
2100
0000
0003
3000
,  // measure 3
1220
0000
0000
0300
2002
0000
0030
0003
,  // measure 4
3222
0000
0000
0000
0000
0000
0000
0000
0000
0000
0333
0000
2102
0010
0100
0010
,  // measure 5
0100
0010
0100
0010
0100
0010
0100
0010
0100
0010
0100
0010
0100
0010
0100
0010
,  // measure 6
0100
0010
0100
0010
0100
0010
0100
0010
0100
0010
3103
0010
0100
0010
1000
0001
,  // measure 7
1000
0000
0001
0000
1000
0000
0001
0000
1100
0001
1100
0001
1100
0000
0000
0000
1010
0000
0000
0000
1000
0000
0011
0000
1000
0000
0000
0000
0100
0000
0010
0000
,  // measure 8
0100
0110
1000
0100
0010
0100
0010
1000
,  // measure 9
1001
0100
0001
0010
1200
0011
1300
0010
,  // measure 10
0100
0000
0010
0000
0100
0000
0010
0000
1000
0000
0100
0010
0100
0000
0020
0000
,  // measure 11
0100
0130
0010
0001
0110
1001
2220
3330
,  // measure 12
0100
0000
0010
0100
0010
0000
1001
0000
0010
0000
0101
0000
1010
0000
0220
0000
,  // measure 13
0330
0000
1100
0000
0100
0000
0010
0000
1001
0010
0100
0000
1110
0000
0000
0000
,  // measure 14
0100
0000
0010
0000
0100
0000
0001
0000
0010
0000
0001
0000
0001
0010
1100
0000
,  // measure 15
0000
0000
1010
0000
0100
0000
1000
0000
0020
0000
0100
0000
1000
0030
0100
0000
,  // measure 16
0200
0010
0310
0001
0020
0130
1000
0100
,  // measure 17
0010
0000
0001
0000
0120
0000
1001
0000
0000
0000
1001
0000
0000
0030
1001
0000
,  // measure 18
0100
0000
0002
0000
0100
0000
0010
0003
0100
0000
0020
0000
1000
0000
0130
0000
,  // measure 19
0010
0000
0100
0000
0010
0000
0200
0010
0001
0000
0010
0000
0001
0300
0010
0000
,  // measure 20
0100
0020
0100
1030
0010
1001
0110
0100
,  // measure 21
0001
0100
0011
1010
0002
0010
0100
0010
,  // measure 22
1003
0010
0100
1000
0010
1000
0010
0221
,  // measure 23
1000
0000
0001
0330
0000
0000
0100
0000
1000
0100
0010
0000
0020
0000
0100
0000
,  // measure 24
0230
0000
0010
0000
1300
0000
0001
0000
1020
0000
0100
0000
0100
0030
1000
0000
,  // measure 25
0100
0000
0010
0000
2001
0000
0011
0000
0000
0000
0101
0000
0000
3000
0001
0000
,  // measure 26
0010
0000
0002
0000
1000
0000
0100
0003
1000
0000
0100
0000
0010
0000
0100
0000
,  // measure 27
0010
0100
2010
0001
0001
0001
0010
3001
,  // measure 28
0110
0000
1001
0000
0110
0000
1000
0000
0110
0000
1000
0100
0010
0000
0100
0000
,  // measure 29
1010
0100
0010
0120
1030
1001
0100
0010
,  // measure 30
0001
0010
1000
0100
1000
0100
0001
1100
,  // measure 31
0100
0010
0100
0000
0010
0100
0010
0000
0100
0000
1000
0000
0001
0010
0100
0010
,  // measure 32
0002
1000
0100
1000
0103
0010
0100
0010
,  // measure 33
1010
0001
0100
0010
1001
0010
1000
0100
,  // measure 34
2000
0000
0100
0010
0001
3000
0010
0000
0200
0000
0001
0010
0001
0000
0010
0300
,  // measure 35
0001
0000
0100
0010
0100
0010
0000
0000
0111
0000
1100
0000
0110
0000
1001
0000
,  // measure 36
0210
0000
1001
0000
1001
0000
0000
0000
0311
0000
0000
0000
1100
0000
0010
0001
,  // measure 37
0010
0000
0110
0000
1001
0000
0100
0000
0010
0000
0100
0000
0110
1000
0100
0000
,  // measure 38
1100
0011
0000
1001
1001
1010
1010
0101
,  // measure 39
0101
0000
2001
0000
0001
0000
3001
0000
0001
1000
0001
1000
0010
0000
0100
0000
,  // measure 40
0010
0100
1001
0200
0010
0301
0010
0100
,  // measure 41
1010
0100
0010
0200
0001
0310
0100
0001
,  // measure 42
0010
0100
1010
0100
0010
0100
1001
0010
,  // measure 43
0100
0010
0001
2002
3113
0100
0010
0100
,  // measure 44
1000
0000
0100
0000
1000
0000
0002
0100
1000
0000
1003
0000
0010
0000
0100
0010
,  // measure 45
0100
0010
0100
0010
0100
0001
0000
0110
,  // measure 46
0110
1000
0100
0001
0010
0100
1001
1000
,  // measure 47
0010
0000
1000
0000
0010
0000
0001
0000
0010
0000
0100
0010
0001
0000
0100
0000
,  // measure 48
0010
0100
0010
0200
0010
0310
0100
0001
,  // measure 49
0100
0010
0100
0001
0010
1000
0001
0100
,  // measure 50
0010
1000
0110
0001
1010
0100
1001
0010
,  // measure 51
0100
0001
0010
2000
0110
3001
0100
0001
,  // measure 52
0010
0000
0100
0000
1000
0000
0100
0000
0001
0000
0110
0000
1000
0100
0010
0000
,  // measure 53
1000
0010
1000
0100
0001
0010
0000
2000
,  // measure 54
0101
3011
1101
1011
,  // measure 55
1110
0000
0000
0000
1011
0000
0100
0000
1000
0000
2000
0100
0010
0000
3002
0000
,  // measure 56
0003
0000
1010
0100
1000
0000
1001
0000
0011
0000
2010
0000
3100
0010
1001
0000
,  // measure 57
0110
0000
0020
0000
0130
0000
1002
0003
0010
0100
1000
0000
0110
0000
1020
0000
,  // measure 58
0130
0000
0100
1001
0100
0000
0100
0000
1001
0000
0010
0100
0020
0000
1030
0000
,  // measure 59
0100
0010
0001
0100
0010
0100
1000
0220
,  // measure 60
0000
0000
0000
0000
0000
0000
1331
0000
0000
0011
0000
1100
0000
0011
0000
1100
0000
0011
0000
1100
0000
0012
0000
0000
,  // measure 61
1000
0000
2000
0000
3000
0000
1000
0003
0010
0000
1000
0000
0001
0000
0100
0000
,  // measure 62
0102
0010
0100
0003
0010
0000
0100
0010
0120
0000
0031
1000
0001
0000
0100
0010
,  // measure 63
0101
0000
0100
0000
1000
0100
0011
0000
0010
0000
0100
0010
0100
0000
2001
0000
,  // measure 64
0001
0010
3001
0000
0010
0000
0100
0010
0100
0000
1010
0000
0100
0000
0100
0000
,  // measure 65
1010
0000
0100
0010
1001
0000
0101
0000
0010
0000
0100
0000
0000
0000
0100
0000
,  // measure 66
0010
0100
0010
0000
0100
0000
0001
0000
1000
0000
0001
0000
1000
0010
1000
0000
,  // measure 67
0010
1000
0002
0010
0100
0010
0103
1000
,  // measure 68
0010
1000
2002
0010
0100
0010
0100
0010
,  // measure 69
0100
0010
3103
0001
0010
0100
1000
0100
,  // measure 70
0001
0000
0010
0000
0100
0000
1000
0100
0010
0000
0100
0000
0010
0000
0100
0000
,  // measure 71
1000
0000
0100
0000
0010
0000
0100
0000
0010
0100
1000
0000
0110
0000
1002
0003
,  // measure 72
0010
0100
1001
0000
1000
0000
0010
0000
1000
0000
0110
0000
0100
0010
1001
0000
,  // measure 73
0100
0000
0010
0000
1000
0000
0100
0000
0010
0001
1010
0000
0200
0000
0301
0000
,  // measure 74
0000
0000
0120
0000
0000
0000
0130
0000
1001
0100
0020
0000
0100
0000
1030
0000
,  // measure 75
0001
0010
0100
1000
0010
0100
0000
0202
,  // measure 76
0000
0000
0000
0000
0000
0000
0000
0000
0000
0000
0000
0000
0300
0000
0000
0003
0000
0000
1100
0000
0000
0000
0011
0000
0000
0000
1100
0000
0000
0000
0011
0000
0000
0000
1100
0000
0000
0000
0011
0000
0000
0000
2002
0000
0000
0000
0000
0000
,  // measure 77
0000
0003
0002
0000
3003
0101
1010
0101
,  // measure 78
1010
0101
1010
0110
0011
0101
1010
0110
,  // measure 79
2000
0000
0000
3000
0000
0000
0000
0000
0000
0000
0000
0000
0000
0000
0000
0000
;
