#VERSION:0.81;
#TITLE:Fantastic Baby;
#SUBTITLE:;
#ARTIST:Big Bang;
#TITLETRANSLIT:;
#SUBTITLETRANSLIT:;
#ARTISTTRANSLIT:;
#GENRE:K Pop;
#ORIGIN:;
#CREDIT:;
#BANNER:Fantastic Baby.png;
#BACKGROUND:Fantastic Baby-bg.png;
#JACKET:;
#CDIMAGE:cdtitle.png;
#DISCIMAGE:;
#LYRICSPATH:;
#CDTITLE:;
#MUSIC:FANTASTIC BABY.mp3;
#OFFSET:0.000;
#SAMPLESTART:100.000;
#SAMPLELENGTH:12.000;
#SELECTABLE:YES;
#BPMS:0.000=130.000;
#STOPS:;
#DELAYS:;
#WARPS:;
#TIMESIGNATURES:0.000=4=4;
#TICKCOUNTS:0.000=4;
#COMBOS:0.000=1;
#SPEEDS:0.000=1.000=0.000=0;
#SCROLLS:0.000=1.000;
#FAKES:;
#LABELS:0.000=Song Start;
#BGCHANGES:0.000=FANTASTIC.avi=1.000=0=0=1=====,
99999=-nosongbg-=1.000=0=0=0 // don't automatically add -songbackground-
;
#KEYSOUNDS:;
#ATTACKS:
;

//---------------dance-single - Blank----------------
#NOTEDATA:;
#CHARTNAME:;
#STEPSTYPE:dance-single;
#DESCRIPTION:Blank;
#CHARTSTYLE:;
#DIFFICULTY:Hard;
#METER:6;
#RADARVALUES:0.594,0.577,0.488,0.559,0.133,747.000,117.000,134.000,0.000,0.000,1.000,0.000,0.000,0.594,0.577,0.488,0.559,0.133,747.000,117.000,134.000,0.000,0.000,1.000,0.000,0.000;
#CREDIT:Blue Army;
#OFFSET:0.000;
#BPMS:0.000=130.000
;
#STOPS:;
#DELAYS:;
#WARPS:;
#TIMESIGNATURES:0.000=4=4
;
#TICKCOUNTS:0.000=4
;
#COMBOS:0.000=1
;
#SPEEDS:0.000=1.000=0.000=0
,84.000=0.000=0.000=0
,84.750=1.000=0.000=0
,123.250=3.000=0.000=0
,123.500=1.000=0.000=0
,127.250=3.000=0.000=0
,127.500=1.000=0.000=0
,226.000=0.100=0.000=0
,227.500=1.000=0.000=0
,266.750=2.500=0.000=0
,267.000=1.000=0.000=0
,270.750=2.500=0.000=0
,271.000=1.000=0.000=0
,274.750=2.500=0.000=0
,275.000=1.000=0.000=0
,282.750=2.500=0.000=0
,283.000=1.000=0.000=0
,286.750=2.500=0.000=0
,287.000=1.000=0.000=0
,290.750=2.500=0.000=0
,291.000=1.000=0.000=0
,294.000=0.500=0.000=0
,295.000=1.000=0.000=0
,334.750=2.000=0.000=0
,335.000=1.000=0.000=0
,402.000=0.200=0.000=0
,403.500=1.000=0.000=0
,442.750=2.500=0.000=0
,443.000=1.000=0.000=0
,446.750=2.500=0.000=0
,447.000=1.000=0.000=0
,450.750=2.500=0.000=0
,451.000=1.000=0.000=0
,458.750=2.500=0.000=0
,459.000=1.000=0.000=0
,462.750=2.500=0.000=0
,463.000=1.000=0.000=0
,466.750=2.500=0.000=0
,467.000=1.000=0.000=0
;
#SCROLLS:0.000=1.000
,51.000=0.700
,51.500=1.000
,76.000=0.700
,83.000=1.000
,84.000=3.000
,84.750=1.000
,116.000=0.000
,116.250=1.000
,135.500=0.500
,136.250=1.000
,139.500=0.200
,140.250=1.000
,143.500=0.200
,144.250=1.000
,220.750=0.000
,221.000=1.000
,221.250=0.000
,221.500=1.000
,222.000=0.000
,222.250=1.000
,226.000=3.000
,227.500=1.000
,292.000=0.000
,292.125=1.000
,292.250=0.000
,292.375=1.000
,292.500=0.000
,292.625=1.000
,292.750=0.000
,292.875=1.000
,293.000=0.500
,293.750=1.000
,402.000=3.000
,403.500=1.000
,468.000=0.000
,468.125=1.000
,468.250=0.000
,468.375=1.000
,468.500=0.000
,468.625=1.000
,468.750=0.000
,468.875=1.000
,503.500=0.500
,504.000=1.000
;
#FAKES:;
#LABELS:0.000=Song Start
;
#ATTACKS:TIME=5.538461:LEN=0.115385:MODS=Drunk, Roll, Overhead:TIME=7.384615:LEN=0.115385:MODS=50% Tornado, Overhead:TIME=9.230769:LEN=0.115384:MODS=50% Tornado, Blink, Overhead:TIME=12.923077:LEN=0.230769:MODS=-35% Mini, Overhead:TIME=14.769230:LEN=0.115385:MODS=Drunk, 50% Tornado, Overhead:TIME=16.615383:LEN=0.115385:MODS=Flip, Overhead:TIME=38.769230:LEN=0.115383:MODS=Confusion, Mini, 50% Tornado, Reverse, Overhead:TIME=44.307690:LEN=0.115387:MODS=50% Tornado, Overhead:TIME=44.769230:LEN=0.115383:MODS=50% Tornado, Overhead:TIME=45.230766:LEN=0.115387:MODS=50% Tornado, Overhead:TIME=45.923077:LEN=0.230766:MODS=Drunk, 50% Tornado, Bumpy, Overhead:TIME=48.000000:LEN=0.230766:MODS=50% Tornado, Roll, Overhead:TIME=50.307690:LEN=1.846153:MODS=Twirl, Overhead:TIME=53.538460:LEN=0.115383:MODS=Mini, Overhead:TIME=105.230766:LEN=0.230766:MODS=Confusion, -35% Mini, Blink, Overhead:TIME=110.769226:LEN=0.115387:MODS=50% Tornado, Overhead:TIME=111.230766:LEN=0.115387:MODS=50% Tornado, Overhead:TIME=111.692307:LEN=0.115379:MODS=50% Tornado, Overhead:TIME=112.384613:LEN=0.230766:MODS=Mini, 50% Tornado, Twirl, Overhead:TIME=114.461533:LEN=0.346153:MODS=Dizzy, -35% Mini, Overhead:TIME=118.153839:LEN=0.115387:MODS=50% Tornado, Overhead:TIME=118.615379:LEN=0.115387:MODS=50% Tornado, Overhead:TIME=119.076920:LEN=0.115387:MODS=50% Tornado, Overhead:TIME=186.461533:LEN=0.230774:MODS=Drunk, Confusion, Mini, Blink, Overhead:TIME=192.000000:LEN=0.115372:MODS=50% Tornado, Overhead:TIME=192.461533:LEN=0.115387:MODS=50% Tornado, Overhead:TIME=192.923065:LEN=0.115387:MODS=50% Tornado, Overhead:TIME=193.615372:LEN=0.346161:MODS=45% XMode, Overhead:TIME=195.692307:LEN=0.115372:MODS=Mini, 45% XMode, Overhead:TIME=199.384613:LEN=0.115387:MODS=45% XMode, Overhead:TIME=199.846146:LEN=0.115387:MODS=50% Tornado, Overhead:TIME=200.307678:LEN=0.115387:MODS=45% XMode, Overhead:TIME=208.615372:LEN=0.115387:MODS=45% XMode, Overhead:TIME=209.076920:LEN=0.115387:MODS=50% Tornado, Overhead:TIME=209.538452:LEN=0.115387:MODS=45% XMode, Overhead:TIME=230.769226:LEN=0.288452:MODS=Confusion, Mini, Flip, 50% Tornado, 45% XMode, Reverse, Overhead:TIME=232.269226:LEN=0.230759:MODS=-35% Mini, Overhead;
#NOTES:
0000
0000
0000
0000
,
0000
0000
0000
0000
,
0000
0000
0000
0000
,
2000
0000
0001
0010
0001
0010
0002
3003
,
0002
0000
1000
0100
1000
0100
2000
3003
,
0200
0000
0010
0001
0010
0001
0320
0030
,
1000
0100
0010
0100
0000
0001
0020
0000
,
0200
0330
0100
0010
0100
1000
0100
0000
,
2002
3000
0013
0100
1000
0100
0020
0030
,
0200
0000
0310
0100
0010
0100
2000
0000
,
3001
0010
0100
2000
3000
0100
0200
0000
,
0300
0001
0010
0100
2000
0000
3100
0001
,
0010
0000
0100
0010
1010
0000
0200
0310
,
0000
0100
0010
0100
1000
0100
0100
0020
,
0000
0000
1030
4000
0000
0000
3001
0001
,
0000
0010
0100
1000
0002
0000
1003
0020
,
0130
0000
0010
0100
2000
0000
3001
0001
,
0000
0010
0100
2000
0000
3100
0010
0200
,
0000
0310
0010
0110
0000
2002
0000
3003
,
1010
0000
1000
0100
1000
0000
0110
0000
,
0101
0000
0001
0100
0002
0000
0013
0000
,
2002
0000
3003
0010
0100
1000
0100
0110
,
1001
0000
0000
0000
1000
0000
0100
0000
0010
0000
0000
0000
1000
0000
0010
0100
,
0010
0000
1000
0100
0001
0010
0100
1000
,
0002
0000
2003
0000
3002
0000
0103
0020
,
0000
0000
0030
0100
0010
0100
1000
0101
,
2000
0000
0000
0000
0000
0000
3000
0000
0010
0000
0000
0000
0110
0000
0010
0001
,
0020
0000
0100
0000
0130
0000
1000
0001
,
0110
0000
1010
0000
0101
0000
0020
0130
,
2001
0000
3001
1000
0001
0000
0100
0000
0010
0000
0100
0000
2000
0000
0002
0000
,
3003
0000
0001
0000
0010
0000
0100
0000
1000
0000
0200
0000
0000
0300
0010
0000
,
0000
0010
0100
0001
0010
0100
0000
0101
,
0000
0000
1000
0100
1000
0000
0010
0000
1000
0000
0100
0000
0010
0000
0100
0000
,
0001
0010
0100
1000
0100
1001
0000
2000
,
0000
3000
0001
0010
0001
0000
0010
0000
0200
0000
0000
0000
0300
0000
0110
0000
,
0000
1000
0100
0010
0020
0000
0030
1001
,
0000
0010
0100
1000
0100
1000
1001
0000
,
0110
0000
0000
0000
1000
0000
0100
0000
0002
0000
0000
0000
0103
0000
1000
0100
,
1000
0000
0100
0000
0010
0000
0100
0010
0100
0000
0010
0000
0100
0000
1000
0000
,
0200
0000
0000
0300
2000
0000
0000
0000
3001
0000
0000
0000
0010
0100
0010
0100
,
0010
0000
0100
0010
0001
0100
0010
0001
0100
0010
0100
0010
1000
0000
0100
0000
,
0110
0000
0000
0000
1000
0000
0000
0000
1002
0000
0000
0000
1003
0001
1000
0000
,
0020
0000
0000
0000
0130
0000
0110
0000
2000
0000
0000
0000
3001
1000
0001
0000
,
0200
0000
0000
0000
2300
0000
3000
0000
0101
0000
0000
0000
0110
0000
1000
0001
,
1000
0001
0010
0100
0010
0100
0010
0100
1000
0010
1000
0010
1000
0000
0010
0100
,
0010
0201
1000
0301
,
0101
0000
1000
0000
0010
0100
1000
0010
,
0000
1010
0000
0100
0010
0001
0100
0010
,
0000
1001
0000
0100
0001
0010
0100
1000
,
0000
0110
0000
1002
0000
1000
1003
0000
,
0020
0000
0130
0000
1000
0100
0010
0020
,
0000
1030
0000
0010
1000
0010
0100
0001
,
0000
0101
0000
0000
1000
0010
0100
1000
,
0000
0000
0110
0000
0000
0000
2002
0000
0000
3003
0100
0000
0010
0000
0100
0000
,
2000
0001
0001
0001
,
3001
0000
1000
1000
0000
0001
0000
1000
1000
0000
0001
0000
1000
0001
0000
1000
,
0001
0000
1000
0001
0000
1000
0001
0000
2002
0000
0000
0000
0000
0000
0000
3003
,
0220
0000
0330
1000
0001
0010
0100
0010
,
0101
0000
0000
0000
2010
0000
0000
0000
3010
0000
0000
0000
1010
0000
0010
1000
,
0020
0000
2030
0000
3100
0001
0010
0100
,
2002
3003
0202
0303
0220
0330
1000
0020
,
0000
0000
0030
0100
0010
0100
1000
0010
,
0202
0000
0000
0000
0000
0000
0303
0000
0010
0000
0000
0000
1001
0000
0010
0001
,
0020
0000
0100
0030
0100
0100
0010
0100
,
2000
0000
3002
0000
0023
0000
0130
0200
,
0010
0000
0300
0010
0110
1000
0001
0110
,
2001
0000
0010
0010
0001
3001
1010
0000
,
0210
0000
1000
1000
0001
0301
1001
0000
,
0021
0000
1000
1000
0100
0130
1010
0000
,
2000
0000
3002
0000
0103
0000
0010
0100
,
2000
0000
0100
0001
0100
3001
1001
0000
,
0120
0000
1000
0100
1000
0130
1001
0000
,
0120
0000
0001
0001
0100
0130
0110
0000
,
1000
0001
1000
0001
2000
0000
0000
3000
2002
0000
0000
0000
3003
0000
0010
0000
,
0100
0100
0000
0010
0100
0010
0010
0100
,
0100
0101
0000
1000
1000
0010
1100
0100
,
0010
0010
0000
1000
0100
0001
0010
1000
,
0010
0000
2000
0010
3010
0000
0100
0000
,
0101
1001
0000
1000
0100
0010
1000
0100
,
1000
0000
0000
1100
0000
0000
0010
0000
0100
0000
0001
0000
0010
0000
0100
0000
,
0101
0000
0000
0101
0000
0000
0010
0000
0100
0000
0000
1000
0000
0000
0100
0000
,
0001
0000
1000
0010
0200
0000
2300
0000
,
3001
1000
1000
0100
0010
1000
0100
0010
,
0100
0010
0001
0010
0200
0000
0310
0000
,
0010
0100
1000
0100
0001
0010
0100
1000
,
0010
0100
0010
0100
1010
0010
0100
0000
,
0010
0100
0000
0000
0100
0010
0000
0000
0201
0000
0000
0000
1300
0000
0000
0000
,
0010
0000
0001
0000
0010
0000
0001
0000
0000
1100
0000
0000
0100
0000
0000
0000
0000
0000
0101
0000
0000
0000
0000
0000
,
1010
0010
0000
0000
1010
0010
0000
0000
1010
0010
0000
0000
0110
0010
0000
0000
,
0101
0000
1000
0110
0110
0000
1000
0000
,
0101
0000
1000
0000
0110
1000
0001
0100
,
0000
0110
0000
0000
1000
0001
0100
0020
,
0000
0031
0000
0000
1000
0010
0100
2000
,
0000
3100
0000
1001
0000
1000
0010
0000
,
0110
0000
1000
0000
0001
0100
1000
0010
,
0000
1010
0000
0010
0001
0010
0001
0100
,
0000
1001
0000
0000
0010
1000
0010
0200
,
0000
0310
0000
1010
0000
0100
0010
0100
,
0020
1000
1000
1000
,
1030
0000
1000
1000
0000
0001
0000
1000
1000
0000
0001
0000
1000
1000
0000
0001
,
1000
0000
0001
1000
0000
0001
1000
0000
2020
0000
0000
0000
0000
0000
3030
0000
,
2002
0000
3003
0001
0010
0100
1000
0110
,
1010
0000
0000
0000
2000
0000
0000
0000
3001
0000
0000
0000
1010
0000
0010
0100
,
0010
0000
0200
0000
0301
1000
0100
0010
,
0020
0000
2030
0000
3200
0000
0301
0002
,
0000
0000
0003
1000
0100
0010
0100
0101
,
2000
0000
0000
0000
0002
0000
3003
0000
0010
0000
0000
0000
1010
0000
0010
0100
,
0020
0000
2030
0000
3100
0001
0010
0100
,
2000
0000
3002
0000
2000
0003
3010
0020
,
1000
0000
0030
0100
0010
0100
1010
0000
,
0102
0000
1000
1000
0010
0013
1010
0000
,
0120
0000
0001
0001
1000
1030
1001
0000
,
2010
0000
0010
0010
0100
3100
1001
0000
,
0020
0000
0000
0030
2000
0000
0000
0000
3200
0000
0000
0300
0001
0000
0001
0000
,
2000
0000
3010
0100
0010
0110
1010
0000
,
0002
0000
0100
0100
1000
0100
1003
0000
,
0010
0000
2000
0010
0010
3001
0101
0000
,
0100
0010
0100
0010
0200
0000
0300
0000
0110
0000
0000
0000
1001
0000
0000
0000
,
0002
0000
0000
0000
1003
0000
0000
0010
0200
0000
0300
0000
0110
0000
0001
0010
,
0002
0003
0110
0000
1010
0000
1001
0000
,
1000
0000
0000
0000
0001
0000
0000
1000
0001
0000
0000
0000
0110
0000
1000
0100
,
2000
3010
0001
1001
,
0010
0000
0000
0000
0100
0000
0000
1000
0100
0000
0000
0000
0110
0000
1000
0001
,
2000
3000
1010
0000
0100
0000
0101
0000
,
2000
0000
0000
0000
3010
0000
0000
0100
0010
0000
0000
0000
0110
0000
0000
0000
,
2002
0000
3003
0100
0010
0100
0010
0110
;

//---------------dance-single - Blank----------------
#NOTEDATA:;
#CHARTNAME:;
#STEPSTYPE:dance-single;
#DESCRIPTION:Blank;
#CHARTSTYLE:;
#DIFFICULTY:Challenge;
#METER:8;
#RADARVALUES:0.786,0.842,1.000,0.717,0.188,898.000,250.000,172.000,0.000,1.000,2.000,0.000,0.000,0.786,0.842,1.000,0.717,0.188,898.000,250.000,172.000,0.000,1.000,2.000,0.000,0.000;
#CREDIT:;
#OFFSET:0.000;
#BPMS:0.000=130.000
;
#STOPS:;
#DELAYS:;
#WARPS:;
#TIMESIGNATURES:0.000=4=4
;
#TICKCOUNTS:0.000=4
;
#COMBOS:0.000=1
;
#SPEEDS:0.000=1.000=0.000=0
;
#SCROLLS:0.000=1.000
;
#FAKES:;
#LABELS:0.000=Song Start
;
#NOTES:
0000
0000
0000
0000
,
0000
0000
0000
0000
,
0000
0000
0000
0000
,
2001
0000
0001
0010
0001
0010
0002
3003
,
1002
0000
1000
0100
1000
0100
2000
3003
,
0201
0000
0010
0001
0010
0001
0320
0030
,
1000
0100
0010
0100
0000
1001
0120
0000
,
0200
0000
0330
0000
0100
0000
0010
0000
0100
0000
1000
0000
0220
0000
0000
0330
,
2002
3000
0013
0100
1000
0100
0022
0033
,
0210
0000
0310
0100
0010
0100
2010
0000
,
3001
0010
0100
2020
3030
0100
0220
0000
,
0330
1001
0110
0101
2010
0001
3100
0001
,
0010
1100
0100
0010
1010
1001
0200
0310
,
1010
0100
0010
0100
1000
0011
0100
0020
,
1000
1000
1030
2001
0001
0001
3001
0001
,
0110
0011
1100
1010
0102
1000
0103
0020
,
0130
0010
0010
0100
2001
0001
3001
0001
,
0110
0010
0100
2001
0010
3100
0010
0200
,
0010
0310
0010
0110
0000
2002
0000
3003
,
0110
0000
1010
0100
1010
0000
0110
0000
,
0101
0000
0011
0100
0012
0000
0013
0000
,
2002
0000
3003
0010
0100
1000
0100
0110
,
1001
0000
0001
0000
1000
0000
0100
0000
0010
0000
0100
0000
1000
0000
0010
0100
,
0020
0130
1000
0100
1001
0010
0110
1000
,
0002
0000
1000
0000
2003
0000
0001
0000
3002
0000
0100
0000
0103
0000
0020
0100
,
1000
0100
0030
0100
0010
0100
1000
0101
,
2000
0000
0001
0000
0010
0000
3001
0010
0100
0000
1001
0000
0110
0000
0010
0001
,
0020
0000
0100
1000
0130
0010
1000
0001
,
0110
0100
1010
0010
0101
0010
0020
0130
,
2001
0000
3001
1000
0001
0000
0100
0000
0010
0000
0100
0000
2001
0000
0001
0000
,
3001
0000
0001
0000
0010
0000
0100
0000
1001
0000
0210
0000
0000
0300
0010
0000
,
1100
0010
0100
0001
0010
0201
0000
0301
,
1001
0000
1000
0100
1000
0000
0110
0000
1000
0000
0100
0000
0010
0000
0100
0000
,
0001
0010
0100
0000
0100
0000
1000
0000
0100
0000
1002
0000
0000
0000
2003
0000
,
0000
3000
0001
0010
0001
0000
0010
0000
0200
0000
0000
0000
0310
0000
0110
0000
,
1001
1000
0100
0010
2020
0000
3030
1001
,
0110
0010
0100
1000
0100
1000
2002
3003
,
0100
0010
0002
0000
1003
0000
0200
0000
0302
0000
0000
0000
0103
0000
1000
0100
,
1000
0000
0110
0000
0010
0000
0100
0010
0100
0000
1010
0000
0101
0000
1010
0000
,
0210
0000
0000
0300
2000
0000
0000
0000
3001
0000
0000
0000
0011
0100
0011
0100
,
0011
0000
0100
0010
0001
0100
0010
0001
0100
0010
0100
0010
1001
0000
0100
0000
,
0110
1000
0100
0000
1010
0000
0000
0000
1002
0000
0000
0000
1003
0001
1000
0000
,
0020
0000
0000
0000
0130
0000
0110
0000
2000
0000
0000
0000
3001
1000
0001
0000
,
0200
0000
0000
0000
2300
0000
3000
0000
0101
0000
0000
0000
0110
0000
1100
0001
,
1100
0001
1010
0100
1010
0100
1010
0100
1001
0010
1001
0010
1001
0000
1010
0100
,
2020
3030
0201
0000
0001
0000
0301
0000
,
0101
0000
1000
0000
0010
0100
1000
0010
,
0000
1010
0000
0100
0010
0001
1100
0020
,
0030
1001
0010
0100
0001
0010
0100
1000
,
0100
0110
0001
1002
1000
1000
1003
0100
,
0020
0100
0130
0000
1000
0100
0010
0020
,
0000
1030
0000
0010
1000
0010
0100
0201
,
0000
0301
1001
0010
1000
0010
0100
2000
,
3001
0000
0110
0000
0110
0000
2002
0000
0000
3003
0100
0000
0010
0000
0100
0000
,
2000
0000
0000
0010
0001
0000
0020
0000
0000
0030
0000
0010
0001
0000
0020
0000
,
3030
0000
0001
1100
0000
0011
0000
1100
0001
0000
0001
0000
1000
0011
0000
1100
,
0001
0000
1000
0011
0000
1100
0001
0000
2002
0000
0000
0000
0000
0000
0000
3003
,
0220
0000
0330
1100
0011
1010
0101
0110
,
0202
0000
0303
0000
2010
0000
0000
0000
3010
0000
0000
0000
1010
0000
0010
1000
,
0020
1000
2030
0001
3100
0001
0010
0100
,
1001
0000
0010
0000
0101
0000
1000
0000
0110
0000
1001
0000
1000
0000
0020
0100
,
1000
0100
0030
0100
0010
0100
1000
0010
,
0202
0000
0300
0000
1000
0000
0103
0000
0010
0000
0100
0000
1001
0000
0010
0001
,
0020
0000
0100
1030
0100
0100
0010
0100
,
2000
0001
3002
0010
0023
0100
0130
0200
,
0010
0000
0310
0010
0110
1000
0001
0110
,
2001
0000
0000
0000
0010
0000
0010
0000
0001
0000
3001
0000
1010
0000
0010
0100
,
0210
0000
0000
0000
1000
0000
1000
0000
0001
0000
0301
0000
1001
0000
0010
0001
,
0021
0000
1000
1000
0100
0130
1010
0000
,
2001
0000
0001
0000
3002
0000
0100
0000
0103
0000
0010
0000
0010
0000
1000
0100
,
2000
0000
0000
0000
0100
0000
0001
0000
0100
0000
3001
0000
1001
0000
0100
0010
,
0120
0000
0000
0000
1000
0000
0100
0000
1000
0000
0130
0000
1001
0000
0010
0100
,
0120
0000
0001
0001
0100
0130
0220
0330
,
1100
0001
1100
0001
1100
0000
0000
0000
2002
0000
0000
0000
3003
0000
0020
0000
,
0100
0130
1001
0010
0200
0010
0320
0100
,
0130
0202
0303
1000
1000
0010
1100
0200
,
0010
0310
1001
1000
0100
0001
0010
1001
,
0020
0000
2030
0010
3010
0000
0100
0000
,
0101
1001
0110
1000
0100
0010
1001
0100
,
1001
0000
0000
1100
0000
0000
0010
0000
0100
0000
0001
0000
0010
0000
0100
0000
,
0101
0000
0000
0101
0000
0000
0010
0000
0100
0000
0000
1000
0000
0000
0210
0000
,
0302
0000
2003
3020
0230
0000
2300
0001
,
3001
1000
1000
0100
0010
1000
0110
0010
,
0101
0010
1001
0010
0210
0000
0310
0000
,
0010
0100
1000
0100
0001
0010
0100
1000
,
0010
0100
0010
0100
1010
0010
0100
0000
,
0010
0100
0000
0000
0100
0010
0000
0000
0201
0000
0000
0000
1300
0000
0000
0000
,
0110
0000
0001
0000
0010
0000
1001
0000
0000
1100
0000
0000
0100
0000
0000
0000
0000
0000
0101
0000
0000
0000
0000
0000
,
1010
0110
0000
0000
1010
0110
0000
0000
1010
0110
0000
0000
0110
0011
0000
0000
,
0101
0010
0100
0000
1001
0000
0110
0000
0110
0000
0000
0000
1001
0000
0000
0000
,
0101
0000
1000
0000
0110
1000
0001
0100
,
1001
0110
0000
0010
1000
0001
0100
0010
,
0100
0011
0110
0100
1000
0010
0100
1000
,
0001
1100
0010
0001
0110
1000
0010
0000
,
0110
0000
1000
0001
0001
0100
1000
0010
,
0010
1010
0100
0010
0001
0010
0001
0100
,
0010
1001
0100
0010
0010
1000
0010
0100
,
1001
0010
0110
1000
1001
0100
0010
0100
,
0020
0000
0000
0100
1000
0000
0200
0000
0000
0300
0000
0100
1000
0000
1000
0000
,
1030
0000
1000
1100
0000
0011
0000
1100
1000
0000
0001
0000
1000
1100
0000
0011
,
1000
0000
0001
1100
0000
0011
1000
0000
2020
0000
0000
0000
0000
0000
3030
0000
,
2002
0000
3003
0001
0010
0100
1000
0110
,
1010
0000
0100
0000
2000
0000
0010
0000
3001
0000
0110
0000
1010
0000
0010
0100
,
0020
0100
0130
0001
0001
1000
0100
0010
,
0020
1000
2030
0100
3200
0001
0301
0002
,
1000
0000
1103
1000
0100
0010
0100
0101
,
2000
0000
0000
0000
0002
0000
3003
0000
0010
0000
0110
0000
1010
0000
0010
0100
,
0020
1000
2030
0100
3100
0001
0010
0100
,
2010
0001
3002
1000
1000
0013
0010
0020
,
1000
0000
0130
0100
0010
0100
1010
0000
,
0102
0000
0000
0000
1000
0000
1000
0000
0010
0000
0013
0000
1010
0000
0100
0010
,
0120
0000
0001
0001
1000
1030
1001
0000
,
2010
0000
0000
0000
0010
0000
0010
0000
0100
0000
3100
0000
1001
0000
1000
0100
,
0020
1030
2000
0000
3100
0011
0101
1001
,
2000
0000
0000
0000
3010
0000
0100
0000
0010
0000
0110
0000
1010
0000
0100
0010
,
0102
0000
0000
0000
0100
0000
0100
0000
1000
0000
0100
0000
1003
0000
1000
0100
,
0010
0000
2000
0010
0010
3001
0202
0303
,
1100
0011
1100
0011
0200
0000
0300
0000
0220
0000
0330
0000
2002
0000
3003
0000
,
0002
0000
1000
0000
1003
0000
0000
0010
0200
0000
0300
0000
0110
0000
0001
0010
,
0002
0000
0003
0000
0110
0000
1000
0100
1010
0000
0010
0100
2002
0000
3003
0000
,
1010
0000
0000
0000
0001
0000
0000
1000
0001
0000
0000
0000
0110
0000
1000
0100
,
2000
0000
0000
0000
3010
0000
0100
0010
0001
0000
0100
0010
2002
0000
3003
0000
,
0020
0000
0000
0000
0130
0000
0000
1000
0100
0000
0000
0000
0110
0000
1000
0001
,
2000
0000
3000
0000
1010
0000
0100
0010
0100
0000
0001
0010
0202
0000
0303
0000
,
2002
0000
0003
0000
3010
0000
0000
0100
0010
0000
0000
0000
0110
0000
0000
0000
,
2002
0000
3003
1100
0011
1100
0011
0440
,
0000
0330
0000
0000
;

//---------------dance-single - BIGBANG----------------
#NOTEDATA:;
#CHARTNAME:;
#STEPSTYPE:dance-single;
#DESCRIPTION:BIGBANG;
#CHARTSTYLE:;
#DIFFICULTY:Edit;
#METER:10;
#RADARVALUES:1.000,1.000,1.000,1.000,0.227,937.000,561.000,271.000,4.000,287.000,2.000,0.000,0.000,1.000,1.000,1.000,1.000,0.227,937.000,561.000,271.000,4.000,287.000,2.000,0.000,0.000;
#CREDIT:;
#OFFSET:0.000;
#BPMS:0.000=130.000
;
#STOPS:;
#DELAYS:;
#WARPS:;
#TIMESIGNATURES:0.000=4=4
;
#TICKCOUNTS:0.000=4
;
#COMBOS:0.000=1
;
#SPEEDS:0.000=1.000=0.000=0
;
#SCROLLS:0.000=1.000
,87.500=0.500
,88.000=1.000
,226.000=0.000
,228.000=3.000
,228.250=1.000
,293.000=0.500
,294.000=1.000
,402.000=0.000
,404.000=4.000
,404.250=1.000
;
#FAKES:;
#LABELS:0.000=Song Start
;
#NOTES:
0000
0000
0000
0000
,
0000
0000
0000
0000
,
0000
0000
0000
0000
,
2112
0000
0100
0010
0100
0010
0200
3303
,
2112
0000
0010
0100
0010
0100
0020
3033
,
2211
0000
0010
0001
0010
0001
0322
3033
,
1012
1100
0010
1100
0003
1001
2122
0000
,
0200
0000
0330
0000
3113
0000
1010
0000
0101
0000
1010
0000
2220
0000
0000
3330
,
2112
3000
0113
1100
1010
0101
2022
0033
,
3212
0000
1310
0110
1010
0113
2011
0000
,
3111
1110
1101
2222
3333
2002
0220
0000
,
3003
1331
0110
0101
2010
0101
3100
0011
,
0110
1100
0101
0110
1010
1001
1210
0311
,
1010
0101
1010
0110
1001
1011
0101
0220
,
1001
1001
1031
2001
0011
0011
3011
0311
,
0110
0011
1100
1010
0102
1000
0103
1120
,
0131
1010
0011
0110
2011
0101
3011
1001
,
0111
1010
0101
2001
0011
3110
1010
0201
,
1010
0311
1010
0220
0000
2002
0000
3333
,
1210
0000
1310
0101
1012
0000
2113
0000
,
3211
0000
0311
1100
2012
0000
0223
3000
,
2332
0000
3003
0110
1100
1010
0101
1110
,
1011
0000
0101
0000
1010
0000
0101
0000
1010
0000
0110
0000
1001
0000
0011
1100
,
0021
0000
0130
1010
0100
0000
0110
0000
1001
0000
1001
0000
0110
0000
1000
0000
,
1002
0100
1000
0000
2103
0000
0011
0000
3002
0010
0100
0000
0103
0000
0020
0100
,
1000
2200
3330
0110
0111
1100
1000
0101
,
2000
0000
0001
0000
0010
0000
3001
0010
0100
0000
1101
0000
0110
0000
0010
1001
,
0220
0300
1100
1001
1130
0110
1001
0011
,
1110
0101
1010
0110
0101
0110
0121
1130
,
2111
0000
3011
1100
0011
0000
2112
0000
0110
0000
3113
0000
2011
0000
0101
0000
,
3011
0000
0101
0000
1010
0000
0110
0000
1001
0000
0210
0000
0000
0300
1101
0010
,
1100
0000
0011
0000
0110
0000
0011
1100
0011
0000
0201
0000
0011
0000
1311
0110
,
1001
0000
1001
0110
1001
0000
0110
0000
1000
0000
0100
0000
0010
0000
0100
0000
,
0101
0010
1100
0000
0100
0000
1000
0000
0100
0000
1222
0000
0000
0000
2333
0000
,
0000
3000
0011
0110
0011
0000
1020
0000
0200
0000
1030
0001
0310
0000
0110
0000
,
1001
1010
0101
1010
2020
0000
3030
1111
,
0110
0000
0011
0000
0110
0000
1100
0011
1100
0000
1100
0000
2112
0000
3003
0000
,
1001
0110
1002
0000
1003
0000
0200
0000
0302
0000
0000
0000
0103
0000
1001
0110
,
1001
0000
1110
0000
0011
0000
0101
1010
0101
0000
1110
0000
0111
0000
1110
0000
,
0221
1000
0001
0300
2000
0000
0100
0000
3232
0000
0303
0000
0011
1100
0011
1100
,
0011
0000
1100
0110
0011
1100
0110
0011
1100
0011
1100
0110
1011
0000
0110
0000
,
0110
1001
0110
0000
1220
0000
0000
0000
1002
0000
0000
0000
1333
0001
1000
0000
,
2020
0000
0000
0000
0130
0000
3110
0000
2221
0000
0000
0000
3331
1100
0011
0000
,
1212
0000
0000
0000
2320
0000
3003
0000
0202
0000
0333
0000
0110
0000
1110
0011
,
1110
0101
1011
0110
1011
0110
1011
0110
1101
0110
1101
0011
1111
0000
1110
0101
,
2220
3330
1221
0000
1001
0000
1331
0000
,
0101
1010
0101
1000
0110
0100
1001
0010
,
0101
1010
0010
1100
0110
0001
1100
0220
,
0330
1001
1010
0110
1001
0010
0100
1000
,
0100
0110
0001
1002
1000
1000
1003
0100
,
0020
0100
0130
1001
1000
0100
0010
1020
,
0100
1030
0101
0010
1000
0010
0100
0201
,
0010
0301
1001
0010
1000
0010
0100
2000
,
3001
0000
0110
0000
0110
0000
2002
0000
0000
3003
0100
0000
0010
0000
0100
0000
,
2000
0000
0000
0010
0001
0000
0020
0000
0000
0030
0000
0010
0001
0000
0020
0000
,
3030
0000
0001
1100
0000
0011
0000
1100
0001
0000
0001
0000
1000
0011
0000
1100
,
0001
0000
1000
0011
0000
1100
0001
0000
2222
0000
0000
0000
0000
0000
0000
3333
,
0220
0000
0330
1100
0011
1010
0101
0110
,
0212
0000
1303
0000
2010
0000
0101
0000
3012
0000
0000
0000
1010
0000
0010
1000
,
0023
1000
2030
0001
3100
1001
0110
0100
,
1001
0000
0010
0000
0101
0000
1000
0000
0110
0000
1001
0000
1000
0000
0020
0100
,
1000
0100
0030
0100
0010
0100
1000
0110
,
1212
0000
0300
0000
1000
0000
0103
0000
0010
0000
0100
0000
1001
0000
0110
1001
,
0120
0000
0100
1030
0100
0100
0010
0100
,
2100
0011
3102
1010
0123
1100
0131
0210
,
1010
0000
0310
0010
0110
1000
0001
0110
,
2002
0000
0000
0000
0010
0000
0010
0000
0100
0000
3103
0000
1111
0000
0010
0100
,
0220
0000
0000
0000
1000
0000
1000
0000
0001
0000
0331
0000
1111
0000
0010
0001
,
0022
0000
1000
1000
0100
0133
1111
0000
,
2101
0000
0011
0000
3102
0000
0110
0000
1103
0000
0110
0000
0011
0000
1000
0100
,
2020
0000
0000
0000
0100
0000
0001
0000
0100
0000
3031
0000
1111
0000
0100
0010
,
0122
0000
0000
0000
1000
0000
0100
0000
1000
0000
0133
0000
1111
0000
0010
0100
,
0120
2000
0000
0000
0001
0000
0001
0000
0100
0000
3130
0000
2222
0000
3333
0000
,
1100
0011
1100
0011
2200
0000
0000
3300
2222
0000
0000
0000
3333
0000
2020
0000
,
0101
3131
1001
0010
0200
0010
0320
0100
,
0130
1000
0202
0000
0303
0000
1010
0000
1001
0000
0110
0000
1100
0000
0200
0000
,
0010
0310
1001
1000
0100
0001
0010
1001
,
0021
0100
1000
0000
2030
0000
0010
0000
3022
0000
0000
0000
0133
0000
0000
0000
,
0101
1001
0110
1000
0100
0010
1001
0100
,
1112
0000
0000
1113
0000
0000
0010
0000
0100
0000
0001
0000
0010
0000
0100
0000
,
0101
0000
0000
0101
0000
0000
0010
0000
0100
0000
0000
1000
0000
0000
0210
0000
,
0302
0010
0100
0000
2003
0000
3020
0000
0230
0000
0000
0000
2300
0000
0011
0000
,
3011
1100
1100
0101
0110
1001
0110
1010
,
0101
0110
1001
0010
2212
0000
3313
0000
,
0010
0100
1000
0100
0001
0010
0100
1000
,
0010
0100
1000
0000
1001
0000
0100
0000
1010
0000
0010
0000
1100
0011
0000
0000
,
0011
1100
0000
0000
1100
0011
0000
0000
0221
0000
0000
0000
1330
0000
0000
0000
,
0110
0000
1001
0000
0110
0000
1001
0000
0000
1110
0000
0000
2121
0000
0000
0000
0000
0000
3131
0000
0000
0000
0000
0000
,
1011
1110
0000
0000
1011
1110
0000
0000
1011
1110
0000
0000
0111
1011
0000
0000
,
0111
0011
0110
0000
1001
0000
0110
0000
0110
0000
0000
0000
1001
0000
0000
0000
,
0101
0010
1000
0001
0110
1000
0001
0100
,
1001
0110
1100
0010
1000
0001
0100
0010
,
0100
0011
0110
0100
1000
0010
0100
1000
,
0001
1100
0010
0001
0110
1000
0010
0000
,
1221
0000
0000
0000
1000
0000
0001
0330
0001
0000
0100
0000
1000
0000
0010
0000
,
0010
1010
0100
0010
0001
0010
0001
0100
,
0010
1001
0100
0010
0010
1000
0010
0100
,
1001
0010
0110
1000
1001
0100
0010
0100
,
0020
0000
0000
0100
1000
0000
0200
0000
0000
0300
0000
0100
1000
0000
1000
0000
,
1030
0000
1000
1100
0000
0011
0000
1100
1000
0000
0001
0000
1000
1100
0000
0011
,
1000
0000
0001
1100
0000
0011
1000
0000
2222
0000
0000
0000
0000
0000
0330
3003
,
2002
0000
3003
0101
1010
0101
1010
0110
,
1010
0000
0100
0000
2000
0100
0010
0000
3001
0000
0110
0000
1010
0000
1010
0101
,
0020
0000
1100
0000
0131
0000
0021
0030
0101
0000
1010
0000
0101
0000
0010
0000
,
1020
1100
2031
0110
3201
0011
1301
0102
,
1200
0010
1303
1000
0100
0010
0100
0101
,
2000
0000
0001
0000
0002
0000
3003
0000
0010
0000
0110
0100
1010
0000
0010
0100
,
0020
1100
2031
0110
3101
0011
0110
1100
,
2010
0011
3102
1100
1010
0113
1010
0021
,
1100
0000
0131
1100
0011
0110
1011
0000
,
1212
0000
0000
0000
1000
0000
1000
0000
0010
0000
0313
0000
1111
0000
0100
0010
,
0220
0000
0001
0001
1000
1330
1111
0000
,
2012
0000
0000
0000
0010
0000
0010
0000
0100
0000
3103
0000
1111
0000
1000
0101
,
0020
1130
2020
0000
3130
0011
0101
1001
,
2002
0000
0000
0000
0010
0000
0100
0000
0010
0000
3113
0000
1111
0000
0100
0010
,
0122
0000
0000
0000
0100
0000
0100
0000
1000
0000
0130
0000
1113
0000
1000
0100
,
0012
0000
2000
0010
0010
3103
2222
3333
,
1100
0011
1100
0011
0200
0000
0300
0000
1221
0000
0330
0000
2112
0000
3003
0000
,
0112
0000
1000
0000
1003
0000
0100
0010
0200
0000
0300
0000
0110
0000
1001
0110
,
2002
0000
0000
0000
3113
0000
1000
0100
1010
0000
0011
0100
2012
0000
3003
0000
,
1221
0000
0000
0000
0001
0000
0000
1000
0001
0000
0330
0000
0110
0000
1001
0110
,
2002
0000
0000
0000
3113
0000
0100
0010
0001
0000
0100
0010
2002
0000
3003
0000
,
2020
0000
0000
0000
3131
0000
0000
1000
0110
0000
0000
0000
0110
0000
1000
0001
,
2002
0000
3000
0003
1010
0000
1100
0011
1100
0000
0101
1010
0222
0000
0333
0000
,
2202
0000
0000
0000
3313
0000
0000
1100
0022
0000
0000
0000
1133
0000
0000
0000
,
2M22
0M00
0M00
0M00
3033
0000
1100
0000
0011
0000
1100
0000
0011
0000
2442
0000
,
0000
3333
0000
0000
;

//---------------dance-single - Blank----------------
#NOTEDATA:;
#CHARTNAME:;
#STEPSTYPE:dance-single;
#DESCRIPTION:Blank;
#CHARTSTYLE:;
#DIFFICULTY:Medium;
#METER:2;
#RADARVALUES:0.261,0.289,0.125,0.067,0.000,393.000,30.000,16.000,0.000,0.000,0.000,0.000,0.000,0.261,0.289,0.125,0.067,0.000,393.000,30.000,16.000,0.000,0.000,0.000,0.000,0.000;
#CREDIT:;
#OFFSET:0.000;
#BPMS:0.000=130.000
;
#STOPS:;
#DELAYS:;
#WARPS:;
#TIMESIGNATURES:0.000=4=4
;
#TICKCOUNTS:0.000=4
;
#COMBOS:0.000=1
;
#SPEEDS:0.000=1.000=0.000=0
;
#SCROLLS:0.000=1.000
;
#FAKES:;
#LABELS:0.000=Song Start
;
#NOTES:
// measure 0
0000
0000
0000
0000
,  // measure 1
0000
0000
0000
0000
,  // measure 2
0000
0000
0000
0000
,  // measure 3
0002
0000
0000
0003
,  // measure 4
2000
0000
0000
0000
0000
3000
0000
0000
,  // measure 5
0002
0000
0000
0000
0000
0003
0000
0000
,  // measure 6
0100
0010
0100
0010
0000
0100
0100
0000
,  // measure 7
0200
0000
0000
0000
0000
0300
0000
0000
,  // measure 8
0020
0000
0000
0000
0000
0030
0000
0000
,  // measure 9
0200
0000
0000
0000
0000
0300
0000
0000
,  // measure 10
0010
0100
0010
0100
0000
0010
0010
0000
,  // measure 11
0000
0000
1000
0000
,  // measure 12
0001
0000
0000
0000
1000
0000
0100
0100
,  // measure 13
0000
0000
0000
0000
0010
0000
0000
1000
,  // measure 14
0000
0001
0000
1000
,  // measure 15
0000
0000
1000
0000
,  // measure 16
0100
0000
0000
0000
0010
0000
0100
0010
,  // measure 17
0000
0000
0001
1000
0000
0000
0100
0010
,  // measure 18
0000
1001
0000
1000
0000
1000
0000
0000
,  // measure 19
0100
0010
0100
0100
,  // measure 20
1000
0100
1000
0010
,  // measure 21
0200
0300
0010
0100
,  // measure 22
2000
3000
0001
1000
,  // measure 23
0001
0000
0000
0010
,  // measure 24
0100
0000
1000
0000
0100
0000
0010
0100
,  // measure 25
0000
0000
0000
1001
,  // measure 26
0100
0000
1000
0100
,  // measure 27
0010
0000
0000
0010
,  // measure 28
0100
0000
0001
0000
1000
0000
0100
2000
,  // measure 29
0000
3000
0000
1000
,  // measure 30
0000
0000
0100
0000
0010
0000
0000
0001
,  // measure 31
0000
0000
1000
0000
0100
0000
0000
0010
,  // measure 32
0000
1000
0100
1000
,  // measure 33
0100
0000
1000
0000
0100
0000
0000
0010
,  // measure 34
0000
0000
0000
0000
0000
0000
0000
1000
,  // measure 35
0000
0000
0000
0000
0000
0000
0000
0001
,  // measure 36
0000
0000
0100
0000
,  // measure 37
1000
0100
1000
0100
,  // measure 38
0010
0100
0010
0100
,  // measure 39
0010
0100
0110
0000
,  // measure 40
1000
0001
1000
0001
,  // measure 41
1000
0001
1001
0000
,  // measure 42
0110
0000
1100
0000
,  // measure 43
0110
0000
0110
0000
,  // measure 44
1000
0100
1000
0100
,  // measure 45
0001
1000
1001
0000
,  // measure 46
0010
0100
0010
0100
,  // measure 47
0010
0100
0010
0100
,  // measure 48
0010
0100
0010
0100
,  // measure 49
0010
0100
0010
0100
,  // measure 50
1000
0001
1000
0001
,  // measure 51
1000
0001
1000
0001
,  // measure 52
1000
0001
1000
0001
,  // measure 53
1000
0001
1000
0000
,  // measure 54
0020
0000
0000
0000
,  // measure 55
0000
0000
0000
0000
,  // measure 56
0000
0000
0130
0000
,  // measure 57
1000
0000
0000
0000
,  // measure 58
0100
1000
0100
0010
,  // measure 59
0200
0300
0000
0010
,  // measure 60
0100
0000
1000
0000
0100
0000
1000
0001
,  // measure 61
0000
0000
0100
0010
,  // measure 62
0110
0000
1000
0001
,  // measure 63
2000
0000
0000
3000
0010
0000
0100
0000
,  // measure 64
0001
0000
1000
0000
0001
0000
1000
0001
,  // measure 65
0000
0000
0100
0010
,  // measure 66
0010
0100
0010
1100
,  // measure 67
0010
0100
0010
1001
,  // measure 68
0001
1000
0001
1001
,  // measure 69
0100
0010
0100
0010
,  // measure 70
1000
0010
1000
1010
,  // measure 71
0100
0001
0100
0101
,  // measure 72
0100
0010
0010
1010
,  // measure 73
1000
0100
2000
3000
,  // measure 74
0100
0000
0010
0100
,  // measure 75
0010
0100
0000
0000
1000
0000
0100
0000
,  // measure 76
0001
1000
0000
0000
1000
0000
0100
0000
,  // measure 77
0010
0100
0010
0100
,  // measure 78
0010
0100
0000
0000
0000
0000
0010
0000
,  // measure 79
0001
1000
0000
0000
0100
0000
0010
0000
,  // measure 80
0100
0000
0100
0010
0010
0000
0100
0010
,  // measure 81
0100
0100
0010
0100
,  // measure 82
1000
0100
0010
0001
,  // measure 83
0100
0010
0001
1001
,  // measure 84
1000
0100
1000
0100
,  // measure 85
0010
0100
0110
0000
,  // measure 86
1000
0001
1000
0100
,  // measure 87
0010
0100
0010
0110
,  // measure 88
0100
0000
0100
0000
,  // measure 89
0100
0100
0100
0100
,  // measure 90
0010
1000
0100
0010
,  // measure 91
0100
0010
0100
0010
,  // measure 92
0010
0001
0010
0001
,  // measure 93
0010
0001
0010
0001
,  // measure 94
1000
0100
1000
0100
,  // measure 95
1000
0100
1000
0100
,  // measure 96
1000
0100
1000
0100
,  // measure 97
1000
0100
1000
0100
,  // measure 98
0002
0000
0000
0000
,  // measure 99
0000
0000
0000
0000
,  // measure 100
0000
0000
0000
0000
,  // measure 101
1003
0000
0000
0000
0110
0100
0010
0000
,  // measure 102
1000
0000
1000
0000
,  // measure 103
2000
0000
0000
3000
0000
0000
0010
0000
,  // measure 104
0100
0000
0010
0000
0100
0000
0010
0100
,  // measure 105
0000
0000
0000
1000
0100
1000
0100
1000
,  // measure 106
0010
0100
0010
0100
,  // measure 107
0020
0000
0000
0030
0100
0000
0010
0000
,  // measure 108
1000
0000
0100
0000
0010
0000
0100
0010
,  // measure 109
0000
0000
0100
0000
,  // measure 110
1100
0010
0100
0110
,  // measure 111
0100
0010
1000
1100
,  // measure 112
0010
0100
0010
1010
,  // measure 113
0010
0000
0001
0000
0100
0000
1000
0100
,  // measure 114
0010
0100
0010
1001
,  // measure 115
0100
0010
0100
1001
,  // measure 116
0100
0010
0100
1001
,  // measure 117
0100
1000
0100
0000
0010
0000
0000
0000
,  // measure 118
1000
0000
1000
0100
,  // measure 119
0000
0010
0100
0110
,  // measure 120
1000
0100
1000
0100
,  // measure 121
0000
0001
0010
0101
,  // measure 122
0100
1000
0100
0010
,  // measure 123
0000
0100
0001
0100
,  // measure 124
1000
0100
0010
0100
,  // measure 125
0110
0000
0000
0000
0000
0000
1000
0001
;
