#VERSION:0.81;
#TITLE:Face;
#SUBTITLE:;
#ARTIST:Nu'est;
#TITLETRANSLIT:;
#SUBTITLETRANSLIT:;
#ARTISTTRANSLIT:;
#GENRE:K Pop;
#ORIGIN:;
#CREDIT:;
#BANNER:Face.png;
#BACKGROUND:Face-bg.png;
#JACKET:;
#CDIMAGE:;
#DISCIMAGE:;
#LYRICSPATH:;
#CDTITLE:cdtitle.png;
#MUSIC:Face.mp3;
#OFFSET:0.000;
#SAMPLESTART:100.000;
#SAMPLELENGTH:12.000;
#SELECTABLE:YES;
#BPMS:0.000=124.000;
#STOPS:;
#DELAYS:;
#WARPS:;
#TIMESIGNATURES:0.000=4=4;
#TICKCOUNTS:0.000=4;
#COMBOS:0.000=1;
#SPEEDS:0.000=1.000=0.000=0;
#SCROLLS:0.000=1.000;
#FAKES:;
#LABELS:0.000=Song Start;
#BGCHANGES:-0.041=Face-bg.png=1.000=0=0=1=====,
99999=-nosongbg-=1.000=0=0=0 // don't automatically add -songbackground-
;
#KEYSOUNDS:;
#ATTACKS:
;

//---------------dance-single - Blank----------------
#NOTEDATA:;
#CHARTNAME:;
#STEPSTYPE:dance-single;
#DESCRIPTION:Blank;
#CHARTSTYLE:;
#DIFFICULTY:Hard;
#METER:6;
#RADARVALUES:0.564,0.754,0.389,0.326,0.270,724.000,87.000,73.000,0.000,0.000,0.000,0.000,0.000,0.564,0.754,0.389,0.326,0.270,724.000,87.000,73.000,0.000,0.000,0.000,0.000,0.000;
#CREDIT:Blue Army;
#OFFSET:0.020;
#BPMS:0.000=124.000
;
#STOPS:;
#DELAYS:;
#WARPS:;
#TIMESIGNATURES:0.000=4=4
;
#TICKCOUNTS:0.000=4
;
#COMBOS:0.000=1
;
#SPEEDS:0.000=1.000=0.000=0
,211.000=1.500=0.000=0
,211.250=1.000=0.000=0
,215.000=0.500=0.000=0
,215.250=1.000=0.000=0
,221.500=0.500=0.000=0
,223.250=1.000=0.000=0
,250.500=0.000=0.000=0
,252.500=1.000=0.000=0
,256.500=0.500=0.000=0
,257.000=1.000=0.000=0
,257.500=0.500=0.000=0
,258.000=1.000=0.000=0
,258.500=0.500=0.000=0
,259.000=1.000=0.000=0
,261.000=2.000=0.000=0
,261.250=1.000=0.000=0
,261.500=2.000=0.000=0
,261.750=1.000=0.000=0
,262.000=0.500=0.000=0
,262.500=1.000=0.000=0
,272.750=10.000=0.000=0
,275.750=1.000=0.000=0
,282.750=0.800=0.000=0
,283.000=0.600=0.000=0
,283.250=0.400=0.000=0
,283.500=0.200=0.000=0
,283.750=0.000=0.000=0
,284.000=1.000=0.000=0
,290.750=1.200=0.000=0
,291.000=1.400=0.000=0
,291.250=1.600=0.000=0
,291.500=1.800=0.000=0
,291.750=2.000=0.000=0
,292.000=1.200=0.000=0
,292.250=1.000=0.000=0
,304.000=1.500=0.000=0
,304.500=1.000=0.000=0
,334.500=0.200=0.000=0
,335.500=1.000=0.000=0
,442.500=1.100=0.000=0
,443.000=1.200=0.000=0
,443.500=1.300=0.000=0
,444.000=1.400=0.000=0
,444.500=1.500=0.000=0
,445.000=1.600=0.000=0
,445.500=1.700=0.000=0
,446.000=1.800=0.000=0
,446.500=1.900=0.000=0
,447.000=1.800=0.000=0
,447.500=1.700=0.000=0
,448.000=1.600=0.000=0
,448.500=1.500=0.000=0
,449.000=1.400=0.000=0
,449.500=1.300=0.000=0
,450.000=1.200=0.000=0
;
#SCROLLS:0.000=1.000
,57.000=0.000
,57.125=1.000
,57.250=0.000
,57.375=1.000
,57.500=0.000
,57.625=1.000
,57.750=0.000
,57.875=1.000
,86.500=2.500
,87.500=1.000
,122.000=0.500
,122.750=1.000
,124.000=0.500
,125.000=1.000
,126.000=0.500
,127.000=1.000
,145.000=0.000
,145.125=1.000
,145.250=0.000
,145.375=1.000
,145.500=0.000
,145.625=1.000
,206.500=2.500
,207.750=1.000
,221.500=4.000
,223.250=1.000
,242.000=0.500
,243.000=1.000
,244.000=0.500
,245.000=1.000
,246.000=0.500
,246.500=1.000
,251.500=0.500
,252.000=15.000
,252.500=1.000
,256.500=0.600
,259.500=1.000
,262.000=3.000
,262.500=1.000
,263.000=0.000
,263.125=1.000
,263.250=0.000
,263.500=1.000
,263.750=0.000
,264.500=1.000
,264.750=0.000
,265.500=1.000
,276.000=3.000
,276.500=1.000
,282.500=0.500
,284.000=1.000
,290.500=0.500
,292.500=1.000
,293.000=0.000
,293.250=1.000
,293.500=0.000
,293.750=1.000
,304.000=0.500
,304.750=1.000
,309.000=0.000
,309.250=1.000
,309.500=0.000
,309.750=1.000
,314.000=0.500
,316.500=1.000
,322.500=0.000
,323.250=1.000
,323.500=0.000
,324.250=1.000
,324.500=0.000
,325.250=1.000
,325.500=0.000
,326.250=1.000
,326.500=0.000
,326.750=1.000
,327.000=0.000
,327.250=1.000
,327.500=0.000
,327.750=1.000
,328.000=0.000
,328.250=1.000
,328.500=0.000
,328.750=1.000
,329.000=0.000
,329.250=1.000
,329.500=0.000
,329.750=1.000
,330.000=0.000
,330.250=1.000
,330.500=0.000
,330.625=1.000
,330.750=0.000
,330.875=1.000
,331.000=0.000
,331.125=1.000
,331.250=0.000
,331.375=1.000
,331.500=0.000
,331.625=1.000
,331.750=0.000
,331.875=1.000
,332.000=0.000
,332.125=1.000
,402.000=0.500
,403.000=1.000
,404.000=0.500
,405.000=1.000
,441.500=0.100
;
#FAKES:;
#LABELS:0.000=Song Start
;
#ATTACKS:TIME=120.463875:LEN=0.120972:MODS=Flip, Invert, Cross, Incoming:TIME=121.189682:LEN=0.241936:MODS=-35% Mini, 50% Tornado, 45% XMode, Reverse, Overhead:TIME=121.431618:LEN=0.362907:MODS=Flip, Alternate, Cross, Overhead:TIME=121.794525:LEN=0.362900:MODS=Confusion, Mini, Reverse, Overhead:TIME=128.084839:LEN=0.120972:MODS=50% Tornado, Overhead:TIME=131.955811:LEN=1.330643:MODS=50% Tornado, Reverse, Overhead:TIME=132.318710:LEN=0.483871:MODS=Confusion, Overhead:TIME=44.012260:LEN=0.120968:MODS=-35% Mini, Overhead:TIME=45.947742:LEN=0.120968:MODS=-35% Mini, Overhead:TIME=51.754196:LEN=0.241936:MODS=-35% Mini, Overhead:TIME=109.818718:LEN=0.120964:MODS=Mini, Overhead:TIME=111.754204:LEN=0.120964:MODS=Mini, Overhead;
#NOTES:
// measure 0
0000
0000
0000
0000
0000
2001
0000
0001
,  // measure 1
0000
0001
0000
0001
0000
0001
0000
0001
,  // measure 2
0000
0000
0001
0000
0000
0000
0001
3000
0000
0000
1000
0000
0000
1001
0000
0000
,  // measure 3
0001
0000
1000
0000
0001
0000
1000
0000
0001
0000
1000
0000
0000
0110
0000
0000
,  // measure 4
0001
0000
0010
0000
0100
0000
1000
0000
0100
0000
0001
0000
0000
0101
0000
0000
,  // measure 5
1000
0000
0100
0000
0000
0110
0000
0000
2000
0000
3001
0000
0000
1010
0000
0000
,  // measure 6
0100
0000
2002
0000
3003
0000
0110
0000
0000
0000
0010
0000
0100
0010
0100
0000
,  // measure 7
0100
0000
0010
0000
0100
0000
0010
0000
0100
0000
0200
0000
0001
0010
0000
0000
,  // measure 8
0001
0010
0300
0000
0010
1000
0000
0000
0110
0000
1000
0000
0100
0001
0000
0000
,  // measure 9
0100
0010
0100
0000
0100
0000
1000
0000
0100
0000
0010
0000
0110
0000
0100
0000
,  // measure 10
0002
0000
1000
0000
0000
0000
1000
0000
0003
0000
0010
0000
0100
0010
0000
0001
,  // measure 11
1000
0001
1000
0000
0001
0000
0010
0000
0100
0000
2000
0000
3000
0001
0000
0000
,  // measure 12
1000
0000
0000
0100
0000
0000
0010
0000
0110
0000
1000
0000
0100
1000
0000
0000
,  // measure 13
0001
1000
0001
0000
0100
0000
2000
0000
0001
3000
0001
0000
0010
0000
0100
0000
,  // measure 14
1000
0000
0001
0000
0001
1000
0001
1000
0001
0000
0010
0000
0000
0000
0110
0000
,  // measure 15
0000
1000
0100
0001
0010
0001
0000
1001
,  // measure 16
0000
0010
1000
0100
0010
0100
1000
0100
,  // measure 17
0010
0020
0000
1030
0000
0200
0000
0301
,  // measure 18
0000
0020
0000
1030
0000
0101
0000
0110
,  // measure 19
0000
1000
0100
0010
0001
0011
0000
1100
,  // measure 20
0000
0010
0100
0001
0100
0010
0100
1000
,  // measure 21
0100
0000
0002
0000
0000
0000
0023
0000
0000
0000
0200
0000
0000
0000
0300
0030
,  // measure 22
0100
0000
0010
0000
0100
0000
0010
0000
0100
0000
0011
0000
0000
1100
0000
0000
,  // measure 23
0100
0000
0010
0000
0100
0000
1000
0000
0000
0000
0110
0000
0000
1001
0000
0000
,  // measure 24
0010
0000
0100
0000
1000
0000
0100
0000
0010
0000
0011
0000
0000
0110
0000
0000
,  // measure 25
1000
0020
0000
2030
0000
0001
0010
3000
,  // measure 26
0100
0000
0001
0000
0010
0000
0100
0000
0000
0000
0110
0000
0000
1100
0000
0000
,  // measure 27
0100
0000
0001
0000
0010
0000
0100
0000
0000
0000
0110
0000
0000
1010
0000
0000
,  // measure 28
1000
0000
0100
0000
0010
0000
0100
0000
0001
0000
1001
0000
0000
0110
0000
0000
,  // measure 29
1000
0100
0000
2020
0000
0000
0000
0000
,  // measure 30
0000
0000
3030
0000
0010
0000
0100
0000
2000
0000
0000
3000
0100
0000
0001
0000
,  // measure 31
0020
0000
1030
0100
0020
0000
0130
0100
,  // measure 32
0010
0000
0100
0000
0000
0000
0101
0000
0000
0100
1000
0000
0100
0000
1000
0100
,  // measure 33
1000
0000
0001
0000
0010
0000
0100
0000
1000
0000
0100
0010
0100
0000
0100
0010
,  // measure 34
0001
0000
0010
0000
0100
0000
0002
0000
0000
0003
0010
0000
0100
0010
0100
0000
,  // measure 35
1000
0000
0100
0000
0001
1000
0002
0000
1000
0003
1000
0001
0001
1000
0001
0000
,  // measure 36
0010
0000
0100
0000
1000
0001
1000
0001
0000
0000
1000
0000
0000
0001
1000
0000
,  // measure 37
0001
0000
1100
0000
0010
0000
1000
0000
0100
0000
0110
0000
0000
1000
0100
0000
,  // measure 38
0100
0000
0000
1001
0000
0000
0110
0000
0000
0000
1000
0000
0001
1000
0000
0001
,  // measure 39
1000
0001
1000
0000
0110
0000
0100
0000
0010
0000
0100
0000
0010
0000
0100
0000
,  // measure 40
0020
0000
0000
0000
0000
0030
1000
0000
1000
0000
1001
0000
0100
1000
0100
0000
,  // measure 41
0010
0100
0010
0100
0001
0101
0000
1000
,  // measure 42
0100
0000
0000
0000
0010
0000
0100
0000
0000
0000
1000
0000
0100
1000
0100
0000
,  // measure 43
0001
0100
0010
0100
1000
0100
0001
0010
,  // measure 44
0200
0000
0000
0000
0000
0300
1000
0000
0010
0000
0100
0000
0000
0000
0101
0000
,  // measure 45
0000
1000
0010
0100
1000
0010
0000
1010
,  // measure 46
0000
0100
0001
0010
0100
1000
0100
0001
,  // measure 47
0010
0100
0000
0110
0000
1000
0000
1010
,  // measure 48
0000
0000
0001
1000
0000
1000
1001
0000
0000
0000
0020
0000
0000
0030
1000
0000
,  // measure 49
0000
0100
0001
0010
0100
1000
0000
1001
,  // measure 50
0000
0010
0100
1000
0100
0001
0010
0100
,  // measure 51
1000
0000
0200
0000
0000
0000
0301
0000
0000
0000
2000
0000
0000
0000
0000
3000
,  // measure 52
0010
0000
0100
0000
0001
0000
1000
0000
0000
0000
0110
0000
0000
1001
0000
0000
,  // measure 53
0010
0000
0100
0000
1000
0000
0100
0000
0000
0000
0011
0000
0000
1100
0000
0000
,  // measure 54
0100
0000
0010
0000
0100
0000
0001
0000
0000
0000
1001
0000
0000
0110
0000
0000
,  // measure 55
1000
0000
0200
0000
0000
0300
2000
0000
0000
0000
0000
0000
0000
3000
0000
0000
,  // measure 56
0010
0000
0100
0000
0001
0000
0010
0000
0100
0000
0110
0000
0000
1001
0000
0000
,  // measure 57
0010
0000
1000
0000
0100
0000
0010
0000
0001
0000
0011
0000
0000
1100
0000
0000
,  // measure 58
0010
0000
0100
0000
1000
0000
0001
0000
1000
0000
2000
0000
0000
0001
3000
0000
,  // measure 59
0010
0000
0200
0000
0000
0300
0020
0000
0000
0000
0100
0000
0000
0100
0000
0000
,  // measure 60
0100
0030
0000
0000
0100
0000
0010
0000
2000
0000
0000
0000
3001
0000
0010
0000
,  // measure 61
0200
0000
0310
0100
2000
3000
0001
0010
,  // measure 62
0200
0000
0000
0300
0000
0000
1001
0000
0000
0000
0020
0000
0000
0000
0000
0000
,  // measure 63
0000
0000
0000
0000
0000
0000
0000
0000
0000
0030
2001
0000
0000
0000
0001
0000
,  // measure 64
0000
3000
2002
0000
0000
0000
0000
0000
0000
0000
0000
0000
0000
0000
0000
0000
,  // measure 65
0000
0000
3003
0000
0001
0000
1000
0000
0002
0000
0003
0000
0010
0100
0000
0100
,  // measure 66
0000
0000
0000
0000
0000
0000
0000
0000
0000
2000
0000
0000
0000
0000
0000
0000
0000
0000
0000
0000
0000
3001
0000
0000
0000
0000
0000
0000
0000
0000
0010
0000
0000
0000
1000
0000
0000
0000
0001
0000
0000
0000
0010
0000
0000
0000
0100
0000
,  // measure 67
0000
0000
1000
0000
0000
0000
0100
0000
0000
0000
0010
0000
0001
0000
0010
0000
0001
0000
0010
0000
0000
0000
1000
0000
0000
0000
1000
0000
0000
0000
1000
0000
0000
0000
0000
0000
0000
0000
0000
0010
0000
0000
0000
0000
0000
0000
0000
0000
,  // measure 68
0100
0000
0000
0022
0000
0000
0000
0000
0000
0000
0000
0000
0000
0000
0000
0000
,  // measure 69
0000
0000
0000
0033
0000
0000
0000
0000
0000
0000
0000
0000
1000
0000
0000
0000
0000
0000
1000
0000
0000
0000
0000
0000
1000
0000
0000
0000
0000
0000
0001
0000
0000
0000
0000
0000
1000
0000
0000
0000
1000
0000
0000
0000
0000
0000
0000
0000
,  // measure 70
0100
0001
0010
0200
0300
2000
0000
0000
,  // measure 71
3000
0000
0000
0000
0000
0001
1000
0001
0000
1000
0000
0001
0000
1000
0000
0110
0000
0000
0000
0000
0000
1000
0000
0000
,  // measure 72
0001
0010
0100
1000
0100
0002
0000
0000
,  // measure 73
0000
0003
1000
1000
1000
0010
0100
0010
,  // measure 74
0100
0110
1000
0100
0001
0020
0000
0000
,  // measure 75
0000
0000
0000
0000
0000
0000
0000
0000
0000
0030
0000
0000
0100
0000
1000
0000
0100
0000
1000
0000
0000
0000
0001
0000
0000
0000
1000
0000
0000
0000
0001
0000
0000
0000
0000
0000
1000
0000
0000
0000
0000
0000
0010
0000
0000
0000
0000
0000
,  // measure 76
0200
0000
0000
0300
0000
0000
0001
0000
0010
0000
0100
0000
1000
0000
0001
0000
,  // measure 77
2000
0000
0000
0000
0001
3000
0001
0000
0001
0000
0100
0000
1000
0000
0010
0000
,  // measure 78
0100
0100
0001
0010
2020
0000
0000
0000
,  // measure 79
0000
0000
0000
3030
0000
0000
1000
0001
1000
0001
0000
0000
0002
0000
0000
0000
0000
0000
0000
0000
0000
0000
0000
0000
,  // measure 80
0000
0000
0000
0000
0000
1000
0000
1000
,  // measure 81
0000
1000
0000
1000
0000
1000
1000
1000
,  // measure 82
1000
0000
1000
0000
1000
0000
1000
0000
1003
0000
0001
1000
0001
1000
0001
1000
,  // measure 83
0001
0000
1000
0000
1000
0001
1000
0001
1000
0001
1000
0001
1000
0001
1000
0001
1000
0001
1000
0002
0000
0000
0000
0000
0000
0000
0000
0003
0000
0000
0000
0000
,  // measure 84
1000
0000
1000
0000
0001
0000
0010
0000
0000
0000
0011
0000
0000
1100
0000
0000
,  // measure 85
0100
0000
0001
0000
0010
0000
0100
0000
0000
0000
0110
0000
0000
1001
0000
0000
,  // measure 86
0010
0000
1000
0000
0100
0000
0001
0000
0010
0000
0110
0000
0000
0011
0000
0000
,  // measure 87
1000
0100
0000
2001
0000
0001
0000
3001
,  // measure 88
0001
0000
0010
0000
0100
0000
1000
0000
0100
0000
0110
0000
0000
1010
0000
0000
,  // measure 89
0010
0000
0100
0000
0001
0000
0010
0000
0100
0000
0110
0000
0000
1001
0000
0000
,  // measure 90
0100
0000
0001
0000
0010
0000
0100
0000
1000
0000
0002
0000
0003
1000
0000
0000
,  // measure 91
0010
0000
0200
0000
0000
0300
2000
0000
0000
0000
0001
0000
0000
0001
0000
0000
,  // measure 92
0001
0000
3010
0000
0010
0000
0100
0000
0000
0000
0110
0000
0000
0011
0000
0000
,  // measure 93
1000
0000
0100
0000
0010
0000
0001
0000
0100
0000
1010
0000
0000
0101
0000
0000
,  // measure 94
0010
0000
0100
0000
1000
0000
0100
0000
0010
0000
0010
0000
0000
1010
0000
0000
,  // measure 95
0010
0000
0100
0000
0000
0000
0002
0000
0000
0000
1000
0000
0000
1003
0000
0000
,  // measure 96
0010
0000
0100
0000
1000
0000
0100
0000
0001
0000
1001
0000
0000
0110
0000
0000
,  // measure 97
1000
0000
0100
0000
0001
0000
0010
0000
0000
0000
0011
0000
0000
1010
0000
0000
,  // measure 98
0010
0000
0100
0000
0001
0000
0010
0000
0100
0000
0101
0000
0000
1100
0000
0000
,  // measure 99
0100
0000
0020
0000
0000
0000
2030
0000
0000
0000
0001
0000
0000
0000
0001
3000
,  // measure 100
0000
0000
0010
0000
0100
0000
0010
0000
2000
0000
0000
3000
0001
0000
0010
0000
,  // measure 101
0200
0000
0000
0300
0010
0000
0100
0000
0010
0000
0000
0000
0010
0000
0001
0000
,  // measure 102
0020
0000
0000
0000
0000
0030
1000
0000
0000
0000
0100
0000
1000
0100
1000
0000
,  // measure 103
0001
0000
0010
0000
0100
0000
0220
0000
0330
0000
1000
0100
1000
0000
0001
0000
,  // measure 104
0010
0000
1000
0100
1000
0000
0200
0000
0310
0001
0010
0000
0010
0000
0100
0000
,  // measure 105
1000
0000
0001
1000
0001
0000
0100
0000
0100
0000
0001
0000
0001
0000
1000
0000
,  // measure 106
0010
0000
0100
0000
1000
0000
0002
0000
0000
0003
1000
0000
0010
0000
0100
0000
,  // measure 107
1000
0100
0010
0000
0010
0100
0220
0000
0330
1000
0001
0000
0100
0010
0100
0000
,  // measure 108
0001
0000
0010
0100
1000
0000
0110
0000
0000
0000
0010
0100
0100
0000
1000
0000
,  // measure 109
0100
0000
0000
0000
1000
0000
1010
0000
0000
0000
0010
0100
0100
0000
0001
0000
,  // measure 110
0010
0100
1000
0002
0000
2000
0000
0000
,  // measure 111
0000
0000
0000
0000
,  // measure 112
0000
0000
3003
0000
;
