#TITLE:Dr. Feel Good;
#SUBTITLE:;
#ARTIST:Rania;
#TITLETRANSLIT:;
#SUBTITLETRANSLIT:;
#ARTISTTRANSLIT:;
#GENRE:K Pop;
#CREDIT:Blue Army;
#BANNER:Dr. Feel Good.png;
#BACKGROUND:Dr. Feel Good-bg.png;
#LYRICSPATH:;
#CDTITLE:;
#MUSIC:dr. feel good.mp3;
#OFFSET:0.120000;
#SAMPLESTART:100.120003;
#SAMPLELENGTH:12.000000;
#SELECTABLE:YES;
#BPMS:0.000000=124.000000
;
#STOPS:
;
#BGCHANGES:;
#KEYSOUNDS:;
#ATTACKS:;

//---------------dance-single - Blank----------------
#NOTES:
     dance-single:
     :
     Hard:
     5:
     0.567577,0.664000,0.405316,0.537280,0.082477,643.000000,86.000000,114.000000,0.000000,0.000000,0.000000,0.567577,0.664000,0.405316,0.537280,0.082477,643.000000,86.000000,114.000000,0.000000,0.000000,0.000000:
0000
2000
0000
0000
,
0000
0000
0000
0000
0000
3000
2002
0000
0000
0000
0000
0000
0000
0000
0000
0000
,
0000
0000
0000
3003
0202
0000
0000
0000
0000
0000
0000
0000
0000
0000
0000
0000
,
0000
0000
0000
0303
2200
0000
0000
0000
0000
0000
0000
0000
0000
0000
0000
0000
,
0000
3300
0000
1000
0100
0011
0000
0001
,
0010
0100
1000
1000
1000
0001
0001
0000
,
0220
0000
0330
1000
0100
2000
0000
3010
,
1000
0100
0001
1001
0001
1001
1000
0000
,
0110
0000
1000
0001
0001
0001
1000
1000
,
1000
0001
0010
0100
1000
0100
0002
0000
,
2003
3000
0100
0010
0010
0010
1000
1000
,
1000
0001
0010
0100
1000
0001
0100
0000
,
0202
0000
0303
1000
0100
1000
0100
1000
,
0010
1000
0010
0001
0010
0001
0010
0000
,
2002
0000
3003
0010
0100
0010
0100
0010
,
0100
1000
0100
1000
0100
0010
0001
0000
,
2002
0000
3003
1000
0100
0001
1010
0100
,
1010
0100
0000
0100
0010
0100
1000
0011
,
0110
0011
0000
0010
0010
0010
0100
0100
,
0100
0001
0100
0001
1000
0100
0001
1000
,
1010
0001
1000
0100
1000
0100
1000
0100
,
0010
0100
0010
0100
0010
0100
1002
0000
,
0103
0000
1000
0001
1000
0001
1000
0010
,
1000
0010
1000
0010
1001
0010
1001
0010
,
0001
0100
0120
0000
0130
0000
2001
0000
,
3002
0003
0010
0100
0010
0100
0010
0100
,
2000
0000
3001
0010
0001
0010
0001
0100
,
1000
0100
0001
0010
0100
1000
1002
0000
,
2003
3001
0020
2030
,
3002
0003
0010
0100
1000
1002
1000
0000
,
1000
0003
2000
0000
3020
0000
0230
0000
,
0302
0000
1003
0020
0000
2030
0001
0001
,
3001
0002
2003
3002
,
0023
0000
0230
0000
0300
0020
0000
0000
,
0030
0000
1000
0000
1000
1000
0001
0001
,
0001
1000
0001
1000
0001
1000
0001
0000
,
1001
0020
1030
0201
,
0301
0000
0020
1030
0010
0200
0000
0300
,
0001
0000
0020
0030
1000
0000
0002
0003
,
0010
0000
1000
0200
0000
2300
0000
0000
,
3000
0000
0001
0010
0001
0100
0001
0000
0100
0000
1100
0000
0002
0000
0000
0000
,
0000
0000
0003
0000
1000
0100
1000
0100
0010
0000
0200
0000
0000
0000
0000
0000
,
0000
0000
0300
0000
0001
1000
0001
1000
0001
0000
0200
0000
0000
0000
0000
0000
,
0300
0000
1000
1001
0001
0010
0100
1000
,
0220
0000
0330
0000
0100
0010
0100
0001
0100
0000
2000
0000
0000
0000
0000
0000
,
3000
0000
0000
0000
0011
0100
0011
0100
1000
0000
0200
0000
0000
0000
0000
0000
,
0000
0000
0300
0000
0010
0001
1100
0010
1100
0000
0002
0000
0000
0000
0000
0000
,
0000
0003
0100
0110
0001
1000
0200
0000
,
2300
0000
3002
0100
1003
0100
0200
0000
,
0000
0000
0310
0001
0001
1000
0100
0000
,
0220
0330
1000
0100
1000
0100
0010
0001
,
0010
1000
0100
1000
0001
0010
0100
0000
,
2002
0000
3003
0010
0001
0010
0001
0010
,
0100
1000
0100
1000
0100
0001
0020
0030
,
1001
0000
0010
0100
0010
0100
1000
0100
,
0001
0010
0001
2000
3000
0001
0010
0100
,
2000
0000
3001
0001
0001
0010
0110
1001
,
0110
1001
0100
0010
0100
0001
0101
1100
,
0101
1100
0000
1000
0010
0100
0110
1001
,
0110
1001
0010
0001
0010
0100
2000
3000
,
0002
0000
0013
0100
2000
0000
3001
0000
,
2000
0000
3001
0000
0010
0100
1000
0000
,
0010
0000
0100
0010
0100
0010
0100
0100
,
0100
0000
0100
0000
0110
0000
1010
0000
0110
0000
1010
0000
0110
0000
0001
0010
,
0100
1000
0100
0000
0010
0000
0100
0000
0002
0000
0003
0000
2000
0000
3000
0000
,
0010
0000
0200
0000
0000
0302
0000
0003
,
1000
0000
0010
0010
1000
0100
0001
0010
,
1000
0100
1000
0100
1000
0100
1010
0000
,
1010
0000
0010
0001
0010
0001
0010
0001
,
0100
0001
1000
0100
1000
0001
1000
0000
,
1001
0000
0010
0001
0010
0001
0010
0001
,
1000
0000
0000
0000
0100
0000
0000
0000
1000
0000
0000
0000
0100
0000
0010
0000
0100
0000
0010
0000
0100
0000
0010
0000
1000
0001
1000
0001
1000
0001
1000
0001
,
1000
0001
1000
0001
1000
0001
0000
0000
1000
0000
0001
0000
1000
0000
0001
0000
1010
0000
0000
0000
0200
0000
0000
0000
0000
0000
0000
0000
0000
0000
0000
0000
,
0300
0000
0000
0000
0101
1000
0101
1000
0101
0000
0220
0000
0000
0000
0000
0000
,
0330
0000
0000
0000
0110
0001
0110
0001
0110
0000
0220
0000
0000
0000
0000
0000
,
0330
0000
1100
1100
1100
0001
0010
1000
,
0200
0000
0310
0000
0001
0010
0100
1000
,
0100
0001
0000
0000
2000
3000
0001
0010
,
0100
2000
0000
3000
0010
0000
0100
0010
,
0100
1000
0100
0001
0010
1000
0100
0001
,
0010
2000
0001
3001
0100
0010
0100
1000
,
0001
0020
0000
0030
2000
0000
3001
0010
,
0001
0200
0000
0300
2000
3000
0001
0010
,
0001
0000
0020
0000
0000
0000
1030
0000
0100
0000
0001
0000
0010
0000
1000
0001
,
1000
0001
1000
0000
0120
0000
0000
0000
0130
0000
0000
0000
0002
0000
0000
0000
,
0013
0000
0110
0000
1000
1000
1000
0001
,
1000
0000
0100
0010
0100
0001
0010
0100
,
1000
0100
0001
0010
0100
2000
0001
0001
,
3001
0000
0002
0003
0010
0000
0100
0000
,
1000
0000
0001
0100
0000
0020
0000
0000
,
0000
0030
0001
0010
0001
0000
0001
0100
,
1000
0000
1000
0100
0001
0010
1000
0000
,
0200
0300
2000
3000
0001
0000
2000
3000
,
0020
0030
0200
0000
0300
0020
0000
0000
,
0030
0100
0010
1000
,
0100
0000
0110
0110
0110
1000
0001
0000
,
0110
1000
0001
1000
,
0001
0000
1000
0001
1000
0001
0010
0000
,
0011
0000
1000
0000
0100
0000
0002
0003
,
1000
0000
0100
0100
0100
0001
0010
0000
,
0210
0300
2000
0000
3002
0003
2000
3000
,
0010
0000
0100
0100
0100
1000
0001
0000
,
0220
0330
1000
0000
0001
0000
2000
3000
,
0110
0000
0001
0011
0001
0010
0001
0000
,
0011
2000
3100
0010
,
0100
0000
0110
1000
0110
1000
0110
0000
,
0101
0000
2000
3000
0001
0000
2000
3000
,
0001
0000
0010
0100
0010
0100
0001
0000
,
2002
0000
0000
3003
0000
0000
0000
0000
;

//---------------dance-single - ----------------
#NOTES:
     dance-single:
     :
     Medium:
     3:
     0.281432,0.280275,0.155528,0.391177,0.000000,302.000000,33.000000,83.000000,0.000000,0.000000,1.000000,0.281432,0.280275,0.155528,0.391177,0.000000,302.000000,33.000000,83.000000,0.000000,0.000000,1.000000:
// measure 0
0000
0000
0000
0000
,  // measure 1
0000
0000
0000
0000
,  // measure 2
0000
0000
0000
0000
,  // measure 3
0000
0000
2000
0000
0000
0000
0000
3000
,  // measure 4
0000
0000
0000
0000
,  // measure 5
0000
0100
0010
0100
,  // measure 6
0110
0000
0000
0000
,  // measure 7
0000
0100
1000
0100
,  // measure 8
1100
0000
0001
0000
,  // measure 9
1000
0000
0100
0010
,  // measure 10
0110
0000
1000
0000
,  // measure 11
0001
0000
1000
0002
,  // measure 12
0000
0003
0000
0000
0100
0000
0010
0000
,  // measure 13
0100
0000
0010
0100
,  // measure 14
2000
3000
0100
0010
,  // measure 15
0100
0010
0100
2000
,  // measure 16
0000
3000
0000
0000
0000
0000
0001
0000
,  // measure 17
1000
0001
0000
0000
0100
0000
0010
0000
,  // measure 18
1000
0001
0000
0000
0100
0000
0010
0000
,  // measure 19
1000
0100
0010
0100
,  // measure 20
1000
0001
1000
0001
,  // measure 21
1000
0002
0000
0000
0003
0000
0000
0000
,  // measure 22
0100
0020
0000
0000
0030
0000
0000
0000
,  // measure 23
0000
1000
0000
0000
0001
0000
0000
0000
,  // measure 24
1000
1000
0001
1000
,  // measure 25
0001
0000
2000
0000
0000
3100
0000
0000
,  // measure 26
0000
2000
3010
0020
,  // measure 27
0130
0000
0200
0000
0000
0310
0000
0000
,  // measure 28
0000
0020
0130
0200
,  // measure 29
0310
0000
1000
0001
0000
1001
0000
0000
,  // measure 30
0000
1000
0100
0010
,  // measure 31
1000
0000
0200
0000
0000
0000
0000
0300
,  // measure 32
0000
0001
1100
0001
,  // measure 33
0011
0000
0200
0000
0000
0310
0000
0000
,  // measure 34
0000
1000
1100
0001
,  // measure 35
0101
0000
0200
0000
0000
0310
0000
0000
,  // measure 36
0000
0010
1010
0010
,  // measure 37
0011
0000
0100
0010
0000
2000
0000
0000
,  // measure 38
3000
0100
0010
1000
,  // measure 39
0100
0000
2000
0000
3000
0002
0000
0000
,  // measure 40
0003
0000
0100
0000
1000
0020
0000
0000
,  // measure 41
0030
0000
0100
0000
0001
2000
0000
3000
,  // measure 42
0000
0000
0100
0000
0010
0200
0000
0000
,  // measure 43
0300
1000
0001
1000
,  // measure 44
1100
0000
0001
0000
0010
0200
0000
0000
,  // measure 45
0000
0300
0010
0000
0100
0020
0000
0000
,  // measure 46
0000
0030
0100
0000
1000
0002
0000
0000
,  // measure 47
0003
0100
0010
1000
,  // measure 48
2200
3300
0001
2000
,  // measure 49
3000
0100
0010
0100
,  // measure 50
2000
3000
0001
0010
,  // measure 51
0001
0020
0000
0030
0100
0000
0010
0000
,  // measure 52
0200
0300
0010
0100
,  // measure 53
1000
0100
0000
0000
0010
0000
0200
0000
,  // measure 54
0000
0300
0000
0000
0010
0000
0100
0000
,  // measure 55
1000
0100
0001
2000
,  // measure 56
0000
3000
0000
1000
,  // measure 57
0001
2000
0000
3000
0100
0000
0010
0000
,  // measure 58
0100
0020
0000
0030
0000
0000
1000
0000
,  // measure 59
0001
1000
0001
1000
,  // measure 60
0100
1000
0100
0001
,  // measure 61
0100
0020
0000
0030
0100
0000
0010
0000
,  // measure 62
0100
0002
0000
0003
0010
0000
0001
0000
,  // measure 63
0100
1000
0100
0010
,  // measure 64
1000
0001
1001
1000
,  // measure 65
1100
0000
0002
0000
0000
1003
0000
0000
,  // measure 66
0000
0010
0110
0100
,  // measure 67
0110
0000
2000
0000
0000
3100
0000
0000
,  // measure 68
0000
0011
0100
0110
,  // measure 69
1010
0000
1000
0001
0000
2000
0000
0000
,  // measure 70
3000
0100
0110
1000
,  // measure 71
1100
0400
0000
0000
,  // measure 72
0000
0300
0100
0000
0010
0200
0000
0000
,  // measure 73
0300
0000
1000
0000
0100
2000
0000
0000
,  // measure 74
3000
0000
0001
0000
0010
0200
0000
0000
,  // measure 75
0300
1000
0100
1000
,  // measure 76
0001
2000
3000
0020
,  // measure 77
0030
0200
0300
2000
,  // measure 78
3000
0002
0003
0200
,  // measure 79
0300
0020
0030
2000
,  // measure 80
3000
0002
0003
0200
,  // measure 81
0300
0020
0030
2000
,  // measure 82
3000
0002
0003
2000
,  // measure 83
3000
0010
0100
0010
,  // measure 84
0000
0100
0110
0010
,  // measure 85
0110
0000
2000
0000
0000
3001
0000
0000
,  // measure 86
0000
0010
0011
0001
,  // measure 87
0101
0000
0002
0000
0003
0100
0000
0000
,  // measure 88
0000
0020
1030
0020
,  // measure 89
1030
0000
0100
0020
0000
2030
0000
0000
,  // measure 90
3000
0100
0110
0010
,  // measure 91
1010
0000
0020
0000
0000
1030
0000
0000
,  // measure 92
0000
0100
1100
0100
,  // measure 93
0101
0000
0002
0000
0000
1003
0000
0000
,  // measure 94
0000
0100
0010
1000
,  // measure 95
0100
0000
2000
0000
3000
0001
0000
0000
,  // measure 96
0000
0100
0110
0001
,  // measure 97
0101
0000
1000
0000
0000
0200
0000
0000
,  // measure 98
0300
0010
1010
0010
,  // measure 99
0011
0000
2000
0000
0000
3001
0000
0000
,  // measure 100
0000
2000
3000
0002
,  // measure 101
0003
0200
0300
0020
,  // measure 102
0030
2000
3000
0020
,  // measure 103
0030
2000
3000
0200
,  // measure 104
0300
0002
0003
2000
,  // measure 105
3000
0020
0030
0200
,  // measure 106
0300
0002
0003
2000
,  // measure 107
3000
0020
0030
0200
,  // measure 108
0000
0300
0000
0000
0000
0000
0000
0000
;

//---------------dance-single - Blank----------------
#NOTES:
     dance-single:
     :
     Challenge:
     7:
     0.729839,0.843741,1.000000,0.640965,0.091903,711.000000,237.000000,136.000000,0.000000,0.000000,1.000000,0.729839,0.843741,1.000000,0.640965,0.091903,711.000000,237.000000,136.000000,0.000000,0.000000,1.000000:
0000
4000
0000
0000
,
0000
0002
0000
0000
,
0000
0000
0000
0003
0200
0000
0000
0000
0000
0000
0000
0000
0000
0000
0000
0000
,
0000
0000
0000
0300
0020
0000
0000
0000
0000
0000
0000
0000
0000
0000
0000
0000
,
0000
3030
0000
1000
0100
2001
0000
3001
,
0010
0100
1000
1010
1000
1001
0002
0000
,
0203
0000
0300
1000
0110
2000
0000
3010
,
1000
0100
0001
1001
0001
1001
2010
0000
,
3010
0000
1000
0001
0011
0001
0011
0001
,
0010
0100
0010
0100
1000
0100
0002
0000
,
2003
3000
0100
0010
0110
0010
1010
1000
,
1001
0001
0010
0100
2000
3001
0200
0000
,
0002
0000
0303
1000
0110
1000
0101
1000
,
1001
1000
0110
0001
1010
0001
0200
0000
,
0002
0000
0303
0010
1100
0010
0110
0010
,
1100
0010
0110
0001
0101
0100
0002
0000
,
2000
0000
3003
1000
0100
0001
1010
0100
,
1010
0100
0000
0100
0010
0100
1000
0011
,
0110
0011
0000
0010
0110
0010
1100
0100
,
0110
0001
0101
0001
1001
0100
0001
1000
,
1010
0001
1000
0100
1000
0100
1000
0100
,
0010
0100
0010
0100
0010
0100
1002
0000
,
0103
0000
1000
0001
1000
0001
1000
0010
,
1000
0010
1000
0010
1001
0010
1001
0010
,
0001
0100
0120
0000
0130
0000
2001
0000
,
3002
0003
0011
0100
0011
0100
0011
0000
,
2020
0030
3001
0010
0001
0010
0001
0100
,
1000
0100
0001
0010
0100
1000
1002
0000
,
2003
3001
0020
2030
,
3002
0003
0010
0100
1000
1002
1000
0000
,
1000
0003
2000
0000
3020
0000
0230
0000
,
0302
0000
1003
0020
1000
0130
0011
0001
,
1001
0002
2003
3002
,
0023
0000
0230
0010
0310
0020
0100
0000
,
0130
0000
1000
0000
1000
0110
0001
0110
,
0001
1000
0101
1000
0101
1000
0101
0000
,
1001
0020
1030
0201
,
0301
0000
0020
1030
0010
0200
0010
0300
,
0001
0000
1020
0000
1030
0000
0002
0003
,
0010
0000
1000
0200
0010
2300
0010
0000
,
3001
0000
0011
0100
0011
0100
0011
0000
0100
0000
0202
0000
0000
0000
0000
0000
,
0000
0000
0303
0000
1100
0010
1100
0010
1100
0000
0200
0000
0000
0000
0000
0000
,
0000
0000
0300
0000
0011
1000
0011
1000
0011
0000
0200
0000
0000
0000
0000
0000
,
0300
0000
1000
1001
0001
0010
0100
1000
,
0220
0000
0330
0000
1100
0010
1100
0010
1100
0000
2000
0000
0000
0000
0000
0000
,
3000
0000
0000
0000
0011
0100
0011
0100
0011
0000
0200
0000
0000
0000
0000
0000
,
0000
0000
0300
0000
1100
0010
1100
0010
1100
0000
0002
0000
0000
0000
0000
0000
,
0000
0000
0003
0000
1000
0100
0010
0001
0010
0100
1000
0100
0020
0000
0000
0000
,
2030
0000
3002
0100
1003
0100
0200
0000
,
0000
0000
0310
0001
0101
1000
0110
0010
,
0220
0330
1000
0110
1000
0110
0010
0101
,
0010
1001
0100
1010
0001
1010
0100
0000
,
2002
0000
3003
0110
0001
0110
0001
0110
,
0100
1010
0100
1010
0100
0101
0020
0030
,
1001
0000
0010
1100
0010
0110
1000
0110
,
0001
1010
0001
2000
3001
0101
0010
0110
,
2000
0000
3001
0011
0001
1010
0110
1001
,
0110
1001
0100
0010
0100
1000
0110
1100
,
0110
2200
3300
1000
0010
0100
0110
0011
,
0110
0011
0010
0001
0010
0100
2000
3001
,
0002
0000
0013
0100
2000
0000
3001
0110
,
2000
0001
3001
0100
0010
0100
2010
0000
,
3010
0000
0100
0010
0100
0010
0100
1100
,
0100
0000
0101
0000
0110
0000
1010
0000
0110
0000
0011
0000
0110
0000
0001
0010
,
0100
1000
0100
0000
0010
0000
0100
0000
1002
0000
0103
0000
2001
0000
3010
0000
,
0100
1001
0200
0010
0001
0302
0100
1003
,
2002
3003
0010
0010
1000
0110
0001
0110
,
1000
0101
1000
0101
1000
0101
1010
0000
,
1010
0000
0010
0101
0010
0101
0010
0101
,
0100
0000
0011
0000
1000
0000
0110
0000
1000
0000
0101
0000
2002
0000
0000
3003
,
0110
0000
0010
0101
0010
0101
0010
0101
,
1000
0000
0000
0000
0110
0000
0000
0000
1000
0000
0000
0000
0100
0000
0010
0000
0100
0000
0010
0000
0100
0000
0010
0000
0011
1000
0011
1000
0011
1000
0011
1000
,
0011
1000
0011
1000
0011
1000
0000
0000
1010
0000
0100
0000
1010
0000
0100
0000
1010
0000
0000
0000
0200
0000
0000
0000
0000
0000
0000
0000
0000
0000
0000
0000
,
0300
0000
0000
0000
0101
0010
0101
0010
0101
0000
0220
0000
0000
0000
0000
0000
,
0330
0000
0000
0000
0110
1000
0110
1000
0110
0000
2020
0000
0000
0000
0000
0000
,
3030
0000
1100
0011
1100
0001
0010
1000
,
0200
0000
0310
0000
0001
0010
0100
1010
,
0100
1010
0120
0000
2030
3000
0001
0110
,
0100
2000
0000
3010
0010
0100
0100
0010
,
0100
1000
0100
0001
0010
1000
0100
0001
,
0010
2000
0001
3001
0100
1010
0100
1000
,
0001
0020
0100
1030
2001
0010
3001
0010
,
0001
0202
0000
0303
2000
3000
0001
0110
,
0001
0000
0120
0000
1000
0000
1030
0000
0100
0000
0001
0000
0010
0000
1100
0001
,
1100
0001
1100
0000
0120
0000
0000
0000
0130
0000
0000
0000
0002
0000
0000
0000
,
0013
0000
0110
0010
1000
1010
1000
1010
,
2000
0000
3100
0010
0100
0001
0010
0100
,
0010
0100
0001
0010
0100
0110
1001
0110
,
1001
0000
0002
0103
1010
0100
0110
0001
,
1010
0100
0001
0100
1001
0200
0001
0001
,
0301
0000
0001
0110
0001
0110
0001
0110
,
1000
0110
1000
0110
0001
0110
2000
0000
,
3200
0300
2000
3010
0001
0010
2000
3100
,
0020
0130
0200
0010
0310
0020
0100
0000
,
0130
0011
0100
0000
0010
0000
1000
0000
,
0100
0000
0110
1001
0110
1001
0110
1001
,
0110
0000
1000
0110
1000
0011
1000
0011
,
1000
0011
1000
0101
1000
0101
1000
0101
,
2002
3003
1000
0100
0100
0001
0002
1003
,
1000
0110
0100
1100
0100
0101
0010
1001
,
0210
0300
2000
0000
3002
0003
2100
3000
,
0120
0000
0130
1100
0100
0110
0001
0101
,
0220
0330
2000
0000
3002
0000
2003
3000
,
0110
0000
0001
0011
0001
0110
0001
1010
,
2002
3003
2000
0010
3200
0010
0300
0010
,
0100
0001
0110
1000
0110
0001
0220
0330
,
1001
0000
2200
3000
0301
0000
2020
3000
,
0031
0000
0010
1100
0010
1100
0001
1100
,
2020
0000
3030
0000
;
