#TITLE:Do You Love Me;
#SUBTITLE:;
#ARTIST:2NE1;
#TITLETRANSLIT:;
#SUBTITLETRANSLIT:;
#ARTISTTRANSLIT:;
#GENRE:;
#CREDIT:;
#BANNER:Do You Love Me.png;
#BACKGROUND:Do You Love Me-bg.png;
#LYRICSPATH:;
#CDTITLE:;
#MUSIC:01 Do You Love Me.mp3;
#OFFSET:-0.040000;
#SAMPLESTART:99.960007;
#SAMPLELENGTH:12.000000;
#SELECTABLE:YES;
#BPMS:0.000000=130.000000
;
#STOPS:
;
#BGCHANGES:;
#KEYSOUNDS:;
#ATTACKS:;

//---------------dance-single - ----------------
#NOTES:
     dance-single:
     :
     Hard:
     7:
     0.603490,0.644121,0.343903,0.618096,0.069710,702.000000,74.000000,133.000000,0.000000,0.000000,0.000000,0.603490,0.644121,0.343903,0.618096,0.069710,702.000000,74.000000,133.000000,0.000000,0.000000,0.000000:
0000
0000
0000
0000
,
1000
0001
1000
0002
0000
2003
3010
0000
,
1000
0010
0100
0020
0030
2000
3001
0000
,
0100
0001
0100
0002
0003
1000
0000
0010
,
0100
0010
0100
0020
0030
2000
3010
0000
,
1000
0100
1000
0200
0300
2000
3001
0000
,
1000
0001
1000
0002
0003
0200
0310
0000
,
0100
0010
1000
0010
0000
0100
0010
1000
,
0000
2200
0000
0000
0000
0000
0000
3300
,
0100
0000
0110
0000
1000
0100
0010
0000
,
0100
0010
0001
0020
0030
0001
0011
0000
,
0001
0000
0100
0000
0010
0100
1000
0000
,
1000
0100
0010
0002
0003
2000
3010
0000
,
0100
0000
0110
0000
0100
0010
0001
0000
,
0001
0010
0100
2000
3000
0002
0013
0000
,
0011
0000
0110
0000
1000
0100
1000
0000
,
0001
0000
0010
0000
0001
1000
0001
1000
0000
0000
0002
0000
0103
0000
0000
0000
,
0202
0303
0001
1000
0010
0100
0001
1000
,
2002
3003
1000
0001
0100
0010
1000
0001
,
2002
3003
0001
1000
0010
0100
0001
1000
,
2002
3003
2000
3010
0000
0200
0301
0000
,
0202
0303
1000
0001
0100
0010
1000
0001
,
2002
3003
0001
1000
0010
0100
0001
1000
,
2002
3003
1000
0001
0100
0010
1000
0002
,
1003
0000
0000
0000
0010
0100
0010
0100
0000
0000
0002
0000
0103
0000
0000
0000
,
0001
2000
3010
0110
,
0000
1000
0100
1000
0010
0100
0001
1000
,
0010
0100
0001
0100
0001
0000
1000
0100
,
1000
0001
0000
0000
1001
0000
0001
0000
1000
0001
0000
0000
1001
0000
2000
0000
,
0000
3000
0001
0000
1000
0000
1100
0000
,
0000
1000
0010
0100
0010
1000
0010
0100
,
0001
0100
0001
0100
0010
0000
2000
3001
,
1000
0000
0010
1000
0010
0000
1000
0000
0001
0000
1000
0000
1010
0000
0010
0000
,
0100
0010
1000
0001
0100
0001
0100
0010
,
0100
0000
0001
0000
1000
0000
0010
0000
2020
0000
0000
3030
0000
0000
1000
0000
,
0010
0100
0001
0010
0001
0010
0001
1000
,
0010
0100
0010
0100
0220
0330
0100
0001
,
0100
0010
1000
0001
0101
0000
0200
0301
,
0000
1000
0010
0100
0020
0000
0100
0130
,
0000
0001
0100
0001
0200
0000
0301
0100
,
0000
0010
1000
0010
0200
0000
0310
0000
,
0100
0001
0100
0000
0010
0000
2000
3020
,
0000
2030
0000
3001
0000
1000
0100
2000
,
0000
3000
0002
0000
2003
0000
3010
0100
,
0000
0110
0000
0100
0000
0001
0100
0002
,
0000
0003
2000
0000
3020
0000
1030
0010
,
0000
0100
0010
0001
0000
1000
0001
2000
,
0000
3001
1000
0002
0000
2003
0000
3020
,
0000
0230
0000
0320
0000
0230
0000
0300
,
0010
0000
0110
0000
0001
0010
0100
0000
,
0010
0100
1000
0100
0000
1000
1100
0000
,
2020
3030
1000
0001
0100
0010
1000
0001
,
2002
3003
0001
1000
0010
0100
0001
1000
,
2002
3003
1000
0001
0100
0010
1000
0001
,
2002
3003
0002
0103
0000
0020
1030
0000
,
2020
3030
0001
1000
0010
0100
0001
1000
,
2002
3003
1000
0001
0100
0010
1000
0001
,
2002
3003
0001
1000
0010
0100
0001
2000
,
3001
0000
0000
0000
0100
0010
0100
0010
0000
0000
0200
0000
0310
0000
0000
0000
,
0110
0100
0001
0101
,
0000
0001
0100
1000
0100
0001
0100
1000
,
0100
0001
0100
1000
0100
0001
0010
0100
,
0010
0000
0000
0100
0010
0000
0110
0000
0100
0010
0000
0000
0200
0000
0310
0000
,
0100
0010
0100
0010
0100
0000
0110
0000
0100
0001
0100
0001
0100
0000
0101
0000
,
0000
0000
0001
0000
0100
0000
0001
0000
1000
0100
1000
0100
1000
0000
0000
0000
,
1000
0100
0020
0000
0230
0000
0310
0100
,
0110
0000
1001
0000
0101
0110
0101
0100
,
0010
0100
0001
1000
0010
1000
0010
0100
,
0010
0000
1000
0000
0001
0000
0100
0000
0200
0000
0002
0303
0000
0000
0001
0000
,
0100
0010
1000
0100
1000
0100
1000
0001
,
0100
0010
0100
0010
0020
0130
0000
0001
,
1000
0000
0001
1000
0000
0000
1000
0000
0010
0000
0000
0000
0110
0000
0100
0000
,
0001
0000
0100
0001
0000
0000
0100
0000
0010
0000
0000
0000
0110
0000
0100
0000
,
0010
0000
1000
0010
0000
1000
0010
0000
1000
0000
0001
1000
0000
0001
1000
0000
,
0001
0000
0100
0010
0000
0010
0100
0000
0220
0000
0000
0000
0000
0330
0000
0000
,
0010
1000
0010
0000
0100
0000
0002
0203
,
0000
0302
0000
1003
0000
0001
0010
0002
,
0000
0003
2000
0000
3002
0000
0103
0010
,
0000
0110
0000
0010
0000
1000
0010
2000
,
0000
3000
0002
0000
0203
0000
0301
0100
,
0000
0010
0100
1000
0000
0001
1000
0002
,
0000
1003
0001
2000
0000
3002
0000
0203
,
0000
0320
0000
0230
0000
0320
0000
0030
,
0100
0000
0110
0000
1000
0100
0010
0000
,
0100
0010
0001
0010
0000
0001
0011
0000
,
0001
0000
0100
0000
0010
0100
1000
0000
,
1000
0100
0010
0001
0000
2000
3010
0000
,
0100
0000
0110
0000
0100
0010
0001
0000
,
0001
0010
0100
1000
0000
0002
0013
0000
,
0011
0000
0110
0000
1000
0100
1000
0000
,
1100
0000
1000
0100
0010
0001
2000
0000
,
3001
0000
1000
0010
1000
0010
0100
0001
,
0100
0001
1000
0001
2000
0000
3010
2000
,
0000
0000
3010
0000
0100
0000
0001
1000
0001
0000
1001
0000
0000
0000
0020
0000
,
0000
0130
0101
0000
0110
0000
1010
0000
,
1001
0000
1000
0010
0100
0001
1000
0010
,
0100
0000
0001
1000
0010
0000
0100
0001
,
0000
0000
1000
0000
0001
0000
1000
0100
1000
0000
1100
0000
0000
0000
0220
0000
,
0000
0330
0101
0000
0110
0000
1010
0000
,
0101
0000
1000
0001
0100
0010
0100
0001
,
1000
0000
0001
0010
0100
0000
0001
0200
,
0000
0000
0310
0000
0100
0000
0001
0100
0001
0000
0101
0000
0000
0000
0002
0000
,
0000
0000
1003
0000
0001
0000
1000
0100
1000
0000
0000
0000
0110
0000
0000
0000
,
1100
0000
0100
0010
1000
0001
0100
0001
,
0200
0300
0001
0010
0001
0000
0100
0020
,
0000
0000
0130
0000
0010
0000
0100
0001
0100
0000
0101
0000
0000
0000
0110
0000
,
0000
1010
1000
0100
0010
0002
0003
0000
,
2002
3003
1000
0100
2000
3010
0000
0110
,
0000
0100
0001
0100
0010
1000
0001
1000
,
2002
3003
1000
0100
0010
0100
0001
0200
,
0310
0000
2000
3010
0000
2000
3001
0000
,
0101
0000
1000
0100
1000
0010
0000
0110
,
0000
0100
0001
0100
0010
1000
0001
1000
,
2002
3003
1000
0100
0010
0100
0001
2000
,
3010
0000
0200
0310
0000
0200
0002
0000
,
0000
0000
0303
0000
;

//---------------dance-single - ----------------
#NOTES:
     dance-single:
     :
     Challenge:
     8:
     0.691789,0.724636,0.553033,0.659922,0.190541,781.000000,119.000000,142.000000,0.000000,0.000000,0.000000,0.691789,0.724636,0.553033,0.659922,0.190541,781.000000,119.000000,142.000000,0.000000,0.000000,0.000000:
// measure 0
0000
0000
0000
0000
,  // measure 1
1000
0001
1000
0002
0003
2000
3010
0000
,  // measure 2
1000
0010
0100
0020
0030
2000
3001
0000
,  // measure 3
0100
0001
0100
0002
0003
0101
0000
0010
,  // measure 4
0100
0000
0010
0000
0100
0000
0020
0000
0030
0000
2000
0000
3010
0000
1000
0100
,  // measure 5
1000
0100
1000
0100
0000
2000
3001
0000
,  // measure 6
1000
0001
1000
0002
0003
0200
0310
0000
,  // measure 7
0100
0010
1000
0020
0030
0100
0010
1000
,  // measure 8
0000
1100
0000
0110
0000
0011
0000
0000
,  // measure 9
0100
0000
0110
0000
1000
0100
0020
0030
,  // measure 10
0100
0000
0010
0000
0001
0010
0001
0010
0001
0000
0001
0000
0011
0000
0000
0000
,  // measure 11
0202
0303
0220
0330
0010
0100
2000
3000
,  // measure 12
1000
0000
0100
0000
0010
0001
0010
0001
0010
0000
0002
0000
0013
0000
0000
0000
,  // measure 13
0100
0000
0110
0000
0100
0010
0002
0003
,  // measure 14
0001
0000
0010
0000
0100
0001
0100
0001
0100
0000
0002
0000
0013
0000
0000
0000
,  // measure 15
0022
0033
0000
0000
0220
0330
0000
0000
1000
0000
0100
0000
1000
0000
0000
0000
,  // measure 16
0001
0000
0010
0000
0001
0010
0100
1000
0000
0000
0002
0000
0103
0000
0000
0000
,  // measure 17
0202
0000
0303
0000
0001
0000
1000
0000
0010
0000
0100
0010
0001
0000
1000
0000
,  // measure 18
2002
0000
3003
0000
1000
0000
0001
0000
0100
0000
0010
0100
1000
0000
0001
0000
,  // measure 19
2002
0000
3003
0000
0001
0000
1000
0000
0010
0000
0100
0010
0001
0000
1000
0000
,  // measure 20
2002
0000
3003
0000
0001
1000
0001
1000
0001
0000
0200
0000
0301
0000
0000
0000
,  // measure 21
0202
0000
0303
0000
1000
0000
0001
0000
0100
0000
0010
0100
1000
0000
0001
0000
,  // measure 22
2002
0000
3003
0000
0001
0000
1000
0000
0010
0000
0100
0010
0001
0000
1000
0000
,  // measure 23
2002
0000
3003
0000
1000
0000
0001
0000
0100
0000
0010
0100
1000
0000
0002
0000
,  // measure 24
1003
0000
0000
0000
0010
0100
0010
0100
0000
0000
0002
0000
0103
0000
0000
0000
,  // measure 25
0001
0000
0010
0100
1000
0000
1100
0000
0100
0010
0100
0010
0100
0000
0110
0000
,  // measure 26
0000
0000
1000
0000
0100
0000
1000
0000
0010
0000
0100
0010
0001
0000
1000
0000
,  // measure 27
0010
0000
0100
0000
0001
0100
0001
0000
0001
0010
0100
1000
0001
0000
0100
0000
,  // measure 28
1000
0001
0000
0000
1001
0000
0001
0000
1000
0001
0000
0000
1001
0000
2000
0000
,  // measure 29
0002
0000
3003
0000
0001
0000
0010
0100
1000
0000
0000
0000
1100
0000
0000
0000
,  // measure 30
0000
1000
0010
0100
0010
1000
0010
0100
,  // measure 31
0001
0100
0001
0100
0010
0000
2000
3001
,  // measure 32
1000
0000
0010
1000
0010
0000
1000
0100
0010
0100
1000
0000
1010
0000
0010
0000
,  // measure 33
0110
0010
1010
0010
1010
0010
0110
0010
,  // measure 34
0110
0000
0011
0000
1010
0000
0010
0000
2020
0000
0000
3030
0000
0000
1000
0000
,  // measure 35
0011
0100
0101
0010
0011
0001
0110
1001
,  // measure 36
0011
0101
0011
0101
0220
0330
0100
0001
,  // measure 37
0100
0000
0010
0000
1000
0100
0001
0000
0101
0000
0000
0000
0200
0000
0301
0000
,  // measure 38
0000
0000
1000
0000
0010
0000
0100
0000
0020
0000
0000
0030
0100
1000
0100
0000
,  // measure 39
0000
0000
0001
0000
0100
0000
0001
0000
0200
0000
0000
0000
0301
0010
0100
0000
,  // measure 40
0000
0010
1000
0010
0200
0000
0310
0000
,  // measure 41
0100
0001
0100
0000
0010
0000
2000
3020
,  // measure 42
0000
2030
0000
3001
0000
1000
0100
2200
,  // measure 43
0000
3300
0002
0000
2003
0000
3010
0100
,  // measure 44
0000
0110
0000
0100
0000
0001
0100
0002
,  // measure 45
0100
0003
2000
0000
3020
0000
1030
0010
,  // measure 46
0000
0100
0010
0002
0003
1000
0001
2000
,  // measure 47
0000
3001
1000
0002
0000
2003
0000
3020
,  // measure 48
0000
0230
0000
0320
0000
0230
0000
0300
,  // measure 49
0010
0000
0110
0000
0001
0010
0100
0000
,  // measure 50
0010
0000
0100
0000
1000
0100
0010
0001
0000
0000
1000
0000
1100
0000
0000
0000
,  // measure 51
2020
0000
3030
0000
1000
0000
0001
0000
0100
0000
0010
0100
1000
0000
0001
0000
,  // measure 52
2002
0000
3003
0000
0001
0000
1000
0000
0010
0000
0100
0010
0001
0000
1000
0000
,  // measure 53
2002
0000
3003
0000
1000
0000
0001
0000
0100
0000
0010
0100
1000
0000
0001
0000
,  // measure 54
2002
0000
3003
0000
0001
0100
0001
0100
0001
0000
0002
0000
1003
0000
0000
0000
,  // measure 55
2020
0000
3030
0000
0001
0000
1000
0000
0010
0000
0100
0010
0001
0000
1000
0000
,  // measure 56
2002
0000
3003
0000
1000
0000
0001
0000
0100
0000
0010
0100
1000
0000
0001
0000
,  // measure 57
2002
0000
3003
0000
0001
0000
1000
0000
0010
0000
0100
0010
0001
0000
2000
0000
,  // measure 58
3001
0000
0000
0000
0100
0010
0100
0010
0100
0000
0200
0000
0310
0000
0000
0000
,  // measure 59
0001
0000
0010
0100
1000
0000
1100
0000
0100
0010
0100
0010
0100
0000
0110
0000
,  // measure 60
0000
0110
0100
1000
0100
0001
0100
1000
,  // measure 61
0100
0001
0100
1000
0100
0001
0010
0100
,  // measure 62
0010
0000
0000
0100
0010
0000
0110
0000
0100
0010
0000
0000
0200
0000
0310
0000
,  // measure 63
0100
0010
0100
0010
0100
0000
0110
0000
0100
0001
0100
0001
0100
0000
0101
0000
,  // measure 64
0000
0000
0001
0000
0100
0000
0001
0000
1000
0100
1000
0100
1000
0000
0000
0000
,  // measure 65
1000
0100
0020
0000
0230
0000
0310
0100
,  // measure 66
0110
0000
0010
0100
1001
0000
0100
0010
0101
0000
0110
0000
0101
0000
0100
0000
,  // measure 67
0011
0100
0011
1000
0110
1000
0011
0100
,  // measure 68
1010
0000
1000
0000
0101
0000
0100
0000
0200
0000
0002
0303
0000
0000
0001
0000
,  // measure 69
1100
0010
1010
0100
1100
0100
1010
0001
,  // measure 70
0101
0010
1100
0010
0020
0130
0000
0001
,  // measure 71
1000
0000
0001
1000
0000
0000
1000
0100
0010
0001
0000
0000
0110
0000
0100
0000
,  // measure 72
0001
0000
0100
0001
0000
0000
0100
0000
0010
0100
0010
0100
0110
0000
0100
0000
,  // measure 73
0010
0000
1010
0010
0000
1000
1010
0000
1000
0000
1001
1000
0000
0001
1000
0000
,  // measure 74
0001
0000
0100
0010
0000
0010
0100
0000
0220
0000
0000
0000
0000
0330
0000
0000
,  // measure 75
0010
1000
0010
0000
0100
0000
0002
0203
,  // measure 76
0000
0302
0000
1003
0000
0001
0010
0002
,  // measure 77
0000
0003
2000
0000
3002
0000
0103
0010
,  // measure 78
0000
0110
0000
0010
0000
1000
0010
2000
,  // measure 79
0001
0010
3001
0000
0002
0000
0000
0000
0203
0000
0000
0000
0301
0000
0100
0000
,  // measure 80
0000
0010
0100
1000
0000
0001
1000
0002
,  // measure 81
0000
1003
0001
2000
0000
3002
0000
0203
,  // measure 82
0000
0320
0000
0230
0000
0320
0000
0030
,  // measure 83
0100
0000
0110
0000
1000
0100
0011
0000
,  // measure 84
0100
0010
0001
0010
0000
0001
0011
0000
,  // measure 85
0101
0000
0110
0000
0010
0100
1100
0000
,  // measure 86
1000
0100
0010
0001
0000
2000
3010
0000
,  // measure 87
0100
0000
0110
0000
0100
0010
0011
0000
,  // measure 88
0001
0010
0100
2000
0000
3002
0013
0000
,  // measure 89
0011
0000
0110
0000
1000
0100
1000
0000
,  // measure 90
1100
0000
1000
0100
0010
0001
2000
0000
,  // measure 91
3001
0000
1000
0010
1000
0010
0100
0001
,  // measure 92
0100
0001
1000
0001
2000
0000
3010
2000
,  // measure 93
0000
0000
3010
0000
0100
0000
0001
1000
0001
0000
1001
0000
0000
0000
0020
0000
,  // measure 94
0000
0130
0101
0000
0110
0000
1010
0000
,  // measure 95
1001
0000
1000
0010
0100
0001
1000
0010
,  // measure 96
0100
0000
0001
1000
0010
0000
0100
0001
,  // measure 97
0000
0000
1000
0000
0001
0000
1000
0100
1000
0000
1100
0000
0000
0000
0220
0000
,  // measure 98
0000
0330
0101
0000
0110
0000
0101
0000
,  // measure 99
0110
0000
0001
1000
0010
0100
0010
1000
,  // measure 100
0001
0000
1000
0100
0010
0000
1000
0020
,  // measure 101
0000
0000
0130
0000
0010
0000
1000
0010
1000
0000
1010
0000
0000
0000
2000
0000
,  // measure 102
0000
0000
3001
0000
1000
0000
0001
0010
0011
0000
0000
0000
0110
0000
0000
0000
,  // measure 103
0022
0033
0000
0000
0010
0000
0100
0000
0001
0000
1000
0000
0010
0000
1000
0000
,  // measure 104
0020
0030
1000
0100
2000
0000
3010
0200
,  // measure 105
0000
0000
0310
0000
0100
0000
0010
1000
0010
0000
1010
0000
0000
0000
0110
0000
,  // measure 106
0000
0101
0001
0010
0100
2000
3000
0000
,  // measure 107
2002
3003
0001
0010
0002
0103
0000
0110
,  // measure 108
0000
0000
0010
0000
1000
0000
0010
0000
0100
0000
0001
0000
1000
0100
0001
0000
,  // measure 109
2002
3003
0001
0010
0100
0010
1000
0020
,  // measure 110
0130
0000
0000
0000
0010
0100
0010
0100
0010
0000
0002
0000
1003
0000
0000
0000
,  // measure 111
1010
0000
0001
0010
0001
0100
0000
0110
,  // measure 112
0000
0000
0010
0000
1000
0000
0010
0000
0100
0000
0001
0000
1000
0100
0001
0000
,  // measure 113
2002
3003
0001
0010
0100
0010
1000
0002
,  // measure 114
0103
0000
0020
0130
0000
0020
2000
0000
,  // measure 115
0000
0000
3030
0000
;

//---------------pump-single - ----------------
#NOTES:
     pump-single:
     :
     Hard:
     11:
     0.643324,0.670959,0.460086,0.608801,0.113860,736.000000,99.000000,131.000000,0.000000,4.000000,0.000000,0.643324,0.670959,0.460086,0.608801,0.113860,736.000000,99.000000,131.000000,0.000000,4.000000,0.000000:
00000
00000
00000
00000
,
10000
00010
10000
00020
00000
20030
30100
00000
,
10000
00100
01000
00200
00300
20000
30010
00000
,
01000
00010
01000
00020
00030
10000
00000
10100
,
00100
01000
00100
02000
03000
00020
01030
00000
,
00010
00100
00010
00200
00300
00020
10030
00000
,
00010
10000
00010
20000
30000
00200
01300
00000
,
00100
01000
00010
01000
00000
00100
01000
00010
,
00000
00022
00000
00000
00000
00000
00000
00033
,
00010
00000
00110
00000
00001
00010
00100
00000
,
00010
00100
01000
00200
00300
01000
01100
00000
,
01000
00000
00010
00000
00100
00010
00001
00000
,
00010
00100
01000
20000
30000
00020
01030
00000
,
00100
00000
01100
00000
00100
01000
10000
00000
,
10000
01000
00100
00020
00030
20000
31000
00000
,
11000
00000
01100
00000
00010
00100
00010
00000
,
01000
00000
00100
00000
01000
00001
01000
00001
00000
00000
02000
00000
03010
00000
00000
00000
,
02020
03030
01000
00001
00100
00010
01000
00001
,
02002
03003
00001
01000
00010
00100
00001
01000
,
02002
03003
01000
00001
00100
00010
01000
00001
,
02000
00000
00000
03000
00010
00100
00010
00100
00000
00000
00002
00000
00103
00000
00000
00000
,
00202
00303
01000
00001
00100
00010
01000
00001
,
02002
03003
00001
01000
00010
00100
00001
01000
,
02002
03003
01000
00001
00100
00010
01000
00002
,
01003
00000
00000
00000
01000
00100
01000
00100
00000
00000
20000
00000
30100
00000
00000
00000
,
00010
00000
10000
00100
10000
00000
10100
00000
10000
01000
00100
00010
00001
00000
00011
00000
,
00000
10000
01000
10000
00100
01000
00010
10000
,
00100
01000
00010
01000
00010
00000
10000
01000
,
10000
00010
00000
00000
10010
00000
00010
00000
10000
00010
00000
00000
10010
00000
00020
00000
,
00030
00000
10000
00100
10000
00000
10100
00000
10000
01000
00100
00010
00001
00000
00011
00000
,
00000
01000
00010
00100
00010
01000
00010
00100
,
00001
00100
00001
00100
00010
00000
02000
03001
,
01000
00000
00010
01000
00010
00000
01000
00100
01000
00000
00010
00000
01000
00000
00100
00000
,
10100
00100
01100
00100
10100
00100
01100
00100
,
10100
00000
00100
00000
01100
00000
00100
00000
02220
00000
00000
03330
00000
00000
00010
00000
,
00110
00100
00101
00100
00110
00100
00101
00100
,
00110
00100
00101
00100
02220
03330
01000
00010
,
00100
00010
01000
00001
00101
00000
00200
00301
,
00000
01000
00010
00100
00020
00000
00100
00130
,
00000
00001
00100
00001
00200
00000
00301
00100
,
00000
00010
01000
00010
00200
00000
00310
00000
,
01000
00010
01000
00000
00100
00000
20000
30200
,
00000
20300
00000
30010
00000
10000
01000
20000
,
00000
30000
00020
00000
20030
00000
30100
01000
,
00000
01100
00000
01000
00000
00010
01000
00020
,
00000
00030
02000
00000
03020
00000
01030
00010
,
00000
00100
00010
01000
00000
01000
00001
02000
,
00000
03001
01000
00002
00000
02003
00000
03020
,
00000
00230
00000
00320
00000
00230
00000
00300
,
00001
00000
00101
00000
00001
00100
00001
00000
,
00100
00000
00001
00000
00010
00001
00010
00001
00010
00000
00001
00000
00011
00000
00000
00000
,
00202
00303
00001
01000
00010
00100
00001
01000
,
02002
03003
01000
00001
00100
00010
01000
00001
,
02002
03003
01000
00001
00100
00010
01000
00001
,
02002
00000
03003
00000
00001
00100
00001
00100
00000
00000
00002
00000
00103
00000
00000
00000
,
02002
03003
00001
01000
00010
00100
00001
01000
,
02002
03003
01000
00001
00100
00010
01000
00010
,
20020
30030
00010
10000
00100
01000
00010
20000
,
30010
00000
00000
00000
01000
00100
01000
00100
00000
00000
02000
00000
03100
00000
00000
00000
,
00001
00000
10000
00100
10000
00000
10100
00000
10000
01000
00100
00010
00001
00000
00011
00000
,
00000
00001
01000
00001
10000
00001
10000
00100
,
01000
00010
10000
00001
00100
00010
00100
00001
,
00100
00000
00000
00001
00100
00000
00101
00000
00001
00100
00000
00000
00200
00000
00301
00000
,
00100
00001
00100
00001
00100
00000
00101
00000
00100
00010
00100
00010
00100
00000
00110
00000
,
00000
00000
00010
00000
00100
00000
00010
00000
10000
00100
10000
00100
10000
00000
00000
00000
,
01000
10000
00200
00000
20300
00000
30100
10000
,
10000
00100
10000
00000
10100
00000
00000
00000
10001
00000
10100
00000
10101
00000
10000
00000
,
00110
10000
00110
01000
00110
10000
00110
01000
,
00110
00000
10000
00000
00110
00000
00010
00000
20000
00000
00002
30003
00000
00000
00001
00000
,
01100
00001
01100
00010
01100
00001
01100
00010
,
01100
00001
01100
01000
00002
00103
00000
00010
,
10000
00000
00010
10000
00000
00000
10000
00000
00001
00000
00000
00000
00101
00000
00100
00000
,
00010
00000
00100
00010
00000
00000
00100
00000
00001
00000
00000
00000
00101
00000
00001
00000
,
01000
00000
00010
00100
00000
00010
00100
00000
00010
00000
10000
00010
00000
10000
00010
00000
,
10000
00000
00001
00100
00000
00100
00001
00000
00202
00000
00000
00000
00000
00303
00000
00000
,
00100
00010
00100
00000
00001
00000
20000
30002
,
00000
20003
00000
30010
00000
10000
00100
20000
,
00000
30000
00002
00000
02003
00000
03001
10000
,
00000
10100
00000
10000
00000
00001
10000
00002
,
00000
00003
02000
00000
03200
00000
01300
00100
,
00000
10000
01000
10000
00000
01000
00001
02000
,
00000
03001
01000
00002
00000
02003
00000
03200
,
00000
20300
00000
30200
00000
20300
00000
30000
,
00001
00000
00101
00000
00010
00001
00100
00000
,
00001
00100
10000
00100
00000
00001
00101
00000
,
10000
00000
00010
00000
00100
00001
00010
00000
,
00001
00100
00001
00100
00000
00020
00130
00000
,
00100
00000
01100
00000
00100
10000
01000
00000
,
01000
10000
00100
10000
00000
02000
13000
00000
,
11000
00000
10100
00000
01100
01000
00001
00000
,
00101
00000
00001
00010
00100
01000
00002
00000
,
01003
00000
00001
10000
00001
10000
00100
01000
,
00001
10000
00010
10000
00020
00000
00130
00020
,
00000
00000
00130
00000
00001
00000
10000
00010
10000
00000
10010
00000
00000
00000
00200
00000
,
00000
10300
10001
00000
10100
00000
01100
00000
,
01001
00000
01000
00100
10000
00001
01000
00100
,
00010
00000
00001
00100
10000
00000
00100
00010
,
00000
00000
10000
00000
00010
00000
10000
00100
10000
00000
10100
00000
00000
00000
02200
00000
,
00000
03300
10100
00000
01100
00000
01010
00000
,
10100
00000
00010
10000
00100
01000
00100
10000
,
00001
00000
01000
00100
00010
00000
00001
02000
,
00000
00000
03100
00000
01000
00000
00010
01000
00010
00000
01010
00000
00000
00000
00020
00000
,
00000
00000
10030
00000
00010
00000
10000
01000
10000
00000
00000
00000
11000
00000
00000
00000
,
01100
00000
01000
00100
10000
00010
01000
00010
,
00200
00300
00001
00010
00001
00000
00100
00020
,
00000
00000
00130
00000
00010
00000
00100
00001
00100
00000
00101
00000
00000
00000
00110
00000
,
00000
01010
01000
00100
00010
00002
00003
00000
,
02002
03003
01000
00100
02000
03010
00000
00110
,
00000
01000
00010
01000
00100
10000
00010
10000
,
20020
30030
10000
00100
01000
00100
10000
00020
,
00130
00000
00000
00000
00001
00100
00001
00100
00000
00000
00002
00000
01003
00000
00000
00000
,
01010
00000
00001
00010
00001
00100
00000
00110
,
00000
00100
00001
00100
00010
01000
00001
01000
,
02002
03003
01000
00100
00010
00100
01000
02000
,
03010
00000
00200
00310
00000
00200
00002
00000
,
00020
00000
00333
00000
;
