#VERSION:0.81;
#TITLE:Crayon;
#SUBTITLE:;
#ARTIST:G Dragon;
#TITLETRANSLIT:;
#SUBTITLETRANSLIT:;
#ARTISTTRANSLIT:;
#GENRE:K Pop;
#ORIGIN:;
#CREDIT:;
#BANNER:Crayon.png;
#BACKGROUND:Crayon-bg.png;
#PREVIEWVID:;
#JACKET:Crayon.png;
#CDIMAGE:;
#DISCIMAGE:;
#LYRICSPATH:;
#CDTITLE:;
#MUSIC:Crayon.mp3;
#OFFSET:0.020;
#SAMPLESTART:0.020;
#SAMPLELENGTH:12.000;
#SELECTABLE:YES;
#BPMS:0.000=132.000;
#STOPS:;
#DELAYS:;
#WARPS:;
#TIMESIGNATURES:0.000=4=4;
#TICKCOUNTS:0.000=4;
#COMBOS:0.000=1;
#SPEEDS:0.000=1.000=0.000=0;
#SCROLLS:0.000=1.000,
6.500=0.500,
7.500=1.000;
#FAKES:;
#LABELS:0.000=Song Start;
#BGCHANGES:;
#KEYSOUNDS:;
#ATTACKS:
;

//---------------dance-single - ----------------
#NOTEDATA:;
#CHARTNAME:;
#STEPSTYPE:dance-single;
#DESCRIPTION:;
#CHARTSTYLE:;
#DIFFICULTY:Hard;
#METER:7;
#RADARVALUES:0.679,0.766,0.315,0.279,0.502,819.000,62.000,55.000,0.000,0.000,1.000,0.000,0.000,0.679,0.766,0.315,0.279,0.502,819.000,62.000,55.000,0.000,0.000,1.000,0.000,0.000;
#CREDIT:;
#OFFSET:0.020;
#BPMS:0.000=132.000
;
#STOPS:;
#DELAYS:;
#WARPS:;
#TIMESIGNATURES:0.000=4=4
;
#TICKCOUNTS:0.000=4
;
#COMBOS:0.000=1
;
#SPEEDS:0.000=1.000=0.000=0
,111.500=-0.500=0.000=0
,115.000=1.000=0.000=0
,354.250=0.500=0.000=0
,354.500=1.000=0.000=0
,354.750=0.500=0.000=0
,355.000=1.000=0.000=0
;
#SCROLLS:0.000=1.000
,6.500=0.500
,7.500=1.500
,8.000=1.000
,13.000=1.500
,13.250=0.500
,13.500=1.500
,13.750=0.500
,14.000=1.500
,14.250=0.500
,14.500=1.500
,14.750=0.500
,15.000=1.500
,15.250=0.500
,15.500=0.300
,16.000=1.000
,19.500=0.500
,23.500=1.000
,34.500=1.500
,35.000=1.000
,36.500=1.500
,37.250=1.000
,39.500=0.500
,40.500=1.000
,45.500=1.500
,46.000=1.000
,47.500=0.500
,48.250=1.000
,55.750=0.000
,56.250=1.000
,58.500=1.500
,59.000=1.000
,60.500=1.500
,61.000=1.000
,64.000=0.000
,64.250=1.000
,64.500=0.000
,64.750=1.000
,66.500=1.500
,67.000=1.000
,69.750=0.500
,70.500=1.000
,78.500=0.500
,80.000=1.000
,82.500=0.000
,82.750=1.000
,84.500=0.000
,84.750=1.000
,88.500=0.000
,88.750=1.000
,90.500=0.000
,90.750=1.000
,95.500=0.000
,95.625=1.000
,95.750=0.000
,95.875=1.000
,96.000=0.000
,96.125=1.000
,98.500=0.000
,98.750=1.000
,100.500=0.000
,100.750=1.000
,111.500=2.000
,116.000=0.500
,119.500=1.000
,123.500=0.000
,123.750=1.000
,124.000=0.000
,124.250=1.000
,127.500=0.000
,127.750=1.000
,128.000=0.000
,128.250=1.000
,146.500=1.500
,147.000=1.000
,148.500=0.500
,149.500=1.000
,155.000=0.500
,155.500=1.000
,165.000=0.500
,165.500=1.000
,171.250=0.000
,171.375=1.000
,171.500=0.000
,171.625=1.000
,171.750=0.000
,171.875=1.000
,184.500=0.700
,189.500=1.000
,199.500=1.500
,200.500=1.000
,207.500=1.500
,208.500=1.000
,212.000=0.000
,212.500=1.000
,216.000=0.000
,216.500=1.000
,238.500=0.500
,240.000=1.000
,242.750=0.000
,243.250=0.500
,244.000=1.000
,247.000=0.000
,247.500=1.500
,248.000=1.000
,251.500=0.000
,252.000=1.000
,252.500=0.500
,252.750=1.000
,276.500=0.500
,279.000=1.000
,331.000=0.000
,331.250=1.000
,331.500=0.000
,331.750=1.000
,426.500=-1.000
,431.500=1.000
;
#FAKES:;
#LABELS:0.000=Song Start
;
#ATTACKS:TIME=49.298180:LEN=0.227272:MODS=-35% Mini, Overhead:TIME=50.661816:LEN=0.909092:MODS=Mini, Twirl, Roll, Incoming:TIME=51.230000:LEN=0.227272:MODS=Confusion, Overhead:TIME=86.570908:LEN=0.113640:MODS=Confusion, -35% Mini, Overhead:TIME=123.730003:LEN=1.136360:MODS=Mini, Roll, Overhead:TIME=193.843628:LEN=4.090912:MODS=Confusion, Mini, Twirl, Roll, Overhead;
#NOTES:
0000
0000
0100
0000
1000
0001
1000
0000
0010
1000
0010
0000
0100
0010
0100
0000
,
0010
1000
0010
0000
1000
0100
1000
0000
0001
0010
0002
0000
0000
0000
0203
0000
,
0300
0000
1000
0000
0100
0010
0100
0000
1000
0100
1000
0000
0010
1000
0010
0000
,
0100
0001
0100
0000
0010
0000
0100
0000
1000
0000
0100
0000
0010
0000
0002
0000
,
0003
0000
1000
0100
0000
0000
0100
0010
0000
0000
0100
0010
0000
0000
1010
0000
,
0000
0002
0000
1003
0000
0200
0000
0310
,
0000
0000
1000
0001
0000
0000
0100
0010
0000
0000
0010
0100
0000
0000
0110
0000
,
1000
0100
0010
0001
0000
0000
0010
0000
0000
1000
0000
0000
0010
0000
0000
0100
0000
0000
0010
0100
0010
0100
0000
0000
,
0110
0000
0100
0000
0010
0000
0100
0000
0001
0000
2000
0000
0000
3000
0010
0000
,
0100
0200
0000
0310
0000
0110
0100
0020
,
0000
0030
0100
1000
0100
1000
0010
0200
,
0000
0000
0000
0310
0000
0000
0100
0010
0100
0020
0000
0000
0000
0030
0000
0010
0000
0000
0100
0000
0000
0020
0000
0000
,
0000
0030
0001
1000
0001
1000
1000
0001
,
1000
1000
0001
0001
1000
1000
0100
0100
,
0000
0110
0000
0010
0100
0200
0300
1000
,
0001
2000
3000
1000
0100
0010
1000
2020
,
0000
3030
0010
1000
0100
0020
0000
1030
,
0000
0000
0001
0010
0000
0101
0000
0010
,
0000
0100
0000
0001
0100
0010
1000
0100
,
0010
1000
0010
0100
1000
0010
0000
1010
,
0000
0000
1001
0000
0100
0010
0100
0010
0100
0000
1001
0000
0001
1000
0001
1000
,
0001
0000
1010
0000
0010
1000
0010
1000
0010
0100
0010
0100
0010
0100
0010
0000
,
0000
0000
0101
0000
0100
0001
0100
0001
0100
0000
1010
0000
0010
1000
0010
1000
,
0010
0000
0100
0000
0000
0001
1000
0001
0000
0000
1001
0000
0000
0000
1000
0100
,
0010
0002
0000
0003
1000
0100
1000
0100
1000
0000
0110
0000
0010
1000
0010
1000
,
0010
0000
1010
0000
0010
0001
0010
0001
0010
0100
0010
0100
0010
0000
0101
0000
,
0001
1000
0000
0100
0100
0010
0000
0100
,
0010
2020
0000
3030
0010
1000
0010
2000
,
0000
0000
0000
3000
0000
0000
0000
0000
,
0000
1000
0000
0010
0000
0100
0010
0000
,
0000
0000
0010
0010
0000
1000
1000
0000
0100
0010
0100
0000
2000
0000
0001
0000
,
0001
0001
3000
0001
0100
0010
0110
1100
,
0010
0000
0110
0000
0000
0000
1000
0000
0100
0000
0020
0000
0000
0030
1000
0000
,
0100
0001
1001
0000
1100
0000
0011
0000
,
1000
0001
1000
0001
1000
0000
0001
0000
0010
0000
0100
0000
1000
0000
1010
0000
,
0010
0100
0010
0100
0010
0000
1000
0000
0100
0000
0001
0000
0010
0000
0110
0000
,
1000
0010
1000
0010
0100
0000
0010
0000
0100
0000
0202
0000
0303
0000
1000
0000
,
0100
0000
0000
1100
0000
0000
0000
0000
0000
0010
0000
0000
0000
0000
0000
1000
0001
1000
0001
1000
0000
0100
0010
0100
,
0010
0100
0010
0100
0000
0000
1000
0000
0000
0010
0000
0000
0100
0000
0000
1010
0000
0000
0200
0000
0000
0300
0000
0000
,
1000
0100
0001
0000
0110
1000
0110
1000
,
0100
0010
0100
0000
1010
0000
0000
0000
0001
0000
1000
0000
0000
0000
0100
0000
,
0010
0100
2000
3000
0010
1010
0000
0110
,
0000
0000
1000
0000
0001
0000
0000
0000
1000
0000
0100
0000
0000
0100
0010
0100
,
0010
0000
0110
0000
0020
0000
0000
0030
0100
0000
0001
0000
0000
0200
0000
0000
,
0300
1000
0100
0000
0010
0100
0000
1000
,
0001
0100
0101
0000
1000
1100
0000
0001
,
0000
0000
1000
0001
0000
0000
0001
1000
0000
0000
0010
0100
0000
0000
1000
0000
,
0000
0200
0000
0000
0000
0310
0000
0000
,
0000
1010
1000
0010
1000
0110
0000
0100
,
0010
0000
0000
0000
0000
0000
0100
0000
0000
0000
0000
0000
0000
0000
0000
0000
0000
0000
0010
0000
0000
0000
0000
0000
0100
0000
0000
0000
0000
0000
1000
0000
0000
0001
0000
0000
0000
0000
1000
0000
0001
0000
2000
0000
0000
0000
0000
0000
,
0000
3000
0010
0100
0010
1010
0000
0010
,
0100
0000
0000
0000
0000
0000
1000
0000
0000
0000
0000
0000
0000
0000
0000
0000
0000
0000
0001
0000
0000
0000
0000
0000
1000
0000
0000
0000
0000
0000
0001
0000
0000
1000
0000
0000
0000
0000
1000
0000
0001
0000
2000
0000
0000
0000
0000
0000
,
0000
3000
0001
0010
0100
1000
0100
0010
,
0100
0000
1000
0001
1000
0100
0010
0001
,
0100
0000
0010
0100
0010
0100
0001
0100
,
0001
0000
0100
0000
0010
0000
1000
0000
0010
0100
1000
0000
0100
0010
0100
0000
,
0000
0000
0010
0000
0100
0010
0000
0000
0100
0000
0001
0000
0100
0001
0000
0000
,
0010
0100
0001
0010
0100
0020
0000
0130
,
0000
0000
0001
0000
1000
0001
0000
0000
1000
0000
0010
0000
1000
0100
0000
0000
,
0100
0000
0010
0000
0100
0010
0000
0000
0010
0000
0100
0000
0000
0000
0002
0000
,
0003
0000
1000
0000
0100
0010
0100
0010
0100
0000
0101
0000
0000
0000
0001
0000
,
0000
0000
1010
0000
1000
0010
1000
0010
1000
0000
0010
0100
0000
0000
0002
0000
,
0000
0003
1000
0000
1000
0001
1000
0001
1000
0000
0010
0000
0100
0010
0100
0000
,
0000
0000
1000
0001
0000
0000
1000
0100
0010
0001
0010
0100
1000
0100
0010
0001
,
1000
0010
1000
0100
0010
0100
0010
0100
0010
0100
0010
0000
0010
0100
1000
0000
,
1000
0100
1000
0000
0010
0100
0010
0000
0100
0010
0100
0010
0000
0010
0100
0010
,
0100
0000
1000
0010
1000
0010
1000
0000
0010
0100
0010
0000
0100
0000
0010
0000
,
0100
0010
0001
0010
0001
0010
0001
0000
0001
0100
0001
0000
0001
0100
0001
0100
,
0001
0000
2000
0000
0000
0000
0000
0000
0000
0000
0000
0000
0000
0000
0000
0000
0000
0000
0000
0000
0000
0000
0000
0000
0000
0000
0000
0000
0000
0000
0000
0000
0000
0000
0000
0000
0000
0000
0000
0000
0000
0000
0000
0000
0000
3000
0000
0000
,
0000
0100
0000
0010
0000
0100
0010
0000
,
0000
0000
0001
0001
0000
1000
1000
0000
0100
0000
0010
0000
0101
0000
0010
0000
,
0101
0010
0000
1000
0100
0001
0100
1010
,
0100
1010
0000
0010
0100
0010
0000
1000
,
0100
0010
0100
0000
1100
0000
0011
0000
,
1100
0000
0010
0100
0010
0100
0010
0000
0010
0000
0100
0000
0110
0000
0000
0000
,
0100
0010
0100
0010
0100
0000
1000
0000
0100
0000
1000
0000
1001
0000
0000
0000
,
0010
0100
0010
0100
0010
0000
0010
0000
1000
0000
0110
0000
0000
0000
1000
0000
,
0100
1100
0000
0010
0000
0010
0400
0000
,
0000
0300
0001
0000
0100
0000
0000
0000
0100
0000
0020
0000
0000
0030
0000
0000
,
0010
1000
0010
0000
0010
0110
0000
1000
,
0000
0001
1000
0000
1000
0100
0000
0010
,
0100
0000
1000
0000
0200
0000
0000
0300
0100
0000
0010
0000
0000
0000
1000
0000
,
0000
0000
0001
0000
2000
0000
0000
3000
0001
0000
1000
0000
0010
0100
0000
0010
,
0100
0010
0100
0000
1000
0001
0000
2002
,
3003
0100
0010
0000
1000
0100
0000
0010
,
0100
0000
1000
0000
0002
0000
0000
0003
1000
0000
0200
0000
0000
0300
0020
0000
,
0000
0030
1000
0000
0100
0000
0000
0000
0001
0000
0100
0000
0000
0000
1000
0000
,
0010
0000
1000
0000
1000
0000
0010
0000
0010
0000
1000
0100
1000
0000
0010
1000
,
0010
1000
0010
0000
2020
0000
0000
0000
0000
0000
0000
0000
0000
0000
3030
0000
,
0000
0000
1000
1000
0000
0001
0001
0000
1000
0001
0000
1000
0001
0000
0100
0000
,
0010
0000
0100
0100
0000
0010
0010
0000
0100
0010
0000
0100
0010
0000
0100
0000
,
0000
0200
0000
0000
0000
0000
0300
1000
,
0000
0000
0001
1000
0002
0000
0000
0000
0000
0000
0000
0000
0000
0000
0000
0003
,
0000
0000
0100
0100
0000
0001
0001
0000
0100
0001
0000
0100
0001
0000
0010
0000
,
0101
0000
0100
0100
0000
1000
1000
0000
0100
0010
0000
0010
0100
0000
0002
0000
,
0003
0000
0010
0010
0000
0100
0100
0000
1000
0010
0000
1000
0010
0000
1000
0000
,
0110
0000
1000
1000
0000
0010
0010
0000
0010
0100
0000
0100
0010
0000
0020
0000
,
0030
0000
1000
1000
0000
0001
0001
0000
1000
0010
0000
0010
1000
0000
0010
0000
,
1010
0000
0100
0100
0000
0010
0010
0000
1000
0100
0000
0100
1000
0000
0200
0000
,
0300
0000
1000
1000
0000
0010
0010
0000
0100
0010
0000
0100
0010
0000
1000
0000
,
1010
0000
0001
0001
0000
0100
0100
0000
0001
0100
0000
0100
0001
0000
0200
0000
,
0300
0000
0010
0010
0000
0100
0100
0000
1000
0010
0000
1000
0010
0000
1000
0000
,
1010
0000
1000
1000
0000
0010
0010
0000
1000
0100
0000
1000
0100
0000
2000
0000
,
3000
0000
0010
0010
0000
0100
0100
0000
0010
0100
0000
0010
0100
0000
1000
0000
,
0110
0000
1000
0001
0000
0001
1000
0000
1000
0001
0000
0001
1000
0000
0002
0000
,
0003
0000
0200
0010
0000
0300
0010
0100
0000
0000
0010
1000
0000
0000
1000
0100
,
0010
0001
0010
0100
1000
0100
0010
0001
0010
0100
2000
0000
0000
0000
0000
0000
,
0000
0000
0000
0000
0000
0000
0000
3000
;

//---------------dance-single - ----------------
#NOTEDATA:;
#CHARTNAME:;
#STEPSTYPE:dance-single;
#DESCRIPTION:;
#CHARTSTYLE:;
#DIFFICULTY:Challenge;
#METER:9;
#RADARVALUES:0.939,0.876,0.624,0.426,1.000,1088.000,123.000,84.000,0.000,0.000,2.000,0.000,0.000,0.939,0.876,0.624,0.426,1.000,1088.000,123.000,84.000,0.000,0.000,2.000,0.000,0.000;
#CREDIT:;
#OFFSET:0.020;
#BPMS:0.000=132.000
;
#STOPS:;
#DELAYS:;
#WARPS:;
#TIMESIGNATURES:0.000=4=4
;
#TICKCOUNTS:0.000=4
;
#COMBOS:0.000=1
;
#SPEEDS:0.000=1.000=0.000=0
;
#SCROLLS:0.000=1.000
,6.500=0.500
,7.500=1.000
,13.000=1.500
,13.250=0.500
,13.500=1.500
,13.750=0.500
,14.000=1.500
,14.250=0.500
,14.500=1.500
,14.750=0.500
,15.000=1.500
,15.250=0.500
,15.500=0.300
,16.000=1.000
,77.000=1.500
,77.250=0.000
,77.500=1.500
,77.750=0.000
,78.000=1.500
,78.250=0.000
,78.500=1.000
,79.000=3.000
,79.250=0.000
,79.500=0.500
,80.000=1.000
,94.500=1.500
,95.000=1.000
,95.500=0.200
,95.750=1.000
,96.000=0.200
,96.250=1.000
,112.500=-0.500
,114.500=2.000
,115.000=0.500
,120.000=1.000
,148.500=0.500
,150.000=1.000
,159.500=1.500
,160.000=1.000
,167.500=1.500
,168.000=1.000
,175.250=2.000
,176.000=1.000
,183.500=1.500
,184.000=1.000
,190.500=10.000
,191.500=1.000
,204.500=1.500
,204.750=0.500
,205.000=1.500
,205.250=0.500
,205.500=1.500
,205.750=0.500
,206.000=1.000
,214.500=0.500
,215.500=1.000
,230.500=1.500
,231.500=1.000
,237.000=1.500
,237.250=0.500
,237.500=1.500
,237.750=0.500
,238.000=1.500
,238.250=0.500
,240.500=1.000
,243.500=-1.000
,243.750=0.500
,244.000=1.000
,247.500=-1.500
,248.000=1.000
,251.500=0.200
,252.000=1.000
,252.750=0.400
,253.000=1.000
,274.500=0.500
,279.500=1.000
,308.500=0.500
,309.500=1.000
,319.500=1.500
,320.000=1.000
,335.250=1.500
,336.000=1.000
,354.500=1.500
,355.000=1.000
,355.250=1.500
,355.500=1.000
,363.500=0.500
,364.000=1.000
,379.500=0.500
,380.000=1.000
,395.500=1.500
,396.000=1.000
,403.500=0.500
,404.000=1.000
,411.500=1.500
,412.000=1.000
,426.500=-1.000
,428.000=0.500
,430.000=1.000
;
#FAKES:;
#LABELS:0.000=Song Start
;
#ATTACKS:TIME=123.730003:LEN=0.568176:MODS=Confusion, 150% Mini, Overhead:TIME=193.843628:LEN=2.159088:MODS=200% Mini, Overhead;
#NOTES:
0000
0000
0110
0000
1000
0110
1000
0000
0010
1100
0010
0000
0100
0011
0100
0000
,
0010
1100
0010
0000
1000
0110
1000
0000
0001
0110
2002
0000
3000
0000
0103
0000
,
0000
0000
1010
0000
0100
0010
0100
0000
1000
0110
1000
0000
0010
1100
0010
0000
,
0100
0011
0100
0000
1020
0000
0230
0000
2300
0000
3200
0000
0320
0000
0032
0000
,
0003
0000
1000
0000
0100
0011
0100
0000
1000
0110
1000
0000
0100
0011
0100
0000
,
0010
1100
0010
0000
0010
0101
0010
0000
1000
0011
2000
0000
0000
0000
3010
0000
,
0000
0000
1000
0000
0001
0110
0001
0000
1000
0110
1000
0000
0010
1100
0010
0000
,
1000
0100
0010
0001
0000
0000
0010
0000
0000
1000
0000
0000
0010
0000
0000
0100
0000
0000
0010
0100
0010
0100
0000
0000
,
0110
0000
0100
0000
1000
0100
0010
0000
0001
0010
0100
0000
1000
0100
0010
0000
,
0100
0010
0100
0000
1000
0100
0010
0000
0010
0000
0110
0000
0100
0000
0220
0000
,
0300
0000
1030
0000
0100
0010
0100
0000
0100
0010
0001
0000
0010
0001
0010
0000
,
0100
0000
0000
0010
0000
0000
0100
0000
0000
0000
0000
0000
0100
0000
0010
0000
0100
0000
0010
0000
0000
1000
0000
0000
0100
0000
0000
1000
0000
0000
0010
0000
0000
0000
0000
0000
0200
0000
0000
0000
0000
0000
0320
0000
0000
0000
0000
0000
,
0000
0030
1001
0000
0001
0010
0100
0000
0010
0100
1000
0000
1000
0100
0010
0000
,
0100
0010
0001
0000
0001
0010
0001
0000
0010
0100
0020
0000
0000
0000
1030
0000
,
0000
0000
0110
0000
0010
1100
0010
0000
0100
0011
0100
0000
0001
1100
0001
0000
,
0010
0000
0100
0000
0010
0000
0100
0000
0000
0000
0000
0000
0100
0000
0000
0000
0000
0000
0100
0000
0000
0000
0000
0000
0100
0000
0000
0010
0000
0000
0001
0000
0000
0000
0000
0000
1000
0000
0000
0000
0000
0000
1010
0000
0000
0000
0000
0000
,
0000
0000
1001
0000
0010
0100
1000
0000
0100
0010
0100
0000
0010
0100
1000
0000
,
0100
0010
0100
0000
0001
0010
0100
0000
0010
0100
1000
0000
0110
0000
0020
0000
,
0030
0000
0100
0000
0010
0001
0010
0000
0100
0010
0100
0000
1000
0100
0010
0000
,
0010
0100
1000
0000
0020
0000
0230
0000
2300
0000
3020
0000
0030
0000
1010
0000
,
0000
0000
1001
0000
0100
0010
0100
0010
0100
0000
1001
0000
0001
1000
0001
1000
,
0001
0000
1010
0000
0010
1000
0010
1000
0010
0100
0010
0100
0010
0100
0010
0100
,
0010
0100
0110
0000
0100
0001
0100
0001
0100
0000
1010
0000
0010
1000
0010
1000
,
0010
0000
0110
0000
0000
0001
1000
0001
0000
0000
2020
0000
3030
0000
2000
3200
,
0320
0032
0003
0000
1000
0100
1000
0100
1000
0000
0110
0000
0010
1000
0010
1000
,
0010
0000
1010
0000
0010
0001
0010
0001
0010
0100
0010
0100
0010
0100
0101
0000
,
0002
0000
1003
0000
0100
0010
0100
0010
0100
0000
1010
0000
0100
1000
0100
1000
,
0010
0000
2020
3030
1000
0010
0000
1000
0010
0100
1000
0100
0010
0100
0020
0100
,
0100
0100
0000
0000
0000
0000
0000
0000
0000
0000
0000
0000
0000
0000
0000
0030
,
0000
1010
0000
0110
0000
0101
1010
0000
,
0000
0000
0010
0010
0000
1000
1000
0000
0100
0010
0100
0000
2000
0000
0001
0000
,
0001
0000
0001
0001
3000
0001
0001
0000
0100
0000
0010
0000
0110
0000
1100
0000
,
0010
0000
0100
0100
0000
0001
0001
0000
0010
0100
0010
0100
0000
0000
1010
0000
,
0110
0000
0001
0001
0000
1000
1000
0000
0100
0100
0000
0010
0010
0000
0110
0000
,
1000
0110
1000
0110
1000
0000
0001
0000
0010
0000
0100
0100
0000
0010
1010
0000
,
0010
0100
0010
0100
0010
0000
1010
0000
0110
0000
1001
0000
0010
0000
0110
0000
,
1000
0010
1000
0010
0000
0000
0110
0000
0001
1000
0001
1000
0001
0000
0010
0000
,
0100
0000
0000
1100
0000
0000
0000
0000
0000
0110
0000
0000
0000
0000
0000
1000
0001
1000
0001
1000
0000
0100
0010
0100
,
0010
0000
0100
0000
0010
0000
0100
0000
0000
0010
0000
0000
0000
0000
0000
0100
0000
0000
0010
0000
0000
0000
0000
0000
0010
0000
0000
0100
0000
0000
0000
0000
0000
0010
0000
0000
0100
0000
0000
0000
0000
0000
0010
0000
0000
0000
0000
0000
,
1010
0000
1000
0001
0000
0001
1000
0000
0001
0100
0000
0010
0100
0000
0020
0000
,
0000
0030
1000
0001
0000
1000
0010
0000
0001
1000
0000
0010
1000
0000
0100
0000
,
0010
0100
1010
0000
0110
2020
3030
0220
,
0000
0330
1000
0001
0000
0001
1000
0000
1000
0001
0000
1000
0001
0100
0010
0100
,
0010
0000
0100
0010
0000
0100
0010
0000
0100
0010
0000
0100
0010
0200
0000
0000
,
0300
0000
1000
0010
0000
0010
1000
0000
0010
0100
0000
0010
1000
0000
1000
0000
,
0101
0100
0202
0303
1000
2200
3300
2002
,
3003
0000
1000
0100
0010
0001
0010
0100
1000
0100
0010
0001
0010
0100
1000
0100
,
0010
0001
0010
0100
0010
0100
0001
0100
0001
0100
0002
0000
0000
0000
0000
0003
,
0000
0000
1010
0000
1000
0100
0010
0000
1000
0100
0010
0000
0010
0001
0010
0000
,
0010
0000
0000
0100
0000
0000
1000
0000
0000
0000
0000
0000
0100
0000
0000
1000
0000
0000
0100
0000
0000
0000
0000
0000
0100
0000
0000
0000
0000
0000
1000
0000
0000
0001
0000
0000
0000
0000
1000
0000
0001
0000
4000
0000
0000
0000
0000
0000
,
0000
0000
3001
0000
0010
0100
1000
0000
0010
0100
0010
0000
0100
0010
0001
0000
,
0100
0000
0000
0010
0000
0000
0200
0000
0000
0000
0000
0000
0320
0000
0000
0000
0000
0000
0230
0000
0000
0000
0000
0000
2300
0000
0000
0000
0000
0000
3001
0000
0000
1000
0000
0000
0000
0000
1000
0000
0001
0000
4000
0000
0000
0000
0000
0000
,
0000
0000
3010
0000
0001
0010
0001
0000
0100
0010
0100
0000
0100
0010
0001
0000
,
0100
0010
0100
0000
1000
0001
1000
0000
1000
0100
0020
0000
0000
0000
0130
0000
,
0010
0000
0110
0000
0010
0100
1000
0000
1000
0100
1000
0000
0001
0010
0100
0000
,
0001
0000
1000
0000
0001
0000
1000
0000
0000
0000
0000
0000
0010
0000
0000
0000
0000
0000
1000
0000
0000
0000
0000
0000
0010
0000
0000
0100
0000
0000
1000
0000
0000
0000
0000
0000
0100
0000
0000
0010
0000
0000
0100
0000
0000
0000
0000
0000
,
0110
0000
0010
0000
0100
0010
0100
0000
0100
0010
0001
0000
0100
0001
0100
0000
,
0010
0001
0010
0000
0001
0010
0100
0000
0100
0010
0002
0000
0000
0000
0103
0000
,
0000
0000
0101
0000
1000
0001
1000
0000
1000
0100
0010
0000
1000
0100
0010
0000
,
0100
0010
0100
0000
0200
0000
0302
0000
0023
0000
0230
0000
0300
0000
0002
0000
,
0003
0000
1010
0000
0100
0010
0100
0010
0100
0000
0100
0001
0100
0000
0101
0000
,
0000
0000
1010
0000
1000
0010
1000
0010
1000
0000
0010
0100
0000
0000
0002
0000
,
0000
0003
1000
0000
1000
0001
1000
0001
1000
0000
0010
0000
0100
0010
0200
0000
,
0300
0000
2000
3001
0000
0000
1000
0100
0010
0001
0010
0100
1000
0100
0010
0001
,
1000
0010
1000
0100
0010
0100
0010
0100
0010
0100
0010
0000
0010
0100
1000
0000
,
1000
0100
1000
0000
0010
0100
0010
0000
0100
0011
0100
0011
0000
0011
0100
0011
,
0100
0000
1100
0010
1100
0010
1100
0000
0010
0100
0010
0000
0100
0000
0010
0000
,
0100
0010
0001
0010
0001
0010
0001
0000
0001
0110
0001
0000
0001
0100
0001
0100
,
0001
0000
2000
0000
0000
0000
0000
0000
0000
0000
0000
0000
0000
0000
0000
0000
0000
0000
0000
0000
0000
0000
0000
0000
0000
0000
0000
0000
0000
0000
0000
0000
0000
0000
0000
0000
0000
0000
0000
0000
0000
0000
0000
0000
0000
3000
0000
0000
,
0000
1100
0000
0110
0000
1010
2000
0000
,
3000
0000
0001
0001
0000
1000
1000
0000
0100
0010
0000
0100
0001
0000
0010
0000
,
0101
0000
0010
0010
0000
1000
1000
0000
0100
0010
0000
0010
0100
0000
1010
0000
,
0100
0000
1010
0010
0000
1000
1000
0000
0100
0010
0000
0010
1000
0000
0010
0000
,
0110
0000
0100
0100
0000
0010
0010
0000
0100
1000
0000
1000
0100
0000
0020
0000
,
1030
0000
0010
0100
0010
0000
1010
0010
0000
0100
0100
0000
0010
0100
0000
0010
,
0100
0000
0100
0100
0000
1000
1000
0000
0010
1000
0000
0010
1000
0000
0010
0000
,
0010
0100
0010
0010
0000
1000
1000
0000
1000
0010
0000
0010
1000
0000
1001
0000
,
0110
0000
0000
2002
0000
0000
3003
0000
0000
2020
0000
0000
3030
0000
0000
0010
1000
0010
1000
0010
1000
0010
1000
0001
,
1000
0000
0001
0000
0000
0000
0010
0000
0000
0010
0000
0000
0000
0000
0000
0100
0000
0000
0100
0000
0000
0000
0000
0000
0100
0000
0000
0010
0000
0000
0000
0000
0000
0100
0000
0000
0010
0000
0000
0000
0000
0000
1000
0000
0000
0000
0000
0000
,
0110
0000
1000
1000
0000
0001
0001
0000
0010
0100
0000
0010
0100
0000
2000
0000
,
0000
0000
3001
0001
0000
1000
1000
0000
0100
0001
0000
0001
0100
0000
0010
0000
,
0100
0000
1010
0000
0200
0000
0000
0300
0100
0000
0120
0000
0000
0000
2030
0000
,
3000
0000
0001
0001
0000
1000
1000
0000
0001
1000
0000
0001
1000
0000
0100
0010
,
0100
0000
0010
0010
0000
1000
1000
0000
1000
0100
0000
0100
1000
0002
0000
0000
,
0003
0000
0100
0100
0000
0001
0001
0000
1000
0010
0000
0010
1000
0000
0010
0000
,
0100
0000
1000
0000
0001
1000
0001
1000
0001
1000
0010
1000
0010
1000
0010
1000
,
0100
1000
0010
1000
0010
0100
0010
0100
0010
0001
0010
0001
0010
0100
0010
0100
,
0010
1000
0100
1000
0100
1000
0010
0100
0010
0100
1000
0100
1000
0100
0010
1000
,
0010
1000
0010
0000
2020
0000
0000
0000
0000
0030
0020
0000
0030
0020
3030
0000
,
0000
0000
1000
1000
0000
0001
0001
0000
1000
0001
0000
1000
0001
0000
1100
0000
,
0110
0000
0100
0100
0000
0010
0010
0000
0100
0010
0000
0100
0010
0000
0120
0000
,
0000
0000
1030
1000
0000
0010
0010
0000
1000
0010
0000
0010
1000
0000
1010
0000
,
0101
0000
0001
0001
0000
0100
0100
0000
0010
0000
0020
0000
0000
0000
0130
0000
,
0011
0000
0100
0100
0000
0001
0001
0000
0100
0001
0000
0100
0001
0000
0010
0000
,
0101
0000
0100
0100
0000
1000
1000
0000
0100
0010
0000
0010
0100
0000
2002
0000
,
3003
0000
0010
0010
0000
0100
0100
0000
1000
0010
0000
1000
0010
0000
1000
0000
,
0110
0000
1000
1000
0000
0010
0010
0000
0010
0100
0000
0100
0010
0000
0010
0000
,
1010
0000
1000
1000
0000
0001
0001
0000
1000
0010
0000
0010
1000
0000
0010
0000
,
1010
0000
0100
0100
0000
0010
0010
0000
1000
0100
0000
0100
1000
0000
0220
0000
,
0330
0000
1000
1000
0000
0010
0010
0000
0100
0010
0000
0100
0010
0000
1000
0000
,
1010
0000
0001
0001
0000
0100
0100
0000
0001
0100
0000
0100
0001
0000
0202
0000
,
0303
0000
0010
0010
0000
0100
0100
0000
1000
0010
0000
1000
0010
0000
1000
0000
,
1010
0000
1000
1000
0000
0010
0010
0000
1000
0100
0000
1000
0100
0000
2020
0000
,
3030
0000
0010
0010
0000
0100
0100
0000
0010
0100
0000
0010
0100
0000
1000
0000
,
0110
0000
1000
0001
0000
0001
1000
0000
1000
0001
0000
0001
1000
0000
0100
0000
,
1010
0000
0010
1000
0010
1000
0010
1000
0010
1000
0010
1000
0010
0100
1000
0100
,
0010
0001
0010
0100
1000
0100
0010
0001
0010
0100
2000
0000
0000
0000
0000
0000
,
0000
0000
0000
0000
0000
0000
0000
3000
;

//---------------dance-single - ----------------
#NOTEDATA:;
#CHARTNAME:;
#STEPSTYPE:dance-single;
#DESCRIPTION:;
#CHARTSTYLE:;
#DIFFICULTY:Medium;
#METER:3;
#RADARVALUES:0.328,0.437,0.091,0.370,0.000,361.000,18.000,73.000,0.000,0.000,0.000,0.000,0.000,0.328,0.437,0.091,0.370,0.000,361.000,18.000,73.000,0.000,0.000,0.000,0.000,0.000;
#CREDIT:;
#OFFSET:0.020;
#BPMS:0.000=132.000
;
#STOPS:;
#DELAYS:;
#WARPS:;
#TIMESIGNATURES:0.000=4=4
;
#TICKCOUNTS:0.000=4
;
#COMBOS:0.000=1
;
#SPEEDS:0.000=1.000=0.000=0
,150.500=0.500=0.000=0
,150.625=1.000=0.000=0
,150.750=0.500=0.000=0
,150.875=1.000=0.000=1
,151.125=0.500=0.000=0
,151.250=1.000=0.000=0
,151.375=0.500=0.000=0
,151.500=1.000=0.000=0
,354.000=0.200=0.000=0
,354.250=1.000=0.000=0
,354.750=0.200=0.000=0
,355.000=1.000=0.000=0
;
#SCROLLS:0.000=1.000
,6.500=0.500
,7.500=1.000
,186.500=0.900
,187.500=0.800
,188.500=0.700
,189.500=0.600
,190.500=0.500
,192.000=1.000
,238.500=0.500
,240.000=1.000
,243.500=0.000
,244.000=1.000
,247.500=0.000
,248.000=1.000
,251.500=0.000
,252.000=1.000
;
#FAKES:;
#LABELS:0.000=Song Start
;
#ATTACKS:TIME=50.661816:LEN=1.363636:MODS=*16 30% Flip,*0.4 200% Mini,Overhead:TIME=193.843628:LEN=5.454544:MODS=*0.4 200% Mini,*4 10000% Tornado,*4 10000% Bumpy:TIME=123.616364:LEN=1.136368:MODS=-35% Mini, Overhead;
#NOTES:
// measure 0
0000
0000
0000
0000
,  // measure 1
0000
0000
0000
0000
0000
0002
0000
0000
,  // measure 2
0003
1000
0000
0100
0000
0010
0000
0100
,  // measure 3
0000
2000
0000
0000
0000
0000
3000
0000
,  // measure 4
0000
0010
0000
0000
0000
0100
0000
0000
,  // measure 5
0000
1000
0000
0010
0000
1000
0000
1010
,  // measure 6
0000
0001
0000
1000
0000
0100
0000
0010
,  // measure 7
0000
1000
0000
0100
0000
0010
0000
0100
,  // measure 8
0000
1000
0000
0001
0000
1001
0000
0000
,  // measure 9
0000
0010
0000
0000
0000
1000
0000
0002
,  // measure 10
0000
0000
0003
0100
0000
0010
0000
1000
,  // measure 11
0000
0200
0000
0000
0000
0300
0000
0110
,  // measure 12
0000
0000
0000
0010
0000
0100
0000
1000
,  // measure 13
0000
0100
0000
0010
0000
0001
0000
0100
,  // measure 14
0000
0101
0000
0000
0000
0010
0000
0000
,  // measure 15
0000
0100
0000
0000
0000
0001
0000
1000
,  // measure 16
0000
0200
0000
0000
0300
0010
0000
0200
,  // measure 17
0000
0300
0000
0001
0000
1000
0000
0002
,  // measure 18
0000
0000
0003
0010
0000
0100
0000
0001
,  // measure 19
0000
0010
0000
0100
0000
0001
0000
0101
,  // measure 20
0000
2000
0000
0000
3000
0002
0000
0000
,  // measure 21
0003
2000
0000
0000
0000
0000
0000
0000
,  // measure 22
3000
0020
0000
0000
0030
0200
0000
0000
,  // measure 23
0300
0002
0000
0000
0003
2000
0000
0000
,  // measure 24
3000
0100
0000
0000
0000
0010
0000
1000
,  // measure 25
0000
0100
0000
1000
0000
0020
0000
0030
,  // measure 26
1000
0100
0000
1000
0000
0100
0000
0010
,  // measure 27
0000
0110
0000
0000
0000
1000
0000
0002
,  // measure 28
0000
0000
0000
0000
,  // measure 29
0000
0000
0000
0003
0000
1000
0001
0000
,  // measure 30
0000
0100
0000
0010
0000
1000
0200
0000
,  // measure 31
0300
0000
0000
0010
0100
0010
0110
0000
,  // measure 32
0000
0000
0000
0010
0001
0100
0000
1000
,  // measure 33
0100
1000
0020
0000
0000
0030
0000
0000
,  // measure 34
0000
0000
0000
1000
0001
1000
0200
0000
,  // measure 35
0000
0300
0000
0010
0100
0001
0200
0000
,  // measure 36
0000
0300
0000
0010
0100
1000
0000
0100
,  // measure 37
0010
0101
0000
0110
0000
0002
0000
0003
,  // measure 38
0000
1000
0200
0000
0301
0200
0000
0000
,  // measure 39
0300
0010
0100
0000
0020
0000
0000
0030
,  // measure 40
0000
1000
0001
0000
1000
0001
0000
0100
,  // measure 41
0000
0020
0000
0030
0100
0010
0000
0000
,  // measure 42
0000
1000
0002
0000
2003
0000
0000
0000
,  // measure 43
3000
0100
0010
0000
0200
0000
0000
0300
,  // measure 44
0000
0010
0100
0000
1000
0000
0000
0100
,  // measure 45
0000
0010
0100
0000
0010
0200
0000
0000
,  // measure 46
0300
0001
0000
1000
0000
0100
0000
1000
,  // measure 47
0000
0010
0000
0100
0000
0020
0000
0000
,  // measure 48
0030
1000
0000
0100
0000
0110
0000
1000
,  // measure 49
0000
0101
0000
0010
0000
0100
0000
0002
,  // measure 50
0000
0000
0003
0010
0000
0100
0000
0100
,  // measure 51
0010
0100
0000
1000
0000
0100
0000
0020
,  // measure 52
0000
0000
0030
0100
0000
0010
0000
0100
,  // measure 53
0000
0001
0000
0100
0000
0001
0000
0100
,  // measure 54
0020
0000
0030
0001
0000
0010
0000
0100
,  // measure 55
0000
0010
0000
0100
0000
0001
0000
0010
,  // measure 56
0000
0002
0000
0000
0003
0200
0000
0000
,  // measure 57
0300
0020
0000
0000
0030
2000
0000
0000
,  // measure 58
3000
0200
0000
0000
0300
2000
0000
0000
,  // measure 59
3000
0020
0000
0000
0030
0200
0000
0000
,  // measure 60
0300
1000
0000
0100
0000
1000
0000
1100
,  // measure 61
0000
0010
0000
0100
0000
0010
0000
0110
,  // measure 62
0000
0001
0000
0100
0000
0001
0000
0101
,  // measure 63
0000
0200
0000
0310
0000
0100
0000
0100
,  // measure 64
0000
1000
0100
1000
0100
1000
0001
1000
,  // measure 65
0001
0010
0001
0010
1000
0001
0100
0001
,  // measure 66
0100
0001
1000
0001
1000
0001
0100
1000
,  // measure 67
0100
1000
0100
1000
0100
1000
0100
0100
,  // measure 68
0020
0000
0000
0030
,  // measure 69
0000
1000
0000
0001
0000
2000
0000
0000
,  // measure 70
3000
0100
0000
0100
1000
0100
0020
0000
,  // measure 71
0000
0000
0030
0010
0001
0100
0020
0000
,  // measure 72
0000
0000
0030
1000
0100
1000
0000
0010
,  // measure 73
0100
0001
0200
0000
0000
0000
0000
0300
,  // measure 74
0000
0000
0000
0010
1000
0001
0020
0000
,  // measure 75
0000
0000
0030
0100
0010
0100
0002
0000
,  // measure 76
0000
0000
0003
1000
0100
0010
0000
0010
,  // measure 77
0100
0101
0000
0110
0000
0202
0000
0303
,  // measure 78
0000
1000
0100
0000
0010
0200
0000
0000
,  // measure 79
0300
1000
0100
0000
0010
0200
0000
0000
,  // measure 80
0300
0010
0100
0000
1000
0100
0000
0010
,  // measure 81
0100
0010
0100
0000
0100
0002
0000
0000
,  // measure 82
0003
0100
0001
0000
0100
0020
0000
0000
,  // measure 83
0030
1000
0010
0000
1000
0200
0000
0000
,  // measure 84
0300
0100
0010
0000
0100
0010
0000
0000
,  // measure 85
0000
1000
0001
0000
0001
1000
0000
0000
,  // measure 86
0000
0100
0010
0000
0010
0100
0000
0000
,  // measure 87
0000
0100
1000
0100
0000
0100
0010
0100
,  // measure 88
0000
1000
0002
0000
0000
0000
0003
0000
,  // measure 89
0000
0200
0000
0000
0000
0000
0300
0010
,  // measure 90
0000
0001
2000
0000
0000
0000
0000
3000
,  // measure 91
0000
0200
0000
0000
0000
0000
0300
0010
,  // measure 92
0000
0100
0020
0000
0000
0000
0000
0000
,  // measure 93
0030
2000
0000
0000
0000
0000
3000
0001
,  // measure 94
0000
1000
0002
0000
0000
0000
0000
0003
,  // measure 95
0000
0020
0000
0000
0000
0000
0030
0100
,  // measure 96
0000
0010
0200
0000
0000
0000
0000
0300
,  // measure 97
0000
2000
0000
0000
0000
0000
3000
0100
,  // measure 98
0000
1000
0200
0000
0000
0000
0000
0000
,  // measure 99
0300
0020
0000
0000
0000
0000
0030
0100
,  // measure 100
0000
0010
0200
0000
0000
0000
0000
0300
,  // measure 101
0000
1000
0001
0000
1000
0200
0000
0000
,  // measure 102
0300
0010
0100
0000
1000
0200
0000
0000
,  // measure 103
0300
0001
0100
0000
1000
0100
0000
0000
,  // measure 104
0000
0010
0100
0000
0010
0100
0000
0000
,  // measure 105
0000
1000
0000
0001
0000
1000
0000
0100
,  // measure 106
0000
1000
0000
0010
0000
2002
0000
0000
,  // measure 107
0000
0000
0000
3003
;
