#VERSION:0.81;
#TITLE:Catch Me If You Can;
#SUBTITLE:;
#ARTIST:Girl's Generation;
#TITLETRANSLIT:;
#SUBTITLETRANSLIT:;
#ARTISTTRANSLIT:;
#GENRE:;
#ORIGIN:;
#CREDIT:;
#BANNER:Catch Me If You Can.png;
#BACKGROUND:Catch Me If You Can-bg.png;
#PREVIEWVID:;
#JACKET:AlbumArtSmall.jpg;
#CDIMAGE:Folder.jpg;
#DISCIMAGE:;
#LYRICSPATH:;
#CDTITLE:;
#MUSIC:01 Catch Me If You Can.mp3;
#OFFSET:0.000000;
#SAMPLESTART:100.000000;
#SAMPLELENGTH:12.000000;
#SELECTABLE:YES;
#BPMS:0.000=134.000;
#STOPS:;
#DELAYS:;
#WARPS:;
#TIMESIGNATURES:0.000=4=4;
#TICKCOUNTS:0.000=4;
#COMBOS:0.000=1;
#SPEEDS:0.000=1.000=0.000=0;
#SCROLLS:0.000=1.000;
#FAKES:;
#LABELS:0.000=Song Start;
#BGCHANGES:;
#KEYSOUNDS:;
#ATTACKS:
;

//---------------dance-single - ----------------
#NOTEDATA:;
#CHARTNAME:;
#STEPSTYPE:dance-single;
#DESCRIPTION:;
#CHARTSTYLE:;
#DIFFICULTY:Hard;
#METER:8;
#RADARVALUES:0.588705,0.634029,0.065102,0.605445,0.192050,530.000000,10.000000,93.000000,0.000000,0.000000,0.000000,0.000000,0.000000,0.588705,0.634029,0.065102,0.605445,0.192050,530.000000,10.000000,93.000000,0.000000,0.000000,0.000000,0.000000,0.000000;
#CREDIT:;
#OFFSET:0.000000;
#BPMS:0.000000=134.000000
;
#STOPS:;
#DELAYS:;
#WARPS:;
#TIMESIGNATURES:0.000000=4=4
;
#TICKCOUNTS:0.000000=4
;
#COMBOS:0.000000=1
;
#SPEEDS:0.000000=1.000000=0.000000=0
,13.750000=0.200000=0.000000=0
,14.000000=1.000000=0.000000=0
,14.750000=0.200000=0.000000=0
,15.000000=1.000000=0.000000=0
,15.750000=0.200000=0.000000=0
,16.000000=1.000000=0.000000=0
,16.750000=0.200000=0.000000=0
,17.000000=1.000000=0.000000=0
,29.750000=0.200000=0.000000=0
,30.000000=1.000000=0.000000=0
,30.750000=0.200000=0.000000=0
,31.000000=1.000000=0.000000=0
,31.750000=0.200000=0.000000=0
,32.000000=1.000000=0.000000=0
,32.750000=0.200000=0.000000=0
,33.000000=1.000000=0.000000=0
,45.750000=0.200000=0.000000=0
,46.000000=1.000000=0.000000=0
,46.750000=0.200000=0.000000=0
,47.000000=1.000000=0.000000=0
,47.750000=0.200000=0.000000=0
,48.000000=1.000000=0.000000=0
,48.750000=0.200000=0.000000=0
,49.000000=1.000000=0.000000=0
,61.750000=0.200000=0.000000=0
,62.000000=1.000000=0.000000=0
,62.750000=0.200000=0.000000=0
,63.000000=1.000000=0.000000=0
,63.750000=0.200000=0.000000=0
,64.000000=1.000000=0.000000=0
,64.750000=0.200000=0.000000=0
,65.000000=1.000000=0.000000=0
,77.750000=0.200000=0.000000=0
,78.000000=1.000000=0.000000=0
,78.750000=0.200000=0.000000=0
,79.000000=1.000000=0.000000=0
,79.750000=0.200000=0.000000=0
,80.000000=1.000000=0.000000=0
,80.750000=0.200000=0.000000=0
,81.000000=1.000000=0.000000=0
;
#SCROLLS:0.000000=1.000000
,5.500000=-3.000000
,5.750000=1.000000
,9.500000=-3.000000
,9.750000=1.000000
,13.500000=5.000000
,13.750000=0.000000
,14.000000=1.000000
,14.500000=5.000000
,14.750000=0.000000
,15.000000=1.000000
,15.500000=5.000000
,15.750000=0.000000
,16.000000=1.000000
,16.500000=5.000000
,16.750000=0.000000
,17.000000=1.000000
,29.500000=5.000000
,29.750000=0.000000
,30.000000=1.000000
,30.500000=5.000000
,30.750000=0.000000
,31.000000=1.000000
,31.500000=5.000000
,31.750000=0.000000
,32.000000=1.000000
,32.500000=5.000000
,32.750000=0.000000
,33.000000=1.000000
,45.500000=5.000000
,45.750000=0.000000
,46.000000=1.000000
,46.500000=5.000000
,46.750000=0.000000
,47.000000=1.000000
,47.500000=5.000000
,47.750000=0.000000
,48.000000=1.000000
,48.500000=5.000000
,48.750000=0.000000
,49.000000=1.000000
,61.500000=5.000000
,61.750000=0.000000
,62.000000=1.000000
,62.500000=5.000000
,62.750000=0.000000
,63.000000=1.000000
,63.500000=5.000000
,63.750000=0.000000
,64.000000=1.000000
,64.500000=5.000000
,64.750000=0.000000
,65.000000=1.000000
,77.500000=5.000000
,77.750000=0.000000
,78.000000=1.000000
,78.500000=5.000000
,78.750000=0.000000
,79.000000=1.000000
,79.500000=5.000000
,79.750000=0.000000
,80.000000=1.000000
,80.500000=5.000000
,80.750000=0.000000
,81.000000=1.000000
,141.500000=0.000000
,142.500000=1.000000
,145.500000=2.000000
,146.250000=1.000000
,147.500000=2.000000
,148.250000=1.000000
,149.500000=2.000000
,150.250000=1.000000
,151.500000=2.000000
,152.250000=1.000000
,153.500000=2.000000
,154.250000=1.000000
,155.500000=2.000000
,156.250000=1.000000
,157.500000=2.000000
,158.250000=1.000000
,161.500000=2.000000
,162.250000=1.000000
,163.500000=2.000000
,164.250000=1.000000
,165.500000=2.000000
,166.250000=1.000000
,167.500000=2.000000
,168.250000=1.000000
,169.500000=2.000000
,170.250000=1.000000
,171.500000=2.000000
,172.250000=1.000000
,173.500000=2.000000
,174.250000=1.000000
,269.250000=0.000000
,270.500000=1.000000
,273.500000=2.000000
,274.250000=1.000000
,275.500000=2.000000
,276.250000=1.000000
,277.500000=2.000000
,278.250000=1.000000
,279.500000=2.000000
,280.250000=1.000000
,281.000000=0.000000
,281.125000=1.000000
,281.250000=0.000000
,281.375000=1.000000
,281.500000=2.000000
,282.250000=1.000000
,283.500000=2.000000
,284.250000=1.000000
,285.500000=2.000000
,286.250000=1.000000
,289.500000=2.000000
,290.250000=1.000000
,291.500000=2.000000
,292.250000=1.000000
,293.500000=2.000000
,294.250000=1.000000
,295.500000=2.000000
,296.250000=1.000000
,297.500000=2.000000
,298.250000=1.000000
,299.500000=2.000000
,300.250000=1.000000
,301.500000=2.000000
,302.250000=1.000000
,305.500000=2.000000
,306.250000=1.000000
,307.500000=2.000000
,308.250000=1.000000
,309.500000=2.000000
,310.250000=1.000000
,311.500000=2.000000
,312.250000=1.000000
,313.500000=2.000000
,314.250000=1.000000
,315.500000=2.000000
,316.250000=1.000000
,317.500000=2.000000
,318.250000=1.000000
,321.500000=2.000000
,322.250000=1.000000
,323.500000=2.000000
,324.250000=1.000000
,325.500000=2.000000
,326.250000=1.000000
,327.500000=2.000000
,328.250000=1.000000
,329.500000=2.000000
,330.250000=1.000000
,331.500000=2.000000
,332.250000=1.000000
,333.500000=2.000000
,334.250000=1.000000
,337.000000=-5.000000
,337.500000=6.000000
,338.500000=1.000000
;
#FAKES:;
#LABELS:0.000000=Song Start
;
#NOTES:
// measure 0
0000
0000
0000
0000
0000
0000
2000
0000
0000
0000
3000
0000
0001
1000
0000
0001
,  // measure 1
0000
0000
1000
0000
0001
0000
2000
0000
0000
0000
3000
0000
0001
1000
0000
0001
,  // measure 2
0000
0000
1000
0000
0010
0000
2000
0000
0000
0000
3000
0000
0001
1000
0000
0010
,  // measure 3
0000
2000
3000
0002
0003
0200
0300
0020
,  // measure 4
0030
0000
2000
0000
3000
0000
0001
0000
0000
0100
0100
0000
0010
0000
1000
0000
,  // measure 5
0010
0000
1000
0000
0001
0000
0100
0000
0000
0010
0010
0000
0100
0000
0001
0000
,  // measure 6
1000
0000
0001
0000
1000
0000
0001
0000
0000
0100
0100
0000
0010
0000
1000
0000
,  // measure 7
0001
0100
0001
0200
0300
0002
0003
2000
,  // measure 8
3000
0000
0020
0000
0030
0000
1000
0000
0000
0100
0100
0000
0010
0000
0001
0000
,  // measure 9
0010
0000
0001
0000
1000
0000
0100
0000
0000
0010
0010
0000
0100
0000
0001
0000
,  // measure 10
1000
0000
0001
0000
1000
0000
0001
0000
0000
0100
0100
0000
0010
0000
1000
0000
,  // measure 11
0001
0100
0001
0200
0300
0002
0003
2000
,  // measure 12
3000
0020
0030
1000
0100
0010
0100
1000
,  // measure 13
0010
0100
0001
0001
0010
0100
1000
0020
,  // measure 14
0000
0000
0030
0100
0010
0100
0010
1000
,  // measure 15
0010
0100
0010
2000
3000
0200
0300
0020
,  // measure 16
0030
0002
0003
0100
0001
0100
0001
0100
,  // measure 17
0010
0100
0010
1000
0001
0100
0001
2000
,  // measure 18
0000
0000
0000
3000
0001
0000
1000
0000
0010
0000
0001
0000
1000
0000
0010
0000
,  // measure 19
0001
1000
0001
0200
0300
0020
0030
0200
,  // measure 20
0300
0002
0003
0100
0001
1000
0200
0000
,  // measure 21
0000
0000
0000
0300
1000
0000
0001
0000
0100
0000
0001
0000
2000
0000
0000
0000
,  // measure 22
0000
3000
0010
0100
0001
1000
0020
0000
,  // measure 23
0000
0030
0100
0010
0000
1000
0002
0000
,  // measure 24
2003
0000
3000
0001
0010
0001
0200
0000
,  // measure 25
0000
0300
0000
0000
0010
0000
0100
0000
0001
0000
0100
0000
0002
0000
0000
0000
,  // measure 26
0000
0003
0100
0001
1000
0001
0200
0000
,  // measure 27
0000
0300
0010
1000
0000
0100
2000
0000
,  // measure 28
3002
0000
0000
0000
0000
0000
1003
0000
0001
1000
0000
0000
0010
0000
1000
0000
,  // measure 29
0001
1000
0000
0000
1000
0000
0010
0000
0100
0001
0000
0000
0100
0000
0001
0000
,  // measure 30
0100
0010
0000
0000
0100
0000
0010
0000
1000
0100
0000
0000
1000
0000
0010
0000
,  // measure 31
0100
0001
0000
0000
0010
0000
0001
0000
0000
0000
0010
0000
0001
0000
0000
0000
,  // measure 32
0101
0000
0000
0000
0000
0000
0100
0000
0010
0100
0000
0000
0010
0000
1000
0000
,  // measure 33
0010
1000
0000
0000
0010
0000
1000
0000
0001
0100
0000
0000
0010
0000
1000
0000
,  // measure 34
0001
1000
0000
0000
0010
0000
1000
0000
0010
1000
0000
0000
0001
0000
1000
0000
,  // measure 35
0001
1000
0000
0000
0020
0000
0030
0000
0000
0000
0100
0000
0010
0000
0100
0000
,  // measure 36
0000
0001
0000
0000
1000
0000
0002
0000
0000
0003
1000
0000
0001
0000
0200
0000
,  // measure 37
0000
0300
0010
0000
0100
0000
0002
0000
0000
0003
1000
0000
0100
0000
0020
0000
,  // measure 38
0000
0030
1000
0000
0001
0010
0200
0000
0000
0300
0000
0000
1000
0000
0002
0000
,  // measure 39
0000
0003
0010
0000
0001
0000
2000
0000
0000
3000
0010
0000
1000
0000
0001
0000
,  // measure 40
0000
1000
0000
0000
0001
0000
0200
0000
0000
0300
0010
0000
1000
0000
0200
0000
,  // measure 41
0000
0300
0010
0000
0001
0000
2000
0000
0000
3000
0010
0000
1000
0000
0002
0000
,  // measure 42
0000
0003
0100
0000
0001
0000
2000
0000
0000
3000
0010
0000
1000
0000
0002
0000
,  // measure 43
0000
0003
0100
0000
0001
0000
2000
0000
0000
3000
0010
0000
0100
0000
0010
0000
,  // measure 44
0000
0100
0000
0000
0010
0000
1000
0000
0000
0000
0001
0000
0000
0000
1000
0000
,  // measure 45
0000
0010
0000
0001
0000
1000
0002
0000
,  // measure 46
0000
0000
0003
1000
0001
0100
0010
0100
,  // measure 47
0000
0010
0000
0000
2000
0000
0000
0000
3000
0001
0100
0000
0000
0101
0000
0000
,  // measure 48
0000
0100
0010
0000
0000
0000
0100
0000
0000
0000
0010
0000
0000
0000
1000
0000
,  // measure 49
0000
0100
0000
0010
0000
0001
2000
0000
,  // measure 50
0000
3000
0000
0010
0001
0010
0001
0010
,  // measure 51
0000
0100
0020
0000
0000
0001
0000
0001
,  // measure 52
0000
0000
0001
0030
0000
0000
0001
0000
1000
0000
0001
0000
2000
0000
0000
0000
,  // measure 53
0001
3010
0001
0100
0001
0010
0001
0100
,  // measure 54
0001
1000
0010
1000
0100
1000
0010
1000
,  // measure 55
0100
1000
0001
0100
0000
0001
1000
0000
,  // measure 56
0020
0000
0000
0200
0330
0100
0001
1000
,  // measure 57
0010
0100
0001
1000
0010
0100
0001
1000
,  // measure 58
0010
0100
0001
1000
0010
0100
0001
1000
,  // measure 59
0010
0100
0010
2000
0000
3001
1000
0000
,  // measure 60
1100
0000
0000
0000
0000
0000
1000
0000
0001
1000
0000
0000
1001
0000
0001
0000
,  // measure 61
0100
0001
0000
0000
0101
0000
0001
0000
0100
0010
0000
0000
0110
0000
0010
0000
,  // measure 62
1000
0010
0000
0000
1010
0000
1000
0000
0001
0100
0000
0000
0110
0000
0100
0000
,  // measure 63
0010
0100
0000
0000
0101
0000
0002
0000
0000
0000
1003
0000
0200
0000
0000
0000
,  // measure 64
2300
0000
0000
0000
0000
0000
3010
0000
0100
0001
0100
0000
0001
0000
1000
0000
,  // measure 65
0010
0100
0010
0000
0100
0000
0001
0000
0100
0001
0100
0000
0001
0000
1000
0000
,  // measure 66
0010
1000
0010
0000
1000
0000
0001
1000
0010
0100
0001
1000
0010
0100
0001
1000
,  // measure 67
0010
0100
0001
1000
0010
0100
0000
0000
0000
0000
0001
0000
1000
0000
0001
0000
,  // measure 68
0000
0010
0000
0000
0100
0000
0020
0000
0000
0030
0100
0000
0010
0000
0002
0000
,  // measure 69
0000
0003
1000
0000
0001
0000
0020
0000
0000
0030
0100
0000
0001
0000
2000
0000
,  // measure 70
0000
3000
0100
0000
0010
0100
2000
0000
0000
0000
3001
0000
0100
0000
0020
0000
,  // measure 71
0000
0030
0100
0000
0010
0000
0200
0000
0000
0300
1000
0000
0100
0000
0010
0000
,  // measure 72
0000
0100
0000
0000
0010
0000
0002
0000
0000
0003
1000
0000
0100
0000
2000
0000
,  // measure 73
0000
3000
0001
0000
0010
0000
0200
0000
0000
0300
1000
0000
0100
0000
0020
0000
,  // measure 74
0000
0030
0001
0000
1000
0010
0200
0000
0000
0300
1000
0000
0100
0000
0020
0000
,  // measure 75
0000
0030
0001
0000
0010
0000
0200
0000
0000
0300
1000
0000
0001
0000
1000
0000
,  // measure 76
0000
0001
0000
0000
1000
0000
0020
0000
0000
0030
0100
0000
0010
0000
0200
0000
,  // measure 77
0000
0300
0010
0000
1000
0000
0002
0000
0000
0003
1000
0000
0001
0000
0020
0000
,  // measure 78
0000
0030
0100
0000
0010
0100
2000
0000
0000
3000
0100
0000
0010
0000
0002
0000
,  // measure 79
0000
0003
0100
0000
0100
0000
0002
0000
0000
0003
1000
0000
0100
0000
1000
0000
,  // measure 80
0000
0001
0000
0000
1000
0000
0002
0000
0000
0003
0010
0000
0010
0000
0002
0000
,  // measure 81
0000
0003
1000
0000
0001
0000
2000
0000
0000
3000
0100
0000
0010
0000
0200
0000
,  // measure 82
0000
0300
1000
0000
0001
0100
0020
0000
0000
0030
0001
0000
0010
0000
0200
0000
,  // measure 83
0000
0300
1000
0000
0100
0000
0020
0000
0000
0030
0001
0000
0010
0000
0200
0000
,  // measure 84
0000
0310
0000
0000
0220
0000
0000
0000
0000
0000
0000
0330
0000
0000
0000
0000
;

//---------------dance-single - ----------------
#NOTEDATA:;
#CHARTNAME:;
#STEPSTYPE:dance-single;
#DESCRIPTION:;
#CHARTSTYLE:;
#DIFFICULTY:Medium;
#METER:4;
#RADARVALUES:0.247386,0.275868,0.000000,0.611955,0.000000,172.000000,0.000000,94.000000,0.000000,0.000000,0.000000,0.000000,0.000000,0.247386,0.275868,0.000000,0.611955,0.000000,172.000000,0.000000,94.000000,0.000000,0.000000,0.000000,0.000000,0.000000;
#CREDIT:;
#NOTES:
// measure 0
0000
0000
0000
0000
,  // measure 1
0000
0000
0000
0010
0000
0000
0000
0000
,  // measure 2
0000
0000
0000
1000
0000
0000
0000
0000
,  // measure 3
0000
0000
0000
0010
0000
0100
0000
0010
,  // measure 4
0000
1000
0000
0002
0000
0000
0003
0000
,  // measure 5
0000
0000
0000
2000
0000
0000
0000
3000
,  // measure 6
0000
0000
0000
0020
0000
0000
0030
0000
,  // measure 7
0000
0000
0000
1000
0000
0001
0000
1000
,  // measure 8
0000
0001
0000
0020
0000
0000
0030
0000
,  // measure 9
0000
0000
0000
0002
0000
0000
0003
0000
,  // measure 10
0000
0000
0000
2000
0000
0000
3000
0000
,  // measure 11
0000
0000
0000
0001
0000
0100
0000
0002
,  // measure 12
0000
2003
0000
3000
0000
0000
0000
0000
,  // measure 13
0000
0000
0000
1000
0000
0001
0000
2000
,  // measure 14
0000
3000
0000
0000
,  // measure 15
0000
0000
0000
0010
0000
0100
0000
0010
,  // measure 16
0000
0100
0000
0001
0000
0000
0000
1000
,  // measure 17
0000
0000
0000
0001
0000
0000
0000
2000
,  // measure 18
0000
0000
3000
0010
0000
0000
0000
0100
,  // measure 19
0000
0000
0000
0001
0000
0100
0000
0001
,  // measure 20
0000
0100
0000
0002
0000
0000
0003
2000
,  // measure 21
0000
0000
3000
0010
0000
0000
0000
2000
,  // measure 22
0000
3000
0000
0100
0000
0000
0000
0010
,  // measure 23
0000
0000
0000
2000
0000
3000
0000
0002
,  // measure 24
0000
0000
0003
0020
0000
0000
0030
0200
,  // measure 25
0000
0000
0300
0002
0000
0000
0003
2000
,  // measure 26
0000
0000
3000
0020
0000
0000
0030
2000
,  // measure 27
0000
0000
3000
0010
0000
0000
1000
0000
,  // measure 28
0100
0000
0000
2000
0000
0000
0000
0000
,  // measure 29
3000
0000
0001
2000
0000
3000
0002
0000
,  // measure 30
0000
0003
1000
0200
0000
0000
2300
0000
,  // measure 31
0000
3000
0000
0010
0000
0100
0010
0000
,  // measure 32
0100
0000
0000
0020
0000
0000
0130
0200
,  // measure 33
0000
0300
0000
0002
0000
0000
2003
0000
,  // measure 34
0000
0000
3000
0020
0000
0000
2030
0000
,  // measure 35
0000
3000
0000
0000
,  // measure 36
0000
0000
0000
2000
0000
0000
3000
0002
,  // measure 37
0000
0003
0000
0200
0000
0300
0000
0020
,  // measure 38
0000
0030
0000
2000
0000
3000
0000
0002
,  // measure 39
0000
0003
0000
2000
0000
3000
0000
0020
,  // measure 40
0000
0030
0000
0200
0000
0300
0000
0002
,  // measure 41
0000
0003
0000
2000
0000
3000
0000
0020
,  // measure 42
0000
0030
0000
0200
0000
0300
0000
2000
,  // measure 43
0000
3000
0000
0002
0000
0003
0000
2000
,  // measure 44
0000
0000
3000
0001
0000
1000
0000
0100
,  // measure 45
0000
1000
0000
0010
0000
1000
0000
0200
,  // measure 46
0000
0000
0300
0010
0000
0100
0000
0010
,  // measure 47
0000
0100
0000
0002
0000
0000
0000
0000
,  // measure 48
0003
0000
0000
1000
0000
0010
0000
1000
,  // measure 49
0000
0100
0000
1000
0000
0001
0000
2000
,  // measure 50
0000
0000
3000
0001
0000
0001
0000
1000
,  // measure 51
0000
1000
0000
0010
0000
0010
0000
0100
,  // measure 52
0000
0100
0000
0002
0000
0003
0000
2000
,  // measure 53
0000
0000
0000
0000
,  // measure 54
0000
0000
0000
3020
0000
0000
0000
0000
,  // measure 55
0000
0000
0030
0100
0000
0001
1000
0000
,  // measure 56
0001
0000
0000
2000
0000
0000
0000
0000
,  // measure 57
0000
0000
0000
0000
,  // measure 58
3000
0000
0000
0000
0000
0020
0000
0000
,  // measure 59
0000
0000
0000
0030
0000
0000
0000
0000
,  // measure 60
0000
0000
0000
0200
0000
0300
0010
0000
,  // measure 61
0000
0000
0000
0010
0000
0000
0200
0000
,  // measure 62
0000
0300
0000
0001
0000
0000
2000
0000
,  // measure 63
0000
3000
0000
0010
0000
0100
0000
0010
,  // measure 64
0000
1000
0000
0002
0000
0000
1003
0000
,  // measure 65
0000
0000
0000
0010
0000
0000
2000
0000
,  // measure 66
3000
0000
0000
0001
0000
0000
2000
0000
,  // measure 67
0000
0000
0000
3000
0000
0000
0000
0000
,  // measure 68
0000
0000
0000
0020
0000
0030
0000
0200
,  // measure 69
0000
0300
0000
0002
0000
0003
0000
2000
,  // measure 70
0000
0000
3000
0020
0000
0030
0000
0200
,  // measure 71
0000
0300
0000
0002
0000
0003
0000
2000
,  // measure 72
0000
3000
0000
0020
0000
0030
0000
0200
,  // measure 73
0000
0300
0000
0002
0000
0003
0000
2000
,  // measure 74
0000
3000
0000
0020
0000
0030
0000
2000
,  // measure 75
0000
3000
0000
0200
0000
0300
0000
0020
,  // measure 76
0000
0030
0000
0002
0000
0003
0000
0020
,  // measure 77
0000
0030
0000
0200
0000
0300
0000
2000
,  // measure 78
0000
3000
0000
0002
0000
0003
0000
2000
,  // measure 79
0000
3000
0000
0200
0000
0300
0000
2000
,  // measure 80
0000
0000
3000
0020
0000
0030
0000
0200
,  // measure 81
0000
0300
0000
0002
0000
0003
0000
2000
,  // measure 82
0000
3000
0000
0020
0000
0030
0000
0200
,  // measure 83
0000
0300
0000
0020
0000
0000
0030
0000
,  // measure 84
0000
2000
0000
3000
;
