#TITLE:BRE∀K DOWN!;
#SUBTITLE:;
#ARTIST:Super Junior M;
#TITLETRANSLIT:Break Down!;
#SUBTITLETRANSLIT:;
#ARTISTTRANSLIT:;
#GENRE:Dance / Ballad;
#CREDIT:;
#BANNER:Break Down.png;
#BACKGROUND:Break Down-bg.png;
#LYRICSPATH:;
#CDTITLE:;
#MUSIC:BREAK DOWN.mp3;
#OFFSET:0.020;
#SAMPLESTART:100.020;
#SAMPLELENGTH:12.000;
#SELECTABLE:YES;
#BPMS:0.000=130.100
;
#STOPS:
;
#BGCHANGES:;
#KEYSOUNDS:;
#ATTACKS:;

//---------------dance-single - ----------------
#NOTES:
     dance-single:
     :
     Hard:
     8:
     0.641,0.636,0.332,0.572,0.519,508.000,47.000,81.000,0.000,0.000,1.000,0.641,0.636,0.332,0.572,0.519,508.000,47.000,81.000,0.000,0.000,1.000:
0000
0000
0001
1000
0001
2000
0000
3001
,
2000
3000
0100
0010
0100
0020
0000
1030
,
0020
0030
0100
0010
0100
0010
1000
0010
,
1000
0010
0100
0010
0100
2200
3300
0100
,
0010
0100
0002
0003
0001
0100
0001
0100
,
0001
0100
0010
0100
0010
0220
0330
0010
,
0100
0010
1000
0100
2000
0000
3200
0000
,
0000
0320
0000
0030
1000
0100
1000
0000
,
0001
0020
0000
0130
0010
0200
0300
2000
,
3001
0000
0100
0010
0100
0002
0000
1003
,
0010
1000
0010
0100
0010
0100
0220
0330
,
0100
0001
0100
0001
0100
0202
0303
0001
,
1000
0001
2002
3003
0010
1000
0010
1000
,
0010
0100
0010
0100
0010
2020
3030
1000
,
0001
1000
0002
0000
0103
0000
0220
0000
,
0330
0200
0000
0000
0301
0010
0100
0000
,
0010
0200
0300
0200
0300
0200
0300
0100
,
0100
0010
0100
0020
0000
0000
0030
0000
0000
0100
0000
0000
0010
0000
0000
0100
0000
0000
1000
0000
0000
0100
0000
0000
,
1000
0000
0100
0000
1100
0000
0000
0000
0020
0000
0030
0000
0100
0010
0100
0010
,
0100
0010
0100
0010
0100
0000
0000
0000
1100
0000
0010
0000
0100
0000
1000
0000
,
0001
0100
1001
0000
0110
0000
1100
0100
,
1000
0000
0020
0000
0230
0000
0300
0000
0010
0000
0100
0000
0010
0100
0010
0100
,
0010
0000
0100
0000
0101
0000
0000
0000
0001
0000
0010
0000
0100
0000
0010
0100
,
0010
0100
0010
0000
0220
0000
0000
0330
0000
0000
0100
0000
0010
0000
0100
0000
,
0010
0000
2000
0000
0000
3000
0002
0000
0000
0003
0200
0000
0000
0300
0020
0000
,
0000
0000
2030
0000
0000
3000
0000
0000
0100
0000
0010
0000
1000
0010
1000
0010
,
1000
0010
1000
0000
0002
0000
0000
0000
0023
0000
0000
0000
0230
0000
0000
0000
,
0000
0000
0310
0000
0010
0100
0010
1000
,
0100
1000
1001
0000
0110
0000
1100
0100
,
1000
0000
0200
0000
0000
0300
0000
0000
0100
0000
0010
0000
0100
0001
0100
0001
,
0100
0001
0100
0000
2000
0000
0000
0000
3100
0000
0010
0000
0100
0000
0010
0100
,
0010
0100
0010
0100
0020
0000
0000
0000
0030
0000
0100
0000
0010
0000
0100
0000
,
1000
1100
0000
0110
0000
1010
0000
1100
,
0000
0000
0002
0000
0000
0000
1003
0001
1000
0001
1000
0001
1000
0001
1000
0001
,
1000
0010
1000
0010
0100
0020
0000
0030
,
1000
0100
0010
1000
0100
0020
0030
0100
,
0001
0100
0001
0010
0100
0020
0000
0030
,
0100
0001
0400
0000
0000
0300
0010
0000
,
0100
0010
0100
0010
0100
0002
0000
0003
,
0001
0000
0010
0000
0001
0000
0100
0000
0010
0000
0220
0000
0000
0330
0000
0000
,
0010
0000
0200
0000
0300
0000
0010
0000
0100
0000
0020
0000
0000
0030
0000
0000
,
0100
0000
0010
0000
2000
0000
0000
0000
3001
0000
2000
0000
0000
3000
0000
0000
,
0100
0010
0100
0000
0010
0100
0000
0010
,
1000
0010
1000
0010
1000
0100
1000
1100
,
0000
0100
0010
0100
0000
1000
0000
0010
,
0100
0000
0100
1000
0100
0010
0100
0010
,
0100
1000
0100
0000
0010
0100
0000
0020
,
1030
0010
0000
0200
0300
0020
0030
0200
,
0300
0000
0010
0000
1000
0000
0001
1000
0001
1000
0001
1000
0001
0100
0001
0100
,
0001
0000
0100
0000
0001
0000
0100
0000
0001
0000
0100
0000
0001
0000
0000
0000
0000
0000
0000
0000
0000
0001
0000
0000
0000
0000
0000
0100
0000
0000
0000
0000
0000
0001
0000
0000
0000
0000
0000
0100
0000
0000
0000
0000
0000
0010
0000
0000
,
0000
0100
0000
0010
0000
0100
0000
0000
0000
0110
0000
0000
0000
0011
0000
0010
,
0000
0100
0000
0010
0000
0000
0000
0100
0000
0010
0000
0100
0000
1000
0000
0100
,
0000
1000
0000
0100
0000
0110
0000
0000
0000
0101
0000
0000
0000
0010
0000
0000
,
0100
0000
0020
0000
0000
0030
0000
0000
0010
0000
0001
0000
0010
0000
0001
0000
,
0010
0001
0011
0000
1000
0001
1000
0100
,
1000
0100
1100
0000
0000
0010
0100
1000
,
0100
1100
0000
1010
0000
0110
0000
0101
,
0000
0000
0000
0000
0000
0000
0001
0000
0010
0000
0001
0000
0000
0000
0000
0000
0000
0000
0000
0000
0000
0001
0000
0000
0000
0000
0000
0100
0000
0000
0000
0000
0000
0001
0000
0000
0000
0000
0000
1000
0000
0000
0000
0000
0000
0010
0000
0000
,
0000
1000
0000
0010
0000
2000
0000
3000
0000
0110
0000
0000
0100
0010
0100
0010
,
0100
0010
0100
0010
0100
0000
0000
0100
0000
0010
0000
0100
0000
1000
0000
0100
,
0000
0010
0000
0001
0000
0011
0000
0000
0000
0110
0000
0000
0000
1000
0000
0100
,
0000
0020
0000
2030
0000
0000
3000
0000
0100
0000
0010
0000
1000
0010
1000
0010
,
1000
0010
1000
0000
0020
0000
0000
0030
0100
0000
0001
0000
1000
0001
1000
0001
,
1000
0001
1000
0000
0002
0000
0000
0000
0000
0003
0000
1000
0000
0010
0000
1000
,
0000
0010
0000
1010
0000
0000
0000
1100
0000
0000
0000
0110
0000
0000
0000
0011
,
0000
0010
0000
0110
0000
0000
0000
0010
0000
0100
0000
0010
0000
0010
0100
0010
,
0100
0010
0100
0000
0002
0000
0000
0000
1000
0000
0003
0000
1001
0000
0001
0100
,
0001
0100
0001
0100
0002
0000
0000
0003
0000
2000
0000
3000
0000
0200
0000
0300
,
0000
0100
0010
0100
0010
0100
0000
0000
0000
1100
0000
0000
0000
0001
0000
0100
,
0000
0202
0000
0000
0303
0000
0000
0010
0000
0100
0000
1000
0000
0100
0010
0100
,
0010
0100
0010
0000
0000
0200
0000
0300
0000
1100
0000
0000
0000
1000
0001
0100
,
0001
0100
0001
0100
0001
0200
0000
0300
0000
0101
0000
0000
0000
0110
0000
0000
,
0010
0000
0000
1000
0000
0002
0000
0000
0000
0000
0000
0000
0000
2003
0000
0000
,
0000
0000
3000
0000
0000
0100
0000
0010
0000
0100
0000
0010
0000
0100
0000
1000
,
0000
0100
0000
0010
0000
0200
0000
0000
0000
0001
0000
0000
0000
0002
0000
0000
,
0000
0303
0000
0000
0000
0000
0000
0000
0000
0000
0000
0000
0000
0000
0000
0000
;

//---------------dance-single - ----------------
#NOTES:
     dance-single:
     :
     Challenge:
     10:
     0.718,0.716,0.558,0.607,0.554,547.000,79.000,86.000,0.000,0.000,1.000,0.718,0.716,0.558,0.607,0.554,547.000,79.000,86.000,0.000,0.000,1.000:
0000
0000
0001
0011
0001
0020
0000
0031
,
0200
0300
0010
1010
1000
0020
0000
1030
,
0020
0030
0100
0010
0100
0010
1000
0010
,
1000
0010
0100
0010
0100
2200
3300
0100
,
0010
0100
0202
0303
0001
0010
0001
0100
,
0001
0010
0001
0100
0010
0220
0330
0010
,
0100
0010
1000
0100
2000
0100
3200
0010
,
0010
0320
0100
0130
1000
0100
1000
0001
,
1000
0020
0100
0130
0010
0200
0300
2000
,
3001
0000
0100
0110
0100
0002
0000
1003
,
0010
1000
0010
0100
0010
0100
0220
0330
,
0100
0001
0100
0010
0100
0202
0303
0001
,
1000
0001
2002
3003
0010
1000
0010
0100
,
0010
1000
0010
0100
0010
2020
3030
1000
,
1001
1000
0002
0000
0103
0000
0220
0000
,
0330
0200
0000
0000
0301
0010
0100
0000
,
0100
0201
0300
0210
0300
0201
0300
0110
,
0100
0010
0100
0020
0000
0000
0030
0000
0000
0100
0000
0000
0010
0000
0000
0100
0000
0000
1000
0000
0000
0100
0000
0000
,
1000
0000
0100
0000
1100
0000
0000
0000
2020
0000
3030
0000
0100
0010
0100
0010
,
0100
0010
0100
0010
0100
0000
1000
0000
1100
0000
0010
0000
0100
0000
1000
0000
,
0001
0100
1001
0000
0110
0000
1100
0110
,
1100
0000
0020
0000
0200
0000
0330
0000
0010
0000
0100
0000
0010
0100
0010
0100
,
0010
0000
0100
0000
0101
0000
0000
0000
0001
0000
0010
0000
0100
0000
0010
0100
,
0010
0100
0010
0000
0220
0000
0000
0330
0000
0000
0100
0000
1000
0000
0100
0000
,
0010
0000
2010
0000
0000
3000
0102
0000
0000
0003
0210
0000
0000
0300
1020
0000
,
0000
0000
2000
0000
0000
3000
0030
0000
0100
0000
0010
0000
1000
0010
1000
0010
,
1000
0010
1000
0000
2000
0000
0000
0000
3020
0000
0000
0000
0230
0000
0000
0000
,
0000
0000
0310
0100
0010
0100
0010
0001
,
0100
0010
0101
0000
0110
0000
1100
0110
,
1100
0000
0200
0000
0000
0300
0010
0000
0100
0000
0010
0000
0100
0001
0100
0001
,
0100
0001
0100
0000
0002
0000
0000
0000
0103
0000
0010
0000
0100
0000
0010
0100
,
0010
0000
0000
0100
0000
0000
0010
0000
0000
0100
0000
0000
0010
0000
1000
0000
0010
0000
1000
0000
0010
0000
1000
0000
0010
0000
1000
0000
0010
0000
1000
0000
0000
0000
0000
0000
0010
0000
0000
0000
0000
0000
0100
0000
0000
0000
0000
0000
,
1000
1100
0000
0110
0000
0101
0000
0011
,
0000
0000
0002
0000
0000
0000
1003
0001
0100
0001
1000
0001
0100
0001
1000
0001
,
0100
0001
0100
0010
0100
0020
1000
0130
,
1000
0100
0010
1000
0100
1100
0100
0010
,
0100
0001
0100
0010
0100
0110
0100
0001
,
0100
0001
0400
0000
0000
0310
0000
0010
,
0100
0010
0100
0010
0100
0002
1000
0103
,
0001
0000
0010
0000
0001
0000
0100
0000
0010
0000
0220
0000
0000
0330
0000
0000
,
0010
0000
0200
0000
0300
0000
0010
0000
0100
0000
0020
0000
0000
0030
1000
0000
,
0100
0010
2000
3001
1000
0002
0003
0010
,
0100
0010
0100
0000
0010
0110
0000
0010
,
1000
0010
1000
0010
1000
0100
1000
1100
,
1000
0100
1000
0000
1100
1000
0000
0010
,
0100
0000
0100
1000
0100
0010
0100
0010
,
0100
1000
0100
0000
0010
0100
0000
0020
,
1030
0010
0000
0210
0300
1020
0030
0210
,
0300
0000
0010
0000
1000
0000
0010
1000
0001
1000
0010
1000
0001
0100
0001
0100
,
0001
0000
0100
0000
0001
0000
0100
0000
0001
0000
0100
0000
0001
0000
0000
0000
0000
0000
0000
0000
0000
0001
0000
0000
0000
0000
0000
0100
0000
0000
0000
0000
0000
0001
0000
0000
0000
0000
0000
0100
0000
0000
0000
0000
0000
0010
0000
0000
,
0000
0100
0000
0010
0000
0100
0000
0000
0000
0101
0000
0000
0000
0011
0000
0010
,
0000
0100
0000
0020
0000
0030
0000
0100
0000
0010
0000
0100
0000
1000
0000
0100
,
0000
1000
0000
0100
0000
0110
0000
0000
0000
0101
0000
0000
0000
0010
0000
0000
,
0100
0000
0020
0000
0000
0030
0000
0000
0010
0000
0100
0000
0010
0000
0100
0000
,
0010
0100
1010
0010
1000
0001
1000
0100
,
1000
0100
2200
3300
0000
0010
0100
1000
,
0100
1100
0000
1010
0000
0110
0000
0101
,
0000
0000
0000
0000
0000
0000
0001
0000
0010
0000
0001
0000
0000
0000
0000
0000
0000
0000
0000
0000
0000
0001
0000
0000
0000
0000
0000
0100
0000
0000
0000
0000
0000
0001
0000
0000
0000
0000
0000
1000
0000
0000
0000
0000
0000
0010
0000
0000
,
0000
1000
0000
0010
0000
2020
0000
3030
0000
0110
0000
0000
0100
0010
0100
0001
,
0100
0010
0100
0001
0100
0000
0000
0100
0000
0010
0000
0100
0000
1000
0000
0100
,
0000
0010
0000
0001
0000
0011
0000
0000
0000
0110
0000
0000
0000
1100
0000
0110
,
0000
1020
0000
2030
0000
0000
3000
0000
0100
0000
0010
0000
1000
0010
1000
0010
,
1000
0010
1000
0000
0020
0000
0000
0030
0100
0000
0001
0000
1000
0001
1000
0001
,
1000
0001
1000
0000
0002
0000
0000
0000
0000
0003
0000
1000
0000
0010
0000
1000
,
0000
0010
0000
1010
0000
0000
0000
1100
0000
0000
0000
0110
0000
0000
0000
0011
,
0000
0010
0000
0110
0000
0000
0000
0010
0000
0100
0000
0010
0000
0010
0100
0010
,
0100
0010
0100
0000
0020
0000
0000
0000
1030
0000
0000
0000
1001
0000
0001
0100
,
0001
0100
0001
0100
0002
0000
0000
0003
0000
2001
0000
3000
0000
0210
0000
0300
,
0000
0100
0010
0100
0010
0100
0000
0000
0000
1100
0000
0000
0000
0101
0000
0110
,
0000
0202
0000
0000
0303
0000
0000
0010
0000
0100
0000
1000
0000
0100
0010
0100
,
0010
0100
0010
0000
0000
0200
0000
0300
0000
1100
0000
0000
0000
1000
0001
0100
,
0001
0000
0000
0100
0000
0000
0001
0000
0000
0100
0000
0000
0001
0000
0000
0200
0000
0000
0000
0000
0000
0300
0000
0000
0001
0000
1000
0000
0001
0000
1000
0000
0001
0000
1000
0000
0001
0000
1000
0000
0001
0000
1000
0000
0000
0000
0000
0000
,
0001
0000
0000
2000
0000
0002
0000
0000
0000
0000
3003
0000
0000
2020
0000
0000
,
0000
0000
3030
0000
0000
0100
0000
0010
0000
0100
0000
0010
0000
0100
0000
1000
,
0000
0100
0000
0010
0000
0002
0000
0000
0000
0100
0000
0000
0000
0020
0000
0000
,
0000
0033
0000
0000
0000
0000
0000
0000
;

//---------------dance-single - ----------------
#NOTES:
     dance-single:
     :
     Medium:
     5:
     0.418,0.479,0.148,0.395,0.424,338.000,21.000,56.000,0.000,0.000,0.000,0.418,0.479,0.148,0.395,0.424,338.000,21.000,56.000,0.000,0.000,0.000:
0000
0000
0000
0000
,
0000
0000
0000
0000
,
0000
0000
1000
0100
1000
0100
1000
0100
,
1000
0010
1000
0010
1000
0020
0000
0030
,
0010
0100
0010
0000
1000
0001
1000
0001
,
1000
0001
1000
0001
1000
0002
0003
1000
,
0010
1000
0010
0000
0010
0000
2000
0000
,
3000
0100
0000
0000
0010
0000
0100
0000
,
0010
0200
0000
0000
0000
0300
0000
0000
,
0000
0110
0000
0000
0000
0000
0000
0010
,
0100
0001
0100
0010
0100
0001
0100
0000
,
0010
0000
1000
0000
0100
2000
3000
0010
,
1000
0010
1000
0000
0010
0000
0100
0000
,
0001
0000
0100
0000
0001
2000
3000
0000
,
0010
0100
1000
0020
,
0000
0130
0000
0000
0010
0000
0100
0000
,
0100
0020
0000
0000
0000
0000
0000
0000
,
0000
0030
0000
0100
0010
0100
0010
0100
,
0010
0110
2002
0000
,
3003
0000
0000
1000
0100
0001
0100
1000
,
0100
0001
0100
0000
0010
0000
0100
0000
,
0010
2000
3000
0000
1000
0100
1000
0010
,
1000
0100
2000
3000
0100
0010
0100
1000
,
0100
0000
2000
0000
3000
0001
1000
0001
,
0000
0200
0300
0020
0030
0200
0300
0020
,
0000
1030
0000
1000
0001
0010
0100
1000
,
0100
1000
0100
0220
,
0000
0330
0000
0001
0100
0010
0100
0001
,
0100
0001
2000
0000
3002
0000
1003
0000
,
0010
0200
0300
0000
0010
0100
1000
0010
,
0100
0000
1001
0000
1000
0001
0100
0001
,
0100
0001
2000
0000
3000
0001
1000
0000
,
0000
0100
0000
0010
0000
0100
0000
1000
,
0000
0200
0000
0000
0300
0000
0010
0000
,
0000
0000
1000
0000
0100
2000
0000
3000
,
0010
1000
0010
1000
0010
2000
0000
3000
,
0001
0100
0001
0100
0001
0200
0000
0300
,
0010
0100
0020
0000
0000
0000
0030
0000
,
0100
0001
0100
0010
0100
0020
0000
0030
,
0000
1000
0001
0000
0100
0002
0000
0000
,
0103
0020
0000
0000
0000
0030
0000
0000
,
0010
0200
0000
0000
0000
0300
0000
0100
,
0010
0100
0010
0000
0010
0000
0100
0010
,
0110
0000
0100
0001
0100
0001
0100
0000
,
0001
1000
0001
0000
0100
0010
0100
0010
,
0200
0300
0100
0110
,
1000
0000
0010
0000
1000
0010
0000
1000
,
0020
1000
0000
1000
0000
1000
0000
1000
,
0030
2020
0000
0000
0000
0000
0000
0000
,
0000
3030
0000
0000
,
0000
0000
0000
0000
0000
1000
0000
0000
0000
0002
0000
0000
0000
0000
0000
0000
,
0003
1000
0000
0001
0000
0000
0000
0100
0000
1000
0000
0100
0000
1000
0000
0100
,
0000
0010
0000
0000
0000
0100
0000
0000
0000
0010
0000
0000
0000
0100
0000
0000
,
0000
0010
0000
0100
0000
0000
0000
0100
0000
0010
0000
0100
0000
0010
0000
0100
,
0000
0010
0000
0000
0000
2020
0000
0000
0000
3030
0000
0000
0000
0000
0000
0000
,
0000
0000
0000
0000
0000
2002
0000
0000
0000
0000
3003
0000
0000
1000
0000
0001
,
0000
1000
0000
0001
0000
0000
0000
1000
0000
0000
0000
0001
0000
0000
0000
1000
,
0000
0000
0002
0000
0000
0000
0003
0000
0000
1000
0000
0000
0000
0100
0000
0000
,
0000
0010
0000
0000
0000
0001
0000
0000
0000
2002
0000
0000
0000
3003
0000
1000
,
0000
0100
0000
1000
0000
0100
0000
1000
0000
0100
0000
0010
0000
0100
0000
0010
,
0000
0100
0000
0000
0000
2000
0000
3000
0000
0200
0000
0300
0000
0020
0000
0030
,
0000
0100
0000
0020
0000
0030
0000
0100
0000
0001
0000
0100
0000
0001
0000
0100
,
0000
0001
0000
0100
0000
0101
0000
0001
0000
1000
0000
0100
0000
1000
0000
0100
,
0000
1000
0000
0100
0000
2200
0000
0000
0000
3300
0000
1000
0000
0010
0000
1000
,
0000
0100
0000
1000
0000
0000
0000
0001
0000
0000
0000
0010
0000
0000
0000
0100
,
0000
0000
0000
0010
0000
0000
0000
0000
0000
1000
0000
0001
0000
0100
0000
0001
,
0000
0100
0000
0001
0000
0100
0000
0000
0000
0110
0000
0000
0000
0001
0000
0000
,
0000
0101
0000
0000
0000
0010
0000
0000
0000
0110
0000
0000
0000
1000
0000
0000
,
0000
1001
0000
1000
0000
0002
0000
0000
0000
0000
0000
0003
0000
0100
0000
0010
,
0000
0200
0000
0000
0000
0310
0000
0000
0000
0100
0000
0001
0000
0100
0000
0001
,
0000
0100
0000
0000
0000
0001
0000
0000
0000
0101
0000
0000
0000
0100
0000
0000
,
0000
0110
0000
0000
0000
0010
0000
0000
0000
0101
0000
0000
0000
0001
0000
0000
,
0000
0101
0000
0000
0000
2000
0000
0000
0000
0000
3000
0000
0000
0002
0000
0000
,
0000
0003
0000
0000
0000
0100
0000
0000
0000
0010
0000
1000
0000
0010
0000
0100
,
0000
0010
0000
1000
0000
0010
0000
0000
0000
0020
0000
0000
0000
0200
0000
0000
,
0000
0000
0000
0000
0000
0000
0000
0330
0000
0000
0000
0000
0000
0000
0000
0000
;

//---------------dance-single - ----------------
#NOTES:
     dance-single:
     :
     Easy:
     3:
     0.284,0.293,0.134,0.296,0.258,221.000,19.000,42.000,0.000,0.000,0.000,0.284,0.293,0.134,0.296,0.258,221.000,19.000,42.000,0.000,0.000,0.000:
0000
0000
0000
0000
,
0000
0000
0000
0000
,
0000
0000
1000
0100
,
1000
0000
0100
0000
0010
0200
0000
0300
,
0000
0001
1000
0100
,
1000
0000
0100
0000
1000
0020
0000
0000
,
0030
1000
0010
2000
,
3000
0100
0000
0000
0010
0000
0100
0000
,
0010
0200
0000
0000
0000
0300
0000
0000
,
0000
0110
0000
0000
0000
0000
0000
0000
,
0100
0010
0100
0010
,
0100
0000
1000
0000
0100
2000
3000
0000
,
0010
0100
0010
0100
,
0001
0000
0100
0000
0001
2000
3000
0000
,
0010
0100
1000
0020
,
0000
0130
0000
0000
0010
0000
0100
0000
,
1000
0020
0000
0000
0000
0000
0000
0000
,
0000
0030
0000
0000
0000
0000
0000
0000
,
0000
0110
2002
0000
,
3003
0000
0010
0100
,
1000
1100
0010
0100
,
0010
2000
3000
0000
1000
0000
0100
0000
,
0010
0000
2000
3000
0100
0000
0010
0000
,
0100
0002
0003
0010
,
0000
0100
0000
0010
0000
0100
0000
0010
,
0000
1000
0000
0000
0001
0000
0010
0000
,
0100
1000
0100
0020
,
0000
0030
1000
0100
,
0010
1000
0001
1000
,
0010
0100
0000
0000
0010
0000
1000
0000
,
0100
1001
0100
0010
,
0100
2000
3000
0010
,
0000
0100
0000
0010
0000
0100
0000
1000
,
0000
0100
0000
0000
0000
0000
0010
0000
,
0000
0000
1000
0000
0100
2000
0000
3000
,
0010
0000
0100
0000
0010
0200
0000
0300
,
0001
0000
0100
0000
0001
0200
0300
0000
,
0001
0020
0000
0030
,
0100
0000
0010
0000
0100
0020
0000
0030
,
0000
1000
0001
0000
1000
0002
0000
0000
,
1003
0020
0000
0000
0000
0030
0000
0000
,
0010
0200
0000
0000
0000
0300
0000
0000
,
0010
0100
0010
0100
,
0110
0000
0000
0000
,
0001
0000
0010
0000
0100
0000
0100
0010
,
0200
0300
0100
0110
,
1000
0010
1000
0010
,
0200
0300
0010
1000
,
0010
2000
0000
0000
,
0000
3000
0000
0000
,
0000
0000
0000
0000
0000
1000
0000
0000
0000
0002
0000
0000
0000
0000
0000
0000
,
0003
0000
0000
0000
,
0000
0000
0000
0000
0000
0100
0000
0000
0000
0010
0000
0000
0000
0100
0000
0000
,
0000
0010
0000
0100
0000
0000
0000
0000
0000
1000
0000
0000
0000
0100
0000
0000
,
0000
0000
0000
0000
0000
2020
0000
0000
0000
3030
0000
0000
0000
0000
0000
0000
,
0000
0000
0000
0000
0000
2002
0000
0000
0000
0000
3003
0000
0000
0000
0000
0000
,
0000
0000
0000
0001
0000
0000
0000
1000
0000
0000
0000
0001
0000
0000
0000
1000
,
0000
0000
0002
0000
0000
0000
0003
0000
0000
1000
0000
0000
0000
0100
0000
0000
,
0000
0010
0000
0000
0000
0001
0000
0000
0000
2002
0000
0000
0000
3003
0000
0000
,
0000
0000
0000
0000
0000
0000
0000
0000
0000
0100
0000
0000
0000
0010
0000
0000
,
0000
0100
0000
0000
0000
1000
0000
0000
0000
0100
0000
0000
0000
0010
0000
0000
,
0000
0100
0000
0020
0000
0030
0000
0000
0000
1000
0000
0000
0000
0001
0000
0000
,
0000
1000
0000
0000
0000
1001
0000
0000
0000
0000
0000
0000
0000
0100
0000
0000
,
0000
0010
0000
0000
0000
0220
0000
0000
0000
0330
0000
0000
0000
0000
0000
0000
,
0000
0000
0000
1000
0000
0000
0000
0001
0000
0000
0000
0010
0000
0000
0000
0100
,
0000
0000
0000
0010
0000
0000
0000
0000
0000
1000
0000
0000
0000
0100
0000
0000
,
0000
0010
0000
0000
0000
1000
0000
0000
0000
1100
0000
0000
0000
0001
0000
0000
,
0000
0101
0000
0000
0000
0010
0000
0000
0000
0110
0000
0000
0000
0000
0000
0000
,
0000
0000
0000
1000
0000
0002
0000
0000
0000
0000
0000
0003
0000
0100
0000
0000
,
0000
0000
0000
0000
0000
0010
0000
0000
0000
0100
0000
0000
0000
0010
0000
0000
,
0000
0100
0000
0000
0000
1000
0000
0000
0000
1010
0000
0000
0000
0100
0000
0000
,
0000
1100
0000
0000
0000
0010
0000
0000
0000
0110
0000
0000
0000
0001
0000
0000
,
0000
0101
0000
0000
0000
2000
0000
0000
0000
0000
3000
0000
0000
0002
0000
0000
,
0000
0003
0000
0000
0000
0100
0000
0000
0000
0010
0000
0000
0000
0100
0000
0000
,
0000
1000
0000
0000
0000
0100
0000
0000
0000
0020
0000
0000
0000
0200
0000
0000
,
0000
0000
0000
0000
0000
0000
0000
0330
0000
0000
0000
0000
0000
0000
0000
0000
;

//---------------pump-single - ----------------
#NOTES:
     pump-single:
     :
     Hard:
     8:
     0.644,0.636,0.339,0.579,0.519,509.000,48.000,82.000,0.000,0.000,0.000,0.644,0.636,0.339,0.579,0.519,509.000,48.000,82.000,0.000,0.000,0.000:
00000
00000
00010
10000
00010
20000
00000
30010
,
20000
30000
00001
00001
10000
00020
00000
10030
,
00020
00030
01000
00100
01000
00100
10000
00100
,
10000
00100
01000
00100
01000
22000
33000
01000
,
00010
00100
00002
00003
00001
00100
00001
00100
,
00001
00100
00010
00100
00010
00220
00330
00010
,
00100
00010
01000
00100
02000
00000
03200
00000
,
00000
00000
20300
00000
00000
30000
00000
00000
00010
00000
00100
00000
00010
00000
00000
00000
,
01000
00200
00000
10300
00100
02000
03000
00020
,
10030
00000
01000
00100
01000
00020
00000
10030
,
00100
10000
00100
01000
00100
01000
02200
03300
,
01000
00010
01000
00010
01000
02020
03030
00010
,
01000
00001
02002
03003
00010
01000
00010
01000
,
00010
00100
00010
00100
00010
02020
03030
01000
,
00001
01000
00002
00000
00103
00000
00220
00000
,
00330
00200
00000
00000
00301
00010
00100
00000
,
00100
02000
03000
02000
03000
02000
03000
01000
,
01000
00100
01000
00200
00000
00000
00300
00000
00000
01000
00000
00000
00100
00000
00000
01000
00000
00000
10000
00000
00000
01000
00000
00000
,
10000
00000
01000
00000
11000
00000
00000
00000
00200
00000
00300
00000
01000
00100
01000
00100
,
01000
00100
01000
00100
01000
00000
00000
00000
10001
00000
00100
00000
00001
00000
10000
00000
,
00001
00100
01001
00000
00110
00000
01100
00100
,
01000
00000
00020
00000
00230
00000
00300
00000
00010
00000
00100
00000
00010
00100
00010
00100
,
00010
00000
00100
00000
00101
00000
00000
00000
00001
00000
00010
00000
00100
00000
00010
00100
,
00010
00100
00010
00000
00220
00000
00000
00330
00000
00000
00100
00000
01000
00000
00100
00000
,
10000
00000
20000
00000
00000
30000
00020
00000
00000
00030
02000
00000
00000
03000
00200
00000
,
00000
00000
20300
00000
00000
30000
00000
00000
10000
00000
00100
00000
10000
00100
10000
00100
,
10000
00100
10000
00000
00020
00000
00000
00000
00230
00000
00000
00000
00302
00000
00000
00000
,
00000
00000
00103
00000
10000
00100
01000
00100
,
10000
00100
01100
00000
01010
00000
00110
10000
,
00010
00000
20000
00000
00000
00000
30000
00000
00001
00000
00100
00000
00100
00001
00100
00001
,
00100
00001
00100
00000
00020
00000
00000
00000
00130
00000
00010
00000
00100
00000
00010
00100
,
00010
00100
00010
00100
00020
00000
00000
00000
00030
00000
00100
00000
00010
00000
00100
00000
,
00010
01010
00000
01100
00000
10100
00000
01100
,
00000
00000
00020
00000
00000
00000
10030
00010
10000
00010
10000
00010
10000
00010
10000
00010
,
10000
00010
01000
00100
01000
00200
00000
00300
,
10000
00100
01000
00100
10000
00200
00300
01000
,
00001
00100
00001
00100
00010
02000
00000
03000
,
00001
00000
00100
00000
00002
00000
00000
00000
00000
00003
00000
00000
00101
00000
00000
00000
,
00100
00010
00100
00010
00100
00002
00000
00003
,
00001
00000
00010
00000
00001
00000
00100
00000
00010
00000
00220
00000
00000
00330
00000
00000
,
10000
00000
02000
00000
03000
00000
00100
00000
01000
00000
00200
00000
00000
00300
00000
00000
,
00001
00000
00100
00000
00002
00000
00000
00000
10003
00000
20000
00000
00000
30000
00000
00000
,
00010
00100
00010
00000
10000
00100
00000
00100
,
10000
00100
10000
00100
10000
01000
10000
11000
,
00000
00001
00010
00001
00000
00010
00000
01000
,
00010
00000
10000
00100
10000
00100
01000
00100
,
10000
00100
10000
00000
00010
00100
00000
00020
,
01030
00010
00000
00200
00300
00020
00030
02000
,
00000
00000
03010
00000
10000
00000
00010
10000
00010
10000
00010
10000
00010
01000
00010
01000
,
00010
00000
01000
00000
00010
00000
01000
00000
00010
00000
01000
00000
00010
00000
00000
00000
00000
00000
00000
00000
00000
00010
00000
00000
00000
00000
00000
01000
00000
00000
00000
00000
00000
00010
00000
00000
00000
00000
00000
01000
00000
00000
00000
00000
00000
00100
00000
00000
,
00000
01000
00000
00100
00000
01000
00000
00000
00000
01100
00000
00000
00000
10100
00000
00100
,
00000
01000
00000
00100
00000
00000
00000
01000
00000
00100
00000
01000
00000
10000
00000
01000
,
00000
00010
00000
00001
00000
00011
00000
00000
00000
00101
00000
00000
00000
01000
00000
00000
,
00100
00000
02000
00000
00000
03000
00000
00000
01000
00000
10000
00000
01000
00000
10000
00000
,
01000
10000
11000
01000
00010
10000
00010
00100
,
00010
00100
00110
00000
00000
00001
00100
00001
,
00100
10001
00000
10100
00000
01100
00000
01010
,
00000
00000
00000
00000
00000
00000
00010
00000
00100
00000
00010
00000
00000
00000
00000
00000
00000
00000
00000
00000
00000
00010
00000
00000
00000
00000
00000
01000
00000
00000
00000
00000
00000
00010
00000
00000
00000
00000
00000
10000
00000
00000
00000
00000
00000
00100
00000
00000
,
00000
10000
00000
00100
00000
20000
00000
30000
00000
10100
00000
00000
10000
00100
10000
00100
,
10000
00100
10000
00100
10000
00000
00000
00001
00000
00100
00000
00001
00000
00100
00000
00001
,
00000
00010
00000
00001
00000
00011
00000
00000
00000
01001
00000
00000
00000
00001
00000
00100
,
00000
00020
00000
02030
00000
00000
03000
00000
00010
00000
01000
00000
01000
00010
01000
00010
,
01000
00010
01000
00000
00020
00000
00000
00030
00100
00000
00001
00000
01000
00001
01000
00001
,
01000
00001
01000
00000
00002
00000
00000
00000
00000
00003
00000
01000
00000
00010
00000
01000
,
00000
00100
00000
10100
00000
00000
00000
11000
00000
00000
00000
10010
00000
00000
00000
01010
,
00000
00100
00000
01010
00000
00000
00000
00100
00000
01000
00000
00100
00000
00100
01000
00100
,
01000
00100
01000
00000
00020
00000
00000
00000
10000
00000
00030
00000
10010
00000
00010
01000
,
00010
01000
00010
01000
00020
00000
00000
00030
00000
20000
00000
30000
00000
00002
00000
00003
,
00000
10000
00100
10000
00100
10000
00000
00000
00000
01100
00000
00000
00000
00010
00000
00100
,
00000
00202
00000
00000
00303
00000
00000
00001
00000
00100
00000
00001
00000
10000
00100
10000
,
00100
10000
00100
00000
00000
00200
00000
00300
00000
01100
00000
00000
00000
01000
00010
01000
,
00010
00100
00010
01000
00010
02000
00000
03000
00000
00110
00000
00000
00000
00101
00000
00000
,
10000
00000
00000
10000
00000
00020
00000
00000
00000
00000
00000
00000
00000
20030
00000
00000
,
00000
00000
30000
00000
00000
00001
00000
00100
00000
00010
00000
00100
00000
00001
00000
01000
,
00000
00100
00000
01000
00000
00020
00000
00000
00000
01000
00000
00000
00000
02000
00000
00000
,
00000
03030
00000
00000
00000
00000
00000
00000
00000
00000
00000
00000
00000
00000
00000
00000
;

//---------------pump-single - ----------------
#NOTES:
     pump-single:
     :
     Challenge:
     10:
     0.727,0.716,0.544,0.628,0.565,546.000,77.000,89.000,0.000,11.000,1.000,0.727,0.716,0.544,0.628,0.565,546.000,77.000,89.000,0.000,11.000,1.000:
00000
00000
00010
00110
00010
02000
00000
03010
,
02000
03000
00100
10100
10000
00200
00000
10300
,
00200
00300
01000
00100
01000
00100
10000
00100
,
10000
00100
01000
00100
01000
22000
33000
01000
,
00010
00100
00202
00303
00001
00010
00001
00100
,
00001
00010
00001
00100
00010
00220
00330
00010
,
00100
00010
01000
00100
02000
00100
03200
10000
,
10000
20300
00100
30100
01000
00100
01000
00001
,
10000
00200
01000
01300
00100
02000
03000
00002
,
01003
00000
01000
01100
01000
00020
00000
10030
,
00100
10000
00100
01000
00100
01000
02220
03330
,
01000
00010
01000
00100
01000
02220
03330
00010
,
01000
00001
02002
03003
01000
00010
10000
00100
,
10000
00100
01000
00100
01000
02020
03030
01000
,
01001
01000
00002
00000
00103
00000
00220
00000
,
00330
00200
00000
00000
00301
00010
00100
00000
,
10000
02000
03000
02100
03000
12000
03000
01100
,
01000
00100
01000
00200
00000
00000
00300
00000
00000
01000
00000
00000
00100
00000
00000
01000
00000
00000
10000
00000
00000
01000
00000
00000
,
10000
00000
01000
00000
11000
00000
00000
00000
20200
00000
30300
00000
01000
00100
00010
00100
,
01000
00100
00010
00100
01000
00000
00001
00000
00101
00000
00001
00000
01000
00000
00001
00000
,
01000
00100
01001
00000
00110
00000
01100
01010
,
00110
00000
00020
00000
02200
00000
03330
00000
00010
00000
00100
00000
00010
00100
00001
00100
,
00010
00000
00100
00000
00101
00000
00000
00000
00001
00000
00010
00000
00100
00000
00010
00100
,
00010
00100
00010
00000
00220
00000
00000
00330
00000
00000
00100
00000
01000
00000
00100
00000
,
00100
00000
20100
00000
00000
30000
01020
00000
00000
00030
02100
00000
00000
03000
10200
00000
,
00000
00000
20000
00000
00000
00000
30300
00000
10000
00000
00100
00000
10000
00100
10000
00100
,
10000
00100
10000
00000
20000
00000
00000
00000
30200
00000
00000
00000
02300
00000
00000
00000
,
00000
00000
03110
01000
00100
10000
00100
01000
,
00100
10000
10100
00000
00110
00000
01100
01010
,
00110
00000
00200
00000
00000
00300
00010
00000
00100
00000
00010
00000
00100
00001
00100
00001
,
00100
00001
00100
00000
00002
00000
00000
00000
00103
00000
00010
00000
00100
00000
00010
00100
,
00010
00000
00000
00100
00000
00000
00010
00000
00000
01000
00000
00000
00010
00000
01000
00000
00010
00000
01000
00000
00010
00000
01000
00000
00010
00000
01000
00000
00010
00000
01000
00000
00000
00000
00000
00000
00010
00000
00000
00000
00000
00000
00100
00000
00000
00000
00000
00000
,
00010
01110
00000
01101
00000
01110
00000
10110
,
00000
00020
00000
00000
00000
00030
00000
00010
01000
00010
00100
00010
01000
00010
00100
00010
,
01000
00010
01000
00100
01000
00200
00300
01000
,
10000
01000
00100
10000
00001
10001
10000
00001
,
10000
00001
00100
00010
00100
00110
00100
00001
,
00100
00001
00400
00000
00000
00310
00000
00010
,
00100
00001
00100
00010
00100
00002
00003
00100
,
00001
00000
00010
00000
00001
00000
00100
00000
00010
00000
00220
00000
00000
00330
00000
00000
,
20000
30000
00002
00000
00000
00003
10000
00000
00001
00000
00200
00000
00000
00000
00310
00000
,
01000
00100
20000
30010
10000
00020
00030
01000
,
00001
01000
00010
00000
00100
01100
00000
00100
,
10000
00100
10000
00100
10000
01000
10000
11000
,
01000
00100
01000
00000
01100
01000
00000
10000
,
00100
00000
10000
00001
00100
00010
00100
00001
,
00100
00010
00100
00000
00010
00100
00000
02000
,
03010
00000
00100
00000
00000
00000
00020
00000
00000
00030
02000
00000
03000
00000
00020
00000
,
00030
00000
10000
00000
00001
00100
00001
00100
00010
00100
00001
00100
00010
00100
00001
00100
,
00001
00000
00100
00000
00001
00000
00100
00000
00001
00000
00100
00000
00001
00000
00000
00000
00000
00000
00000
00000
00000
10000
00000
00000
00000
00000
00000
00010
00000
00000
00000
00000
00000
01000
00000
00000
00000
00000
00000
00001
00000
00000
00000
00000
00000
01000
00000
00000
,
00000
00010
00000
10000
00000
00001
00000
00000
00000
01010
00000
00000
00000
10001
00000
10000
,
00000
00001
00000
00200
00000
00300
00000
00010
00000
00100
00000
00010
00000
10000
00000
00100
,
00000
10000
00000
00100
00000
01100
00000
00000
00000
00101
00000
00000
00000
00010
00000
00000
,
00100
00000
00020
00000
00000
00030
00000
00000
00010
00000
00100
00000
00010
00000
00100
00000
,
00010
00100
01110
00010
01000
00001
01000
00100
,
01000
00100
02000
03000
00000
00001
00010
00100
,
01000
11000
00000
10100
00000
01100
00000
01010
,
00000
00000
00000
00000
00000
00000
00010
00000
00100
00000
00010
00000
00000
00000
00000
00000
00000
00000
00000
00000
00000
00010
00000
00000
00000
00000
00000
01000
00000
00000
00000
00000
00000
00010
00000
00000
00000
00000
00000
10000
00000
00000
00000
00000
00000
00100
00000
00000
,
00000
10000
00000
00100
00000
20200
00000
30300
00000
01100
00000
00000
01000
00100
01000
00010
,
01000
00100
01000
00010
01000
00000
00000
01000
00000
00100
00000
01000
00000
10000
00000
01000
,
00000
00010
00000
00001
00000
00011
00000
00000
00000
00110
00000
00000
00000
01010
00000
01100
,
00000
01020
00000
02030
00000
00000
03000
00000
00001
00000
10000
00100
10000
00100
01000
00100
,
01000
00010
01000
00000
00020
00000
00000
00030
00100
00000
00010
00000
01000
00001
01000
00001
,
01000
00001
01000
00000
00002
00000
00000
00000
00000
00003
00000
01000
00000
00010
00000
01000
,
00000
00100
00000
10100
00000
00000
00000
11100
00000
00000
00000
01100
00000
00000
00000
00110
,
00000
01010
00000
01110
00000
00000
00000
00001
00000
00100
00000
00010
00000
00100
00001
00100
,
00001
00100
00001
00000
00200
00000
00000
00000
00310
00000
00000
00000
10010
00000
00010
00100
,
00010
00100
00010
01000
00020
00000
00000
00030
00000
20010
00000
30000
00000
00120
00000
00000
,
00030
10000
00100
10000
00100
10000
00000
00000
00000
01100
00000
00000
00000
10100
00000
01100
,
00000
02002
00000
00000
03003
00000
00000
00001
00000
00100
00000
00001
00000
10000
00001
10000
,
00001
10000
00001
00000
00000
00200
00000
00300
00000
01100
00000
00000
00000
01000
00001
00100
,
00001
00000
00000
00100
00000
00000
00001
00000
00000
00100
00000
00000
00001
00000
00000
00200
00000
00000
00000
00000
00000
00300
00000
00000
00001
00000
00100
00000
00001
00000
00100
00000
00001
00000
00100
00000
00001
00000
00100
00000
00001
00000
00100
00000
00000
00000
00000
00000
,
00010
00000
00000
20000
00000
00020
00000
00000
00000
00000
30030
00000
00000
20200
00000
00000
,
00000
00000
30300
00000
00000
01000
00000
00100
00000
01000
00000
00100
00000
01000
00000
10000
,
00000
01000
00000
00010
00000
00002
00000
00000
00000
00010
00000
00000
00000
00020
00000
00000
,
00000
00000
00000
00033
00000
00000
00000
00000
00000
00000
00000
00000
00000
00000
00000
00000
;

//---------------pump-single - ----------------
#NOTES:
     pump-single:
     :
     Medium:
     5:
     0.421,0.479,0.162,0.395,0.424,338.000,23.000,56.000,0.000,0.000,0.000,0.421,0.479,0.162,0.395,0.424,338.000,23.000,56.000,0.000,0.000,0.000:
00000
00000
00000
00000
,
00000
00000
00000
00000
,
00000
00000
10000
00100
10000
00100
01000
00100
,
10000
00100
01000
00100
10000
00200
00000
00300
,
00100
01000
00100
00000
10000
00010
10000
00010
,
01000
00001
01000
00001
01000
00002
00003
01000
,
00010
01000
00010
00000
00010
00000
02000
00000
,
03000
00010
00000
00000
10000
00000
00100
00000
,
10000
00200
00000
00000
00000
00300
00000
00000
,
00000
01100
00000
00000
00000
00000
00000
00100
,
01000
00010
01000
00100
01000
00010
01000
00000
,
00100
00000
10000
00000
01000
20000
30000
00100
,
10000
00100
10000
00000
00100
00000
01000
00000
,
00001
00000
00100
00000
00001
02000
03000
00000
,
00010
00100
00010
02000
,
00000
03100
00000
00000
01000
00000
00100
00000
,
10000
00020
00000
00000
00000
00000
00000
00000
,
00000
00030
00000
01000
00100
01000
00100
01000
,
00100
01100
20020
00000
,
00000
30030
00000
10000
00001
01000
00010
10000
,
00001
01000
00010
00000
00100
00000
10000
00000
,
00010
02000
03000
00000
01000
00100
01000
00010
,
01000
00100
02000
03000
00001
00100
00001
00100
,
00001
00000
02000
00000
03000
00001
01000
00001
,
00000
00200
00300
00020
00030
00200
00300
00020
,
00000
01030
00000
01000
00001
10000
00010
01000
,
00001
10000
00100
02200
,
00000
03300
00000
01000
00010
00100
00010
01000
,
00010
01000
20000
00000
32000
00000
13000
00000
,
01000
00020
00030
00000
10000
00100
10000
00100
,
01000
00000
01001
00000
01000
00001
00100
00001
,
00100
00001
02000
00000
03000
00001
01000
00000
,
00000
10001
00000
00100
00000
01000
00000
00010
,
00000
00200
00000
00000
00300
00000
00010
00000
,
00000
00000
10000
00000
01000
20000
00000
30000
,
00100
10000
00100
10000
00100
20000
00000
30000
,
00010
01000
00010
01000
00010
02000
00000
03000
,
00100
01000
00200
00000
00000
00000
00300
00000
,
10000
00100
01000
00100
10000
00200
00000
00300
,
00000
00001
00100
00000
10000
00200
00000
00000
,
10300
00002
00000
00000
00000
00000
00003
00000
,
00100
20000
00000
00000
00000
00000
30000
01000
,
00010
10000
00100
00000
10100
00000
01000
00100
,
01100
00000
01000
00010
01000
00010
01000
00000
,
00010
10000
00010
00000
01000
00100
01000
00100
,
02000
03000
01000
01100
,
01000
00000
00010
00000
01000
00010
00000
01000
,
00020
01000
00000
01000
00000
01000
00000
01000
,
00030
02020
00000
00000
00000
00000
00000
00000
,
00000
03030
00000
00000
,
00000
00000
00000
00000
00000
01000
00000
00000
00000
00002
00000
00000
00000
00000
00000
00000
,
00003
10000
00000
00010
00000
00000
00000
01000
00000
00100
00000
01000
00000
00100
00000
10000
,
00000
00100
00000
00000
00000
01000
00000
00000
00000
00100
00000
00000
00000
01000
00000
00000
,
00000
00100
00000
10000
00000
00000
00000
01000
00000
00100
00000
10000
00000
00100
00000
01000
,
00000
00100
00000
00000
00000
20200
00000
00000
00000
30300
00000
00000
00000
00000
00000
00000
,
00000
00000
00000
00000
00000
02002
00000
00000
00000
00000
03003
00000
00000
01000
00000
00001
,
00000
01000
00000
00001
00000
00000
00000
01000
00000
00000
00000
00001
00000
00000
00000
01000
,
00000
00000
00002
00000
00000
00000
00003
00000
00000
01000
00000
00000
00000
00100
00000
00000
,
00000
00010
00000
00000
00000
00001
00000
00000
00000
02002
00000
00000
00000
03003
00000
01000
,
00000
00100
00000
10000
00000
00100
00000
01000
00000
00100
00000
10000
00000
00100
00000
01000
,
00000
00100
00000
00000
00000
20000
00000
30000
00000
00002
00000
00003
00000
00200
00000
00300
,
00000
00010
00000
00200
00000
00300
00000
00010
00000
01000
00000
00010
00000
01000
00000
00010
,
00000
01000
00000
00010
00000
01010
00000
01000
00000
10000
00000
01000
00000
10000
00000
01000
,
00000
01000
00000
00100
00000
02200
00000
00000
00000
03300
00000
01000
00000
00010
00000
01000
,
00000
00100
00000
01000
00000
00000
00000
00001
00000
00000
00000
00010
00000
00000
00000
00100
,
00000
00000
00000
00010
00000
00000
00000
00000
00000
01000
00000
00001
00000
00100
00000
00001
,
00000
00100
00000
00001
00000
00100
00000
00000
00000
00110
00000
00000
00000
10000
00000
00000
,
00000
01010
00000
00000
00000
00100
00000
00000
00000
01100
00000
00000
00000
10000
00000
00000
,
00000
10010
00000
10000
00000
00020
00000
00000
00000
00000
00000
00030
00000
01000
00000
00100
,
00000
02000
00000
00000
00000
03100
00000
00000
00000
10000
00000
00001
00000
10000
00000
00001
,
00000
10000
00000
00000
00000
00001
00000
00000
00000
10001
00000
00000
00000
00001
00000
00000
,
00000
01100
00000
00000
00000
01000
00000
00000
00000
10100
00000
00000
00000
10000
00000
00000
,
00000
10100
00000
00000
00000
00020
00000
00000
00000
00000
00030
00000
00000
20000
00000
00000
,
00000
30000
00000
00000
00000
00001
00000
00000
00000
01000
00000
00010
00000
01000
00000
00100
,
00000
01000
00000
00010
00000
01000
00000
00000
00000
00020
00000
00000
00000
00200
00000
00000
,
00000
00000
00000
00000
00000
00000
00000
00330
00000
00000
00000
00000
00000
00000
00000
00000
;

//---------------pump-single - ----------------
#NOTES:
     pump-single:
     :
     Easy:
     3:
     0.284,0.293,0.134,0.296,0.258,221.000,19.000,42.000,0.000,0.000,0.000,0.284,0.293,0.134,0.296,0.258,221.000,19.000,42.000,0.000,0.000,0.000:
00000
00000
00000
00000
,
00000
00000
00000
00000
,
00000
00000
10000
01000
,
10000
00000
01000
00000
00100
02000
00000
03000
,
00000
00010
10000
01000
,
01000
00000
00100
00000
01000
00020
00000
00000
,
00030
01000
00010
02000
,
03000
00100
00000
00000
00010
00000
00100
00000
,
00010
00200
00000
00000
00000
00300
00000
00000
,
00000
01100
00000
00000
00000
00000
00000
00000
,
01000
00100
01000
00100
,
01000
00000
10000
00000
01000
20000
30000
00000
,
00100
01000
00100
01000
,
00001
00000
00100
00000
00001
02000
03000
00000
,
00010
00100
01000
00020
,
00000
00130
00000
00000
00010
00000
00100
00000
,
01000
00020
00000
00000
00000
00000
00000
00000
,
00000
00030
00000
00000
00000
00000
00000
00000
,
00000
01100
20020
00000
,
30030
00000
00100
01000
,
10000
11000
00100
01000
,
00100
20000
30000
00000
10000
00000
01000
00000
,
00010
00000
02000
03000
00100
00000
00010
00000
,
00100
00002
00003
00010
,
00000
00100
00000
00010
00000
00100
00000
00010
,
00000
01000
00000
00000
00001
00000
00010
00000
,
01000
10000
01000
00200
,
00000
00300
10000
01000
,
00100
10000
00010
10000
,
00100
01000
00000
00000
00100
00000
10000
00000
,
00100
01001
00100
00010
,
00100
02000
03000
00010
,
00000
00100
00000
00010
00000
00100
00000
01000
,
00000
00100
00000
00000
00000
00000
00010
00000
,
00000
00000
10000
00000
01000
20000
00000
30000
,
00100
00000
01000
00000
00100
02000
00000
03000
,
00010
00000
01000
00000
00010
02000
03000
00000
,
00010
00200
00000
00300
,
00100
00000
00010
00000
00100
00020
00000
00030
,
00000
01000
00001
00000
01000
00002
00000
00000
,
01003
00020
00000
00000
00000
00030
00000
00000
,
00010
00200
00000
00000
00000
00300
00000
00000
,
00100
01000
00100
01000
,
01100
00000
00000
00000
,
00010
00000
00100
00000
01000
00000
01000
00100
,
02000
03000
01000
01100
,
01000
00010
01000
00010
,
00200
00300
00010
01000
,
00010
02000
00000
00000
,
00000
03000
00000
00000
,
00000
00000
00000
00000
00000
01000
00000
00000
00000
00002
00000
00000
00000
00000
00000
00000
,
00003
00000
00000
00000
,
00000
00000
00000
00000
00000
01000
00000
00000
00000
00100
00000
00000
00000
01000
00000
00000
,
00000
00100
00000
01000
00000
00000
00000
00000
00000
10000
00000
00000
00000
01000
00000
00000
,
00000
00000
00000
00000
00000
20200
00000
00000
00000
30300
00000
00000
00000
00000
00000
00000
,
00000
00000
00000
00000
00000
20020
00000
00000
00000
00000
30030
00000
00000
00000
00000
00000
,
00000
00000
00000
00001
00000
00000
00000
01000
00000
00000
00000
00001
00000
00000
00000
01000
,
00000
00000
00002
00000
00000
00000
00003
00000
00000
01000
00000
00000
00000
00100
00000
00000
,
00000
00010
00000
00000
00000
00001
00000
00000
00000
02002
00000
00000
00000
03003
00000
00000
,
00000
00000
00000
00000
00000
00000
00000
00000
00000
00100
00000
00000
00000
00010
00000
00000
,
00000
01000
00000
00000
00000
10000
00000
00000
00000
01000
00000
00000
00000
00100
00000
00000
,
00000
01000
00000
00200
00000
00300
00000
00000
00000
10000
00000
00000
00000
00010
00000
00000
,
00000
10000
00000
00000
00000
10010
00000
00000
00000
00000
00000
00000
00000
01000
00000
00000
,
00000
00100
00000
00000
00000
02200
00000
00000
00000
03300
00000
00000
00000
00000
00000
00000
,
00000
00000
00000
01000
00000
00000
00000
00001
00000
00000
00000
00010
00000
00000
00000
00100
,
00000
00000
00000
00010
00000
00000
00000
00000
00000
01000
00000
00000
00000
00100
00000
00000
,
00000
00010
00000
00000
00000
01000
00000
00000
00000
01100
00000
00000
00000
00001
00000
00000
,
00000
00101
00000
00000
00000
00010
00000
00000
00000
00110
00000
00000
00000
00000
00000
00000
,
00000
00000
00000
10000
00000
00020
00000
00000
00000
00000
00000
00030
00000
01000
00000
00000
,
00000
00000
00000
00000
00000
00100
00000
00000
00000
01000
00000
00000
00000
00100
00000
00000
,
00000
01000
00000
00000
00000
10000
00000
00000
00000
10100
00000
00000
00000
01000
00000
00000
,
00000
11000
00000
00000
00000
00100
00000
00000
00000
01100
00000
00000
00000
00010
00000
00000
,
00000
00101
00000
00000
00000
02000
00000
00000
00000
00000
03000
00000
00000
00002
00000
00000
,
00000
00003
00000
00000
00000
00100
00000
00000
00000
00010
00000
00000
00000
00100
00000
00000
,
00000
01000
00000
00000
00000
00100
00000
00000
00000
00020
00000
00000
00000
00200
00000
00000
,
00000
00000
00000
00000
00000
00000
00000
00330
00000
00000
00000
00000
00000
00000
00000
00000
;

//---------------pump-double - ----------------
#NOTES:
     pump-double:
     :
     Challenge:
     10:
     0.718,0.716,0.558,0.607,0.554,547.000,79.000,86.000,0.000,0.000,1.000,0.718,0.716,0.558,0.607,0.554,547.000,79.000,86.000,0.000,0.000,1.000:
0000000000
0000000000
0001000000
0011000000
0001000000
0020000000
0000000000
0031000000
,
0200000000
0300000000
0010000000
1010000000
1000000000
0020000000
0000000000
1030000000
,
0020000000
0030000000
0100000000
0010000000
0100000000
0010000000
1000000000
0010000000
,
1000000000
0010000000
0100000000
0010000000
0100000000
2200000000
3300000000
0100000000
,
0001000000
0010000000
0020200000
0030300000
0000100000
0001000000
0000100000
0010000000
,
0000100000
0001000000
0000100000
0010000000
0001000000
0022000000
0033000000
0001000000
,
0010000000
0001000000
0100000000
0010000000
0200000000
0010000000
0320000000
0001000000
,
0001000000
0032000000
0010000000
0013000000
0100000000
0010000000
0100000000
0000100000
,
0010000000
0000200000
0001000000
0001300000
0000100000
0002000000
0003000000
0020000000
,
0030010000
0000000000
0001000000
0001100000
0001000000
0000020000
0000000000
0010030000
,
0000100000
0010000000
0000100000
0001000000
0000100000
0001000000
0002200000
0003300000
,
0001000000
0000010000
0001000000
0000100000
0001000000
0002020000
0003030000
0000010000
,
0001000000
0000001000
0002002000
0003003000
0000010000
0001000000
0000010000
0000100000
,
0000010000
0001000000
0000010000
0000100000
0000010000
0002020000
0003030000
0001000000
,
0001001000
0001000000
0000002000
0000000000
0000103000
0000000000
0000220000
0000000000
,
0000330000
0000200000
0000000000
0000000000
0000301000
0000010000
0000100000
0000000000
,
0000010000
0000020100
0000030000
0000021000
0000030000
0000020100
0000030000
0000011000
,
0000010000
0000001000
0000010000
0000002000
0000000000
0000000000
0000003000
0000000000
0000000000
0000010000
0000000000
0000000000
0000001000
0000000000
0000000000
0000010000
0000000000
0000000000
0000100000
0000000000
0000000000
0000010000
0000000000
0000000000
,
0000100000
0000000000
0000010000
0000000000
0000110000
0000000000
0000000000
0000000000
0000202000
0000000000
0000303000
0000000000
0000010000
0000001000
0000010000
0000001000
,
0000010000
0000001000
0000010000
0000001000
0000010000
0000000000
0000100000
0000000000
0000110000
0000000000
0000001000
0000000000
0000010000
0000000000
0000100000
0000000000
,
0000000010
0000001000
0000010010
0000000000
0000001100
0000000000
0000011000
0000001100
,
0000011000
0000000000
0000000200
0000000000
0000002000
0000000000
0000003300
0000000000
0000000100
0000000000
0000001000
0000000000
0000000100
0000001000
0000000100
0000001000
,
0000000100
0000000000
0000001000
0000000000
0000001010
0000000000
0000000000
0000000000
0000000010
0000000000
0000000100
0000000000
0000001000
0000000000
0000000100
0000001000
,
0000000100
0000001000
0000000100
0000000000
0000002200
0000000000
0000000000
0000003300
0000000000
0000000000
0000001000
0000000000
0000010000
0000000000
0000001000
0000000000
,
0000000010
0000000000
0000002010
0000000000
0000000000
0000003000
0000000102
0000000000
0000000000
0000000003
0000000210
0000000000
0000000000
0000000300
0000001020
0000000000
,
0000000000
0000000000
0000002000
0000000000
0000000000
0000003000
0000000030
0000000000
0000000100
0000000000
0000000010
0000000000
0000001000
0000000010
0000001000
0000000010
,
0000001000
0000000010
0000001000
0000000000
0000002000
0000000000
0000000000
0000000000
0000003020
0000000000
0000000000
0000000000
0000000230
0000000000
0000000000
0000000000
,
0000000000
0000000000
0000000310
0000000100
0000000010
0000000100
0000000010
0000000001
,
0000001000
0000000100
0000001010
0000000000
0000001100
0000000000
0000011000
0000001100
,
0000011000
0000000000
0000002000
0000000000
0000000000
0000003000
0000000100
0000000000
0000001000
0000000000
0000000100
0000000000
0000001000
0000000010
0000001000
0000000010
,
0000001000
0000000010
0000001000
0000000000
0000000020
0000000000
0000000000
0000000000
0000001030
0000000000
0000000100
0000000000
0000001000
0000000000
0000000100
0000001000
,
0000000100
0000000000
0000000000
0000001000
0000000000
0000000000
0000000100
0000000000
0000000000
0000001000
0000000000
0000000000
0000000100
0000000000
0000010000
0000000000
0000000100
0000000000
0000010000
0000000000
0000000100
0000000000
0000010000
0000000000
0000000100
0000000000
0000010000
0000000000
0000000100
0000000000
0000010000
0000000000
0000000000
0000000000
0000000000
0000000000
0000000100
0000000000
0000000000
0000000000
0000000000
0000000000
0000001000
0000000000
0000000000
0000000000
0000000000
0000000000
,
0000100000
0000110000
0000000000
0000011000
0000000000
0000010100
0000000000
0000001100
,
0000000000
0000000000
0000000200
0000000000
0000000000
0000000000
0000100300
0000000100
0000010000
0000000100
0000100000
0000000100
0000010000
0000000100
0000100000
0000000100
,
0000010000
0000000100
0000010000
0000001000
0000010000
0000002000
0000100000
0000013000
,
0000100000
0000010000
0000001000
0000100000
0000010000
0000110000
0000010000
0000001000
,
0000100000
0000001000
0000100000
0000010000
0000100000
0000110000
0000100000
0000001000
,
0000100000
0000001000
0000400000
0000000000
0000000000
0000310000
0000000000
0000010000
,
0000100000
0000010000
0000100000
0000010000
0000100000
0000002000
0001000000
0000103000
,
0000001000
0000000000
0000010000
0000000000
0000001000
0000000000
0000100000
0000000000
0000010000
0000000000
0000220000
0000000000
0000000000
0000330000
0000000000
0000000000
,
0000100000
0000000000
0002000000
0000000000
0003000000
0000000000
0000100000
0000000000
0001000000
0000000000
0000200000
0000000000
0000000000
0000300000
0010000000
0000000000
,
0001000000
0000100000
0020000000
0030010000
0010000000
0000020000
0000030000
0000100000
,
0001000000
0000100000
0001000000
0000000000
0000100000
0001100000
0000000000
0000100000
,
0010000000
0000100000
0010000000
0000100000
0010000000
0001000000
0010000000
0011000000
,
0100000000
0010000000
0100000000
0000000000
0110000000
0100000000
0000000000
0001000000
,
0010000000
0000000000
0010000000
0100000000
0010000000
0001000000
0010000000
0001000000
,
0010000000
0100000000
0010000000
0000000000
0001000000
0010000000
0000000000
0002000000
,
0103000000
0001000000
0000000000
0021000000
0030000000
0102000000
0003000000
0021000000
,
0030000000
0000000000
0010000000
0000000000
1000000000
0000000000
0010000000
1000000000
0001000000
1000000000
0010000000
1000000000
0001000000
0100000000
0001000000
0100000000
,
0001000000
0000000000
0100000000
0000000000
0001000000
0000000000
0100000000
0000000000
0001000000
0000000000
0100000000
0000000000
0001000000
0000000000
0000000000
0000000000
0000000000
0000000000
0000000000
0000000000
0000000000
0001000000
0000000000
0000000000
0000000000
0000000000
0000000000
0100000000
0000000000
0000000000
0000000000
0000000000
0000000000
0001000000
0000000000
0000000000
0000000000
0000000000
0000000000
0100000000
0000000000
0000000000
0000000000
0000000000
0000000000
0010000000
0000000000
0000000000
,
0000000000
0100000000
0000000000
0010000000
0000000000
0100000000
0000000000
0000000000
0000000000
0101000000
0000000000
0000000000
0000000000
0011000000
0000000000
0010000000
,
0000000000
0100000000
0000000000
0020000000
0000000000
0030000000
0000000000
0100000000
0000000000
0010000000
0000000000
0100000000
0000000000
1000000000
0000000000
0100000000
,
0000000000
0100000000
0000000000
0010000000
0000000000
0011000000
0000000000
0000000000
0000000000
0010100000
0000000000
0000000000
0000000000
0001000000
0000000000
0000000000
,
0010000000
0000000000
0002000000
0000000000
0000000000
0003000000
0000000000
0000000000
0001000000
0000000000
0010000000
0000000000
0001000000
0000000000
0010000000
0000000000
,
0001000000
0010000000
0101000000
0001000000
0100000000
0000100000
0100000000
0010000000
,
0100000000
0010000000
0220000000
0330000000
0000000000
0001000000
0010000000
0100000000
,
0001000000
0011000000
0000000000
0010100000
0000000000
0001100000
0000000000
0001010000
,
0000000000
0000000000
0000000000
0000000000
0000000000
0000000000
0000010000
0000000000
0000100000
0000000000
0000010000
0000000000
0000000000
0000000000
0000000000
0000000000
0000000000
0000000000
0000000000
0000000000
0000000000
0000010000
0000000000
0000000000
0000000000
0000000000
0000000000
0001000000
0000000000
0000000000
0000000000
0000000000
0000000000
0000010000
0000000000
0000000000
0000000000
0000000000
0000000000
0010000000
0000000000
0000000000
0000000000
0000000000
0000000000
0000100000
0000000000
0000000000
,
0000000000
0010000000
0000000000
0000100000
0000000000
0020200000
0000000000
0030300000
0000000000
0001100000
0000000000
0000000000
0001000000
0000100000
0001000000
0000010000
,
0001000000
0000100000
0001000000
0000010000
0001000000
0000000000
0000000000
0001000000
0000000000
0000100000
0000000000
0001000000
0000000000
0010000000
0000000000
0001000000
,
0000000000
0000010000
0000000000
0000001000
0000000000
0000011000
0000000000
0000000000
0000000000
0000110000
0000000000
0000000000
0000000000
0001100000
0000000000
0000110000
,
0000000000
0001020000
0000000000
0002030000
0000000000
0000000000
0003000000
0000000000
0000100000
0000000000
0000010000
0000000000
0001000000
0000010000
0001000000
0000010000
,
0001000000
0000010000
0001000000
0000000000
0000020000
0000000000
0000000000
0000030000
0000100000
0000000000
0000001000
0000000000
0001000000
0000001000
0001000000
0000001000
,
0001000000
0000001000
0001000000
0000000000
0000002000
0000000000
0000000000
0000000000
0000000000
0000003000
0000000000
0001000000
0000000000
0000010000
0000000000
0001000000
,
0000000000
0000001000
0000000000
0000101000
0000000000
0000000000
0000000000
0000110000
0000000000
0000000000
0000000000
0000011000
0000000000
0000000000
0000000000
0000001100
,
0000000000
0000001000
0000000000
0000011000
0000000000
0000000000
0000000000
0000001000
0000000000
0000010000
0000000000
0000001000
0000000000
0000001000
0000010000
0000001000
,
0000010000
0000001000
0000010000
0000000000
0000002000
0000000000
0000000000
0000000000
0000103000
0000000000
0000000000
0000000000
0000100100
0000000000
0000000100
0000010000
,
0000000100
0000010000
0000000100
0000010000
0000000200
0000000000
0000000000
0000000300
0000000000
0000200100
0000000000
0000300000
0000000000
0000021000
0000000000
0000030000
,
0000000000
0000001000
0000000100
0000001000
0000000100
0000001000
0000000000
0000000000
0000000000
0000011000
0000000000
0000000000
0000000000
0000001010
0000000000
0000001100
,
0000000000
0000002020
0000000000
0000000000
0000003030
0000000000
0000000000
0000000100
0000000000
0000001000
0000000000
0000010000
0000000000
0000001000
0000000100
0000001000
,
0000000100
0000001000
0000000100
0000000000
0000000000
0000002000
0000000000
0000003000
0000000000
0000011000
0000000000
0000000000
0000000000
0000010000
0000000010
0000001000
,
0000000010
0000000000
0000000000
0000001000
0000000000
0000000000
0000000010
0000000000
0000000000
0000001000
0000000000
0000000000
0000000010
0000000000
0000000000
0000002000
0000000000
0000000000
0000000000
0000000000
0000000000
0000003000
0000000000
0000000000
0000000010
0000000000
0000010000
0000000000
0000000010
0000000000
0000010000
0000000000
0000000010
0000000000
0000010000
0000000000
0000000010
0000000000
0000010000
0000000000
0000000010
0000000000
0000010000
0000000000
0000000000
0000000000
0000000000
0000000000
,
0000000001
0000000000
0000000000
0000002000
0000000000
0000000002
0000000000
0000000000
0000000000
0000000000
0000003003
0000000000
0000000000
0000002020
0000000000
0000000000
,
0000000000
0000000000
0000003030
0000000000
0000000000
0000000100
0000000000
0000000010
0000000000
0000000100
0000000000
0000000010
0000000000
0000000100
0000000000
0000001000
,
0000000000
0000000100
0000000000
0000000010
0000000000
0000000002
0000000000
0000000000
0000000000
0000000100
0000000000
0000000000
0000000000
0000000020
0000000000
0000000000
,
0000000000
0000000033
0000000000
0000000000
0000000000
0000000000
0000000000
0000000000
;

//---------------pump-double - ----------------
#NOTES:
     pump-double:
     :
     Medium:
     5:
     0.419,0.479,0.155,0.395,0.424,338.000,22.000,56.000,0.000,0.000,0.000,0.419,0.479,0.155,0.395,0.424,338.000,22.000,56.000,0.000,0.000,0.000: // measure 0
0000000000
0000000000
0000000000
0000000000
,  // measure 1
0000000000
0000000000
0000000000
0000000000
,  // measure 2
0000000000
0000000000
1000000000
0010000000
0100000000
0000100000
0010000000
0001000000
,  // measure 3
0100000000
0010000000
1000000000
0000100000
1000000000
0020000000
0000000000
0030000000
,  // measure 4
0010000000
0100000000
0010000000
0000000000
1000000000
0001000000
1000000000
0001000000
,  // measure 5
0100000000
0000100000
0100000000
0000100000
0100000000
0000200000
0000300000
0100000000
,  // measure 6
0001000000
0100000000
0001000000
0000000000
0001000000
0000000000
0200000000
0000000000
,  // measure 7
0300000000
0000100000
0000000000
0000000000
0001000000
0000000000
0010010000
0000000000
,  // measure 8
0000010000
0020000000
0000000000
0000000000
0000000000
0030000000
0000000000
0000000000
,  // measure 9
0000000000
0000110000
0000000000
0000000000
0000000000
0000000000
0000000000
0001000000
,  // measure 10
0000010000
0001000000
0000010000
0001000000
0000010000
0001000000
0000010000
0000000000
,  // measure 11
0000100000
0000000000
0000001000
0000000000
0001000000
0020000000
0030000000
0000100000
,  // measure 12
0010000000
0000100000
0010000000
0000000000
0000100000
0000000000
0001000000
0000000000
,  // measure 13
0000001000
0000000000
0000100000
0000000000
0000001000
0002000000
0003000000
0000000000
,  // measure 14
0000010000
0000100000
0001000000
0000020000
,  // measure 15
0000000000
0000130000
0000000000
0000000000
0000010000
0000000000
0000100000
0000000000
,  // measure 16
0000100000
0000020000
0000000000
0000000000
0000000000
0000000000
0000000000
0000000000
,  // measure 17
0000000000
0000030000
0000000000
0000010000
0000001000
0000010000
0000001000
0000010000
,  // measure 18
0000001000
0000011000
0000200200
0000000000
,  // measure 19
0000300300
0000000000
0000000000
0000100000
0000010000
0000000100
0000010000
0000100000
,  // measure 20
0000010000
0000000100
0000010000
0000000000
0000001000
0000000000
0000010000
0000000000
,  // measure 21
0000000100
0000020000
0000030000
0000000000
0000010000
0000001000
0000010000
0000000100
,  // measure 22
0000010000
0000001000
0000020000
0000030000
0000001000
0000000100
0000001000
0000010000
,  // measure 23
0000001000
0000000000
0000020000
0000000000
0000030000
0000000010
0000010000
0000000010
,  // measure 24
0000000000
0000002000
0000003000
0000000200
0000000300
0000002000
0000003000
0000000200
,  // measure 25
0000000000
0000010300
0000000000
0000010000
0000000010
0000000100
0000001000
0000010000
,  // measure 26
0000000100
0000001000
0000000100
0000000220
,  // measure 27
0000000000
0000000330
0000000000
0000000001
0000000100
0000000010
0000000100
0000000001
,  // measure 28
0000000100
0000000001
0000002000
0000000000
0000003002
0000000000
0000001003
0000000000
,  // measure 29
0000000010
0000000200
0000000300
0000000000
0000000010
0000000100
0000001000
0000000010
,  // measure 30
0000001000
0000000000
0000010010
0000000000
0000010000
0000000010
0000001000
0000000010
,  // measure 31
0000001000
0000000010
0000020000
0000000000
0000030000
0000000010
0000010000
0000000000
,  // measure 32
0000000000
0000001000
0000000000
0000000100
0000000000
0000001000
0000000000
0000010000
,  // measure 33
0000000000
0000002000
0000000000
0000000000
0000003000
0000000000
0000000100
0000000000
,  // measure 34
0000000000
0000000000
0000100000
0000000000
0000010000
0000200000
0000000000
0000300000
,  // measure 35
0000001000
0000100000
0000001000
0000100000
0000001000
0000200000
0000000000
0000300000
,  // measure 36
0000000100
0000010000
0000000100
0000010000
0000000100
0000020000
0000000000
0000030000
,  // measure 37
0000001000
0000010000
0000002000
0000000000
0000000000
0000000000
0000003000
0000000000
,  // measure 38
0000100000
0000001000
0000100000
0000010000
0000100000
0000020000
0000000000
0000030000
,  // measure 39
0000000000
0001000000
0000001000
0000000000
0000100000
0000002000
0000000000
0000000000
,  // measure 40
0000103000
0000020000
0000000000
0000000000
0000000000
0000030000
0000000000
0000000000
,  // measure 41
0000010000
0000200000
0000000000
0000000000
0000000000
0000300000
0000000000
0000100000
,  // measure 42
0000100000
0001000000
0000100000
0000000000
0000100000
0000000000
0001000000
0000100000
,  // measure 43
0001100000
0000000000
0001000000
0000010000
0001000000
0000010000
0001000000
0000000000
,  // measure 44
0000010000
0010000000
0000010000
0000000000
0001000000
0000100000
0001000000
0000100000
,  // measure 45
0002000000
0003000000
0001000000
0001100000
,  // measure 46
0100000000
0000000000
0001000000
0000000000
0100000000
0001000000
0000000000
0100000000
,  // measure 47
0002000000
0100000000
0000000000
0100000000
0000000000
0100000000
0000000000
0100000000
,  // measure 48
0003000000
0202000000
0000000000
0000000000
0000000000
0000000000
0000000000
0000000000
,  // measure 49
0000000000
0303000000
0000000000
0000000000
,  // measure 50
0000000000
0000000000
0000000000
0000000000
0000000000
0100000000
0000000000
0000000000
0000000000
0000200000
0000000000
0000000000
0000000000
0000000000
0000000000
0000000000
,  // measure 51
0000300000
1000000000
0000000000
0001000000
0000000000
0000000000
0000000000
0100000000
0000000000
1000000000
0000000000
0100000000
0000000000
1000000000
0000000000
0100000000
,  // measure 52
0000000000
0010000000
0000000000
0000000000
0000000000
0100000000
0000000000
0000000000
0000000000
0010000000
0000000000
0000000000
0000000000
0100000000
0000000000
0000000000
,  // measure 53
0000000000
0010000000
0000000000
0100000000
0000000000
0000000000
0000000000
0100000000
0000000000
0010000000
0000000000
0100000000
0000000000
0010000000
0000000000
0100000000
,  // measure 54
0000000000
0010000000
0000000000
0000000000
0000000000
2020000000
0000000000
0000000000
0000000000
3030000000
0000000000
0000000000
0000000000
0000000000
0000000000
0000000000
,  // measure 55
0000000000
0000000000
0000000000
0000000000
0000000000
0200200000
0000000000
0000000000
0000000000
0000000000
0300300000
0000000000
0000000000
0100000000
0000000000
0000100000
,  // measure 56
0000000000
0100000000
0000000000
0000100000
0000000000
0000000000
0000000000
0100000000
0000000000
0000000000
0000000000
0000100000
0000000000
0000000000
0000000000
0100000000
,  // measure 57
0000000000
0000000000
0000200000
0000000000
0000000000
0000000000
0000300000
0000000000
0000000000
0100000000
0000000000
0000000000
0000000000
0010000000
0000000000
0000000000
,  // measure 58
0000000000
0001000000
0000000000
0000000000
0000000000
0000100000
0000000000
0000000000
0000000000
0200200000
0000000000
0000000000
0000000000
0300300000
0000000000
0100000000
,  // measure 59
0000000000
0001000000
0000000000
0010000000
0000000000
0001000000
0000000000
0010000000
0000000000
0001000000
0000000000
0000100000
0000000000
0001000000
0000000000
0000100000
,  // measure 60
0000000000
0001000000
0000000000
0000000000
0000000000
0020000000
0000000000
0030000000
0000000000
0002000000
0000000000
0003000000
0000000000
0000200000
0000000000
0000300000
,  // measure 61
0000000000
0001000000
0000000000
0000200000
0000000000
0000300000
0000000000
0001000000
0000000000
0000010000
0000000000
0001000000
0000000000
0000010000
0000000000
0001000000
,  // measure 62
0000000000
0000010000
0000000000
0001000000
0000000000
0001010000
0000000000
0000010000
0000000000
0010000000
0000000000
0001000000
0000000000
0010000000
0000000000
0001000000
,  // measure 63
0000000000
0001000000
0000000000
0000100000
0000000000
0002200000
0000000000
0000000000
0000000000
0003300000
0000000000
0001000000
0000000000
0000010000
0000000000
0001000000
,  // measure 64
0000000000
0000100000
0000000000
0001000000
0000000000
0000000000
0000000000
0000001000
0000000000
0000000000
0000000000
0000010000
0000000000
0000000000
0000000000
0000100000
,  // measure 65
0000000000
0000000000
0000000000
0000010000
0000000000
0000000000
0000000000
0000000000
0000000000
0001000000
0000000000
0000001000
0000000000
0000100000
0000000000
0000001000
,  // measure 66
0000000000
0000100000
0000000000
0000001000
0000000000
0000100000
0000000000
0000000000
0000000000
0000110000
0000000000
0000000000
0000000000
0000001000
0000000000
0000000000
,  // measure 67
0000000000
0000010100
0000000000
0000000000
0000000000
0000001000
0000000000
0000000000
0000000000
0000011000
0000000000
0000000000
0000000000
0000100000
0000000000
0000000000
,  // measure 68
0000000000
0000100100
0000000000
0000100000
0000000000
0000000200
0000000000
0000000000
0000000000
0000000000
0000000000
0000000300
0000000000
0000010000
0000000000
0000001000
,  // measure 69
0000000000
0000020000
0000000000
0000000000
0000000000
0000031000
0000000000
0000000000
0000000000
0000010000
0000000000
0000000100
0000000000
0000010000
0000000000
0000000100
,  // measure 70
0000000000
0000010000
0000000000
0000000000
0000000000
0000000100
0000000000
0000000000
0000000000
0000010100
0000000000
0000000000
0000000000
0000010000
0000000000
0000000000
,  // measure 71
0000000000
0000001100
0000000000
0000000000
0000000000
0000000100
0000000000
0000000000
0000000000
0000001010
0000000000
0000000000
0000000000
0000000010
0000000000
0000000000
,  // measure 72
0000000000
0000001010
0000000000
0000000000
0000000000
0000020000
0000000000
0000000000
0000000000
0000000000
0000030000
0000000000
0000000000
0000000020
0000000000
0000000000
,  // measure 73
0000000000
0000000030
0000000000
0000000000
0000000000
0000001000
0000000000
0000000000
0000000000
0000000100
0000000000
0000010000
0000000000
0000000100
0000000000
0000001000
,  // measure 74
0000000000
0000000100
0000000000
0000010000
0000000000
0000000100
0000000000
0000000000
0000000000
0000000200
0000000000
0000000000
0000000000
0000002000
0000000000
0000000000
,  // measure 75
0000000000
0000000000
0000000000
0000000000
0000000000
0000000000
0000000000
0000003300
0000000000
0000000000
0000000000
0000000000
0000000000
0000000000
0000000000
0000000000
;
