#VERSION:0.81;
#TITLE:Blue;
#SUBTITLE:;
#ARTIST:BIGBANG;
#TITLETRANSLIT:;
#SUBTITLETRANSLIT:;
#ARTISTTRANSLIT:;
#GENRE:KPop;
#ORIGIN:;
#CREDIT:;
#BANNER:Blue.png;
#BACKGROUND:Blue-bg.png;
#PREVIEWVID:;
#JACKET:AlbumArtSmall.jpg;
#CDIMAGE:Folder.jpg;
#DISCIMAGE:;
#LYRICSPATH:;
#CDTITLE:cdtitle.png;
#MUSIC:Blue.mp3;
#OFFSET:0.000000;
#SAMPLESTART:100.000000;
#SAMPLELENGTH:12.000000;
#SELECTABLE:YES;
#BPMS:0.000=125.000;
#STOPS:;
#DELAYS:;
#WARPS:;
#TIMESIGNATURES:0.000=4=4;
#TICKCOUNTS:0.000=4;
#COMBOS:0.000=1;
#SPEEDS:0.000=1.000=0.000=0;
#SCROLLS:0.000=1.000;
#FAKES:;
#LABELS:0.000=Song Start;
#BGCHANGES:;
#KEYSOUNDS:;
#ATTACKS:
;

//---------------dance-single - Blank----------------
#NOTEDATA:;
#CHARTNAME:;
#STEPSTYPE:dance-single;
#DESCRIPTION:Blank;
#CHARTSTYLE:;
#DIFFICULTY:Hard;
#METER:5;
#RADARVALUES:0.509970,0.514337,0.291762,0.609267,0.036470,622.000000,68.000000,142.000000,0.000000,1.000000,0.000000,0.000000,0.000000,0.509970,0.514337,0.291762,0.609267,0.036470,622.000000,68.000000,142.000000,0.000000,1.000000,0.000000,0.000000,0.000000;
#CREDIT:Blue Army;
#OFFSET:-0.060000;
#BPMS:0.000000=124.999992
;
#STOPS:;
#DELAYS:;
#WARPS:;
#TIMESIGNATURES:0.000000=4=4
;
#TICKCOUNTS:0.000000=4
;
#COMBOS:0.000000=1
;
#SPEEDS:0.000000=1.000000=0.000000=0
,400.500000=0.500000=0.000000=0
,402.000000=1.000000=0.000000=0
,402.500000=0.500000=0.000000=0
,404.000000=1.000000=0.000000=0
,404.500000=0.500000=0.000000=0
,405.750000=1.000000=0.000000=0
;
#SCROLLS:0.000000=1.000000
,2.833333=0.000000
,3.166667=1.000000
,6.833333=0.000000
,7.166667=1.000000
,10.833333=0.000000
,11.166667=1.000000
,86.000000=0.500000
,86.500000=1.000000
,89.000000=2.000000
,90.000000=1.000000
,93.333336=0.000000
,93.666664=1.000000
,94.333336=0.000000
,94.666664=1.000000
,95.333336=0.000000
,95.666664=1.000000
,96.000000=0.500000
,96.500000=1.000000
,102.000000=0.500000
,102.500000=1.000000
,105.000000=2.000000
,106.000000=1.000000
,109.250000=0.000000
,109.750000=1.000000
,232.500000=0.500000
,233.500000=1.000000
,245.000000=0.500000
,246.000000=1.000000
,249.000000=0.500000
,250.000000=1.000000
,265.000000=0.500000
,266.000000=1.000000
,293.000000=1.500000
,293.500000=1.000000
,297.000000=0.500000
,298.000000=1.000000
;
#FAKES:;
#LABELS:0.000000=Song Start
;
#ATTACKS:TIME=226.620010:LEN=3.599991:MODS=Mini, 50% Tornado, Distant;
#NOTES:
// measure 0
0000
0000
1000
0001
1000
0001
0000
2002
,  // measure 1
0000
3003
0001
0010
0100
1000
0000
0220
,  // measure 2
0000
0330
0100
0010
0001
1000
0000
2020
,  // measure 3
0000
3030
0010
0100
0001
1000
0100
0010
,  // measure 4
0100
0000
1000
0100
0020
0000
0000
0000
0230
0000
0000
0300
0010
0000
0100
0000
,  // measure 5
0000
0000
2000
0100
0010
0000
0000
0000
0001
0000
3001
0000
0000
0000
0001
0000
,  // measure 6
0010
0200
0010
0000
0010
0010
0300
0010
,  // measure 7
0100
0000
2000
0100
0010
0000
0001
0000
3001
0010
0100
0000
0010
0000
0100
0000
,  // measure 8
1000
0100
0200
0000
0301
1000
0000
0110
,  // measure 9
0000
2001
0001
0001
0000
3001
0000
0100
,  // measure 10
0010
0200
0010
0000
0000
0010
0310
1000
,  // measure 11
0100
1002
0000
0000
0003
0010
0100
1000
,  // measure 12
0100
0020
0100
0100
0000
2030
0000
0000
,  // measure 13
0001
3002
0000
0000
0003
0000
0010
0100
,  // measure 14
1000
0220
0000
0000
0330
0000
0100
0010
,  // measure 15
1000
0200
0000
2300
0000
3001
0010
0100
,  // measure 16
1000
0020
0000
0000
0000
2030
0000
0000
,  // measure 17
0000
3002
0000
0000
1003
0000
0010
0100
,  // measure 18
1000
0200
0000
0000
0001
0300
0001
0100
,  // measure 19
1000
0200
0000
0302
0000
2003
0000
3020
,  // measure 20
0000
0130
0000
1000
0001
0100
1000
0100
,  // measure 21
0010
0100
1000
0001
2002
3003
0010
0100
,  // measure 22
1000
0100
2000
0000
0000
3001
0001
0010
,  // measure 23
0100
1000
0001
0000
0110
0000
1001
0000
,  // measure 24
0110
0000
0000
0200
0000
0000
0000
0000
0300
0000
0000
0000
0100
0000
0000
0001
0000
0000
0010
0000
0000
0100
0000
0000
,  // measure 25
1000
0000
0000
0100
0000
0000
0101
0000
0000
1100
0000
0000
0020
0000
0000
0000
0030
0000
1000
0000
0000
0100
0000
0000
,  // measure 26
0001
0010
0200
0000
0000
0310
0010
0100
,  // measure 27
1000
0100
0001
0000
0102
0000
1003
0000
,  // measure 28
1100
0000
0010
0000
0200
0000
0000
0300
0001
0000
0010
0000
0100
0000
1000
0000
,  // measure 29
0100
0000
0000
0001
0000
0000
0020
0000
0000
0000
0000
0000
0230
0000
0000
0000
0300
0000
0000
0000
0000
1000
0000
0000
,  // measure 30
0100
0001
1001
0000
2000
0000
3000
0100
,  // measure 31
0001
0010
0100
0000
0110
0000
1000
0001
,  // measure 32
1001
0000
0020
0000
1030
0000
0100
0001
,  // measure 33
0010
0100
2000
0000
3001
0000
0010
0000
,  // measure 34
1000
0100
0002
0000
1003
0000
0010
0100
,  // measure 35
1000
0000
0200
0000
0010
0000
0010
0000
0010
0000
0310
0000
0010
0000
0100
1000
,  // measure 36
0100
0000
0100
0010
0001
0000
1002
0000
0000
0000
0123
0000
0000
0000
0230
0000
,  // measure 37
0300
0220
0000
0000
0330
0000
1000
0001
,  // measure 38
1000
0002
0000
0023
0000
0230
0000
2300
,  // measure 39
3000
1200
0000
0310
0000
0000
1000
0001
,  // measure 40
0010
0110
0000
1000
0101
0000
0001
0010
,  // measure 41
0100
2000
0001
0000
3001
0000
0001
0010
,  // measure 42
0100
2000
0000
3200
0000
0302
0000
0023
,  // measure 43
0000
0230
1000
2300
0001
3002
1000
1003
,  // measure 44
0001
0000
0020
0100
1000
0000
0030
0000
2000
0000
0000
0000
3001
0000
0010
0000
,  // measure 45
0000
0000
0110
0001
1000
0000
0000
0000
0110
0000
1001
0000
0000
0000
1000
0000
,  // measure 46
0100
2000
0000
0000
0001
0000
3000
0001
,  // measure 47
0010
0002
0000
0000
0003
0010
0100
1000
,  // measure 48
0100
2020
0000
3030
1000
0001
0000
0010
,  // measure 49
0000
2001
0000
0000
0001
3000
0000
0001
,  // measure 50
1000
0002
0000
0000
1000
0000
0000
1003
,  // measure 51
2010
0010
0000
0000
3001
0100
0010
0100
,  // measure 52
1000
0000
0002
0000
1000
0000
0000
0000
1000
0000
2003
0000
0001
0000
0100
0010
,  // measure 53
3001
0020
0000
0000
0100
0030
0100
0010
,  // measure 54
0100
0000
0220
0000
0000
0330
0100
0001
0101
0000
0000
0000
1100
0000
1000
0000
,  // measure 55
0100
0002
0000
0023
0000
0130
1000
0001
,  // measure 56
0100
0020
0000
0000
1000
2030
0000
0000
,  // measure 57
0000
3200
0000
0000
0000
0300
0001
0010
,  // measure 58
0100
2000
0000
3000
0110
0000
0100
0010
,  // measure 59
0001
0000
1000
0000
0000
0000
0100
0000
0000
0000
0001
0000
0010
0000
0010
0001
,  // measure 60
0010
0011
0000
1000
0001
0010
0100
1000
,  // measure 61
0100
0010
0010
0000
0110
0000
1000
0100
,  // measure 62
0001
0010
2000
0000
3000
0001
0010
0100
,  // measure 63
1000
0100
0001
0000
0110
0000
1000
0000
,  // measure 64
1100
0001
0000
0100
1000
0100
0010
0100
,  // measure 65
1000
0100
1002
0000
1003
0100
0010
0100
,  // measure 66
0010
1000
0210
0000
0300
0001
0010
1000
,  // measure 67
0100
0000
0001
0000
0020
0000
0000
0030
2000
0000
0000
0000
3001
0000
0000
0000
,  // measure 68
0010
0200
0300
0010
0001
0010
0100
1000
,  // measure 69
0100
0010
2000
0001
3001
0000
0010
0100
,  // measure 70
0010
0100
1000
0100
0110
0000
0001
0010
,  // measure 71
0100
0000
0000
0000
1001
0000
1000
0000
0100
0000
0000
0100
0010
0000
0100
0000
,  // measure 72
0120
0000
1030
0100
0001
0010
0100
0010
,  // measure 73
0100
0000
1000
0000
0200
0000
0000
0300
1010
0000
0000
0000
0100
0000
0010
0000
,  // measure 74
0100
0001
2000
0000
3001
0000
1000
0010
,  // measure 75
0100
0000
1000
0000
0010
0000
0010
0000
0100
0000
0100
0000
0010
0000
0010
0100
,  // measure 76
1000
0000
0001
0010
0100
0000
1001
0000
0000
0000
0010
0000
0000
0000
0100
0000
,  // measure 77
0000
0220
0000
0000
0330
0000
1000
0100
,  // measure 78
0010
0200
0000
0302
0000
2003
0000
3002
,  // measure 79
0000
0023
0000
0200
0330
0000
1000
0100
,  // measure 80
0001
0020
0000
1030
0110
0000
0010
0100
,  // measure 81
0010
0200
0000
0310
0000
0000
0010
0100
,  // measure 82
0001
2000
0000
3200
0000
0302
0000
2003
,  // measure 83
0000
0000
3001
0000
1000
0000
1000
0000
0010
0000
0010
0000
1000
0000
1000
0100
,  // measure 84
0010
0000
0002
0010
0100
0000
0003
0000
1000
0000
0000
0000
0100
0000
0010
0000
,  // measure 85
0000
0000
0002
0010
0100
0000
0000
0000
2000
0000
3003
0000
0000
0000
1000
0000
,  // measure 86
0100
0020
0000
0000
0000
0000
0030
1000
,  // measure 87
0100
0012
0000
0000
0003
1000
0100
0010
,  // measure 88
0100
0110
0000
0000
1000
0001
0000
0010
,  // measure 89
0000
0202
0000
0000
0000
0303
0000
0010
,  // measure 90
0100
2000
0000
0000
0000
0000
3000
0010
,  // measure 91
0100
0002
0000
0000
0003
0000
0010
1000
,  // measure 92
0100
1000
0000
0002
0000
1003
0000
0001
,  // measure 93
0010
0100
0000
1001
0000
0101
0000
1010
,  // measure 94
0000
0110
0000
1000
0100
0001
0000
0010
,  // measure 95
0000
2000
0000
0000
0000
3000
0001
0010
,  // measure 96
0100
1000
0000
0001
0000
0010
0000
1000
,  // measure 97
0100
1000
0000
0100
0000
0110
0000
0100
,  // measure 98
0001
0010
0000
1000
0000
0100
0000
0001
,  // measure 99
0000
0010
0000
0110
0000
1000
0000
0001
,  // measure 100
0000
0000
0220
0000
0000
0000
0000
0000
0000
0330
0220
0000
0000
0000
0000
0000
,  // measure 101
0000
0330
0220
0000
0000
0000
0000
0330
0000
0000
0000
0000
0100
0000
1000
0000
,  // measure 102
0001
0020
0000
0000
0000
2030
0000
0000
,  // measure 103
3000
0200
0000
0000
0300
0000
0010
0100
,  // measure 104
0010
0002
0000
0000
0003
0000
1000
0010
,  // measure 105
1000
0100
0000
1100
0000
1000
0100
0010
,  // measure 106
0100
2000
0000
0000
0000
3002
0000
0000
,  // measure 107
0003
0020
0000
0000
0030
0000
0100
0010
,  // measure 108
0100
2000
0000
0000
3000
0100
0010
0100
,  // measure 109
0001
1000
0000
0110
0000
0101
0000
1000
,  // measure 110
0100
0010
0020
0000
0000
2030
0000
0000
,  // measure 111
0000
3200
0000
0000
0300
0000
0010
0100
,  // measure 112
0001
2000
0000
0000
3000
0000
0001
0010
,  // measure 113
0100
1000
0000
0110
0000
0001
1000
0001
,  // measure 114
0010
0100
2000
0000
0000
3002
0000
0000
,  // measure 115
0003
0020
0000
0000
0030
0000
1000
0100
,  // measure 116
1000
0002
0000
0000
0003
0000
0010
0100
,  // measure 117
0010
0101
0000
0110
0000
0101
0000
1100
,  // measure 118
0000
2002
0000
0000
0000
0000
0000
0000
,  // measure 119
0000
0000
0000
0000
0000
0000
0000
3003
;

//---------------dance-single - ----------------
#NOTEDATA:;
#CHARTNAME:;
#STEPSTYPE:dance-single;
#DESCRIPTION:;
#CHARTSTYLE:;
#DIFFICULTY:Medium;
#METER:2;
#RADARVALUES:0.289310,0.281705,0.072940,0.150171,0.000000,420.000000,17.000000,35.000000,0.000000,0.000000,0.000000,0.000000,0.000000,0.289310,0.281705,0.072940,0.150171,0.000000,420.000000,17.000000,35.000000,0.000000,0.000000,0.000000,0.000000,0.000000;
#CREDIT:;
#NOTES:
0000
0000
0000
0000
0000
0000
0000
0010
,
0000
0000
0000
0000
0000
0000
0000
0100
,
0000
0000
0000
0000
0000
0000
0000
0010
,
0000
0000
0000
0000
,
0000
0000
0100
0000
0010
0000
0100
0010
,
0000
0200
0000
0000
0000
0300
0000
0010
,
0100
0020
0000
0000
0000
0000
0030
0000
,
0100
0020
0000
0000
0030
0000
0100
0000
,
0010
0110
0010
0100
,
0001
0000
0100
0000
0000
0000
0000
0100
,
0010
0100
0000
0000
0000
0000
0000
0010
,
0100
0010
0000
0000
0000
0000
1000
0000
,
0000
0001
1000
0001
,
1000
0001
1000
0100
,
0010
1000
0100
1000
,
0100
1000
0001
1000
,
0001
1000
0001
0100
,
0000
0001
0100
0000
0010
0000
0001
0000
,
0010
0001
0010
0001
,
0100
0000
0001
0000
0000
1000
0000
0100
,
0000
0010
0000
0000
0000
0000
1000
0000
,
0001
1000
0001
1000
,
0001
1000
0100
1000
,
0010
1000
0100
1000
,
0010
1000
0100
1000
,
0001
1000
0001
1000
,
0001
0000
0200
0000
0000
0300
0010
0000
,
0100
0010
1000
0010
,
0000
1000
0001
1000
,
1100
0001
0101
1000
,
0001
1000
0001
1000
,
0100
1000
0010
1000
,
0010
0100
0010
0110
,
1000
0100
1000
1100
,
0010
0100
0010
0100
,
0010
0200
0000
0000
0000
0300
0020
0000
,
0000
0030
0100
0010
0000
0100
0000
0010
,
0000
0200
0000
0000
0300
0000
0001
0000
,
0100
0000
0001
0000
0000
1000
0000
0001
,
0000
1000
0000
0100
0000
0000
1000
0000
,
0010
0000
0100
0010
0100
0000
1000
0000
,
0100
2000
0000
0000
0000
3000
0001
0000
,
0000
1001
0000
1000
0000
0100
0000
0010
,
0000
1000
0000
0100
0000
1000
0000
0010
,
0000
2000
0000
3000
0001
0000
0100
0001
,
0000
0020
0000
0000
0000
0030
0000
0100
,
0010
0200
0000
0000
0000
0000
0300
0010
,
0100
0010
0010
0000
0000
0100
0010
0100
,
0000
0010
0200
0300
0010
0100
0000
0001
,
0000
0101
0000
0000
0000
0000
0000
0001
,
1000
0002
0000
0000
0000
0000
0003
0001
,
0100
2000
0000
0000
0000
3000
0100
0000
,
0000
0010
0200
0000
0300
0020
0000
0000
,
0030
0200
0000
0300
0000
0000
0010
0000
,
0110
0100
0000
0000
0000
0000
1000
0000
,
0100
1000
1100
0001
,
0100
0001
0100
1000
,
0100
1000
0001
1000
,
0001
1000
0001
1000
,
0100
0000
1000
0000
0000
0001
0000
1000
,
0000
0001
0000
0000
0100
0000
0010
0000
,
0100
0010
0100
1000
,
0100
0000
2000
0000
0000
3000
0001
0000
,
0100
0001
1000
0001
,
1000
0001
0000
0000
0100
0000
0010
0000
,
0100
0010
0100
1000
,
0100
0000
2000
0000
0000
3000
0001
0000
,
0010
0001
0100
0010
,
0100
0010
0000
0000
0001
0000
0100
0000
,
0001
0100
0001
0100
,
0010
0100
0010
0100
,
0001
0100
0001
0100
,
0001
0100
0010
0100
,
0010
1000
0010
1000
,
0010
1000
1100
0100
,
0010
0100
0010
0100
,
0000
0000
0010
0100
0000
0010
0000
1000
,
0000
0020
0000
0030
0000
0000
0100
0000
,
0000
0010
0000
0100
0000
0010
0000
0100
,
0000
0010
0000
0200
0000
0300
0000
0000
,
0000
0000
0000
0010
0100
0000
0010
0000
,
1000
0020
0000
0000
0030
0000
1000
0000
,
0010
0100
0010
0100
,
0001
1000
0001
1000
,
0001
0000
1000
0000
0010
0000
0100
0010
,
0000
0200
0000
0000
0300
0000
0000
0010
,
0100
0200
0000
0300
,
0110
0020
0000
0000
0030
0000
1000
0000
,
0010
1000
1010
0100
,
0110
0001
0101
0001
,
1001
1000
1010
0010
,
0100
0000
0010
0000
0100
0000
0000
0010
,
0000
0100
0000
0000
0010
0100
0000
1000
,
0010
1000
0000
0010
0000
0100
0000
0001
,
1000
0000
0000
0001
0000
0010
0000
1000
,
0000
0020
0000
0030
0000
0000
0100
0010
,
0100
0010
0000
1000
0000
0010
0000
1000
,
0010
1000
0000
0010
0000
0100
0000
0010
,
0100
0010
0000
0001
0000
1000
0000
0010
,
0000
0100
0000
0010
0000
0100
0000
0001
,
0000
2000
0000
0000
3000
0002
0000
0000
,
0003
0000
2000
0000
0000
3000
0100
0000
,
0010
0100
0010
0100
,
0010
0100
0010
0010
,
1000
0010
1000
0010
,
1000
0001
1000
0001
,
1000
0001
1000
0001
,
1000
0001
1000
0010
,
1000
0010
1000
1000
,
0010
0001
0010
1000
,
0010
0001
0100
1000
,
0100
0001
0100
1000
,
0100
0001
0100
1000
,
0100
0001
0100
1000
,
0010
0200
0000
0000
0300
0020
0000
0000
,
0030
0200
0000
0000
0300
0000
0010
0100
,
0010
0200
0000
0000
0300
0000
0001
0100
,
0001
0100
0000
0001
0000
0100
0000
1000
,
0000
2002
0000
0000
0000
0000
0000
0000
,
0000
0000
0000
3003
0000
0000
0000
0000
;

//---------------dance-single - Blank----------------
#NOTEDATA:;
#CHARTNAME:;
#STEPSTYPE:dance-single;
#DESCRIPTION:Blank;
#CHARTSTYLE:;
#DIFFICULTY:Challenge;
#METER:8;
#RADARVALUES:0.533262,0.822939,0.399027,0.639301,0.036470,622.000000,93.000000,149.000000,0.000000,13.000000,0.000000,0.000000,0.000000,0.533262,0.822939,0.399027,0.639301,0.036470,622.000000,93.000000,149.000000,0.000000,13.000000,0.000000,0.000000,0.000000;
#CREDIT:;
#OFFSET:-0.060000;
#BPMS:0.000000=124.999992
;
#STOPS:;
#DELAYS:;
#WARPS:;
#TIMESIGNATURES:0.000000=4=4
;
#TICKCOUNTS:0.000000=4
;
#COMBOS:0.000000=1
;
#SPEEDS:0.000000=1.000000=0.000000=0
,400.500000=0.500000=0.000000=0
,402.000000=1.000000=0.000000=0
,402.500000=0.500000=0.000000=0
,404.000000=1.000000=0.000000=0
,404.500000=0.500000=0.000000=0
,405.750000=1.000000=0.000000=0
;
#SCROLLS:0.000000=1.000000
,2.833333=0.000000
,3.000000=1.000000
,6.833333=0.000000
,7.000000=1.000000
,10.833333=0.000000
,11.000000=1.000000
,86.000000=0.500000
,86.500000=1.000000
,89.000000=2.000000
,90.000000=1.000000
,93.333336=0.000000
,93.666664=1.000000
,94.333336=0.000000
,94.666664=1.000000
,95.333336=0.000000
,95.666664=1.000000
,96.000000=0.500000
,96.500000=1.000000
,102.000000=0.500000
,102.500000=1.000000
,105.000000=2.000000
,106.000000=1.000000
,109.250000=0.000000
,109.750000=1.000000
,232.500000=0.500000
,233.500000=1.000000
,245.000000=0.500000
,246.000000=1.000000
,249.000000=0.500000
,250.000000=1.000000
,265.000000=0.500000
,266.000000=1.000000
,293.000000=1.500000
,293.500000=1.000000
,297.000000=0.500000
,298.000000=1.000000
;
#FAKES:;
#LABELS:0.000000=Song Start
;
#ATTACKS:TIME=226.620010:LEN=3.599991:MODS=Mini, 50% Tornado, Distant;
#NOTES:
// measure 0
0000
0000
1100
0011
1100
0011
0000
2222
,  // measure 1
0000
3333
0011
0110
1100
1001
0000
2222
,  // measure 2
0000
3333
0110
0011
0101
1100
0000
2222
,  // measure 3
0000
3333
0010
0100
0001
1000
0100
0010
,  // measure 4
0100
0000
1100
0011
2200
0000
0000
0300
0200
0000
0000
0300
3010
0000
0100
0000
,  // measure 5
0000
0000
2001
0110
0011
0000
0000
0000
0001
0000
3001
0000
0000
0000
0001
0000
,  // measure 6
0010
0200
0010
0000
0010
0010
0300
0010
,  // measure 7
0100
0000
2000
0011
0110
0000
0001
0000
0011
0110
3011
0000
0010
0000
0100
0000
,  // measure 8
1000
0100
0200
0000
0301
1000
0000
0110
,  // measure 9
0000
2001
0001
0101
0000
3011
0000
0100
,  // measure 10
0010
0200
0010
0000
0000
0010
0310
1000
,  // measure 11
0100
1002
0000
0000
0003
0010
0100
1000
,  // measure 12
0100
0020
0100
0100
0000
2030
0000
0000
,  // measure 13
0001
3002
0000
0000
0003
0000
0010
0100
,  // measure 14
1000
0220
0000
0000
0330
0000
0100
0010
,  // measure 15
1000
0200
0000
2300
0000
3001
0010
0100
,  // measure 16
1000
0020
0000
0000
0000
2030
0000
0000
,  // measure 17
0000
3002
0000
0000
1003
0000
0010
0100
,  // measure 18
1000
0200
0000
0000
0001
0300
0001
0100
,  // measure 19
1000
0200
0000
0302
0000
2003
0000
3020
,  // measure 20
0000
0130
0000
1000
0001
0100
1000
0100
,  // measure 21
0010
0100
1000
0001
2002
3003
0010
0100
,  // measure 22
1000
0100
2000
0000
0000
3001
0001
0010
,  // measure 23
0100
1000
0001
0000
0110
0000
1001
0000
,  // measure 24
0110
0000
0000
0200
0000
0000
0000
0000
0300
0000
0000
0000
0100
0000
0000
0001
0000
0000
0010
0000
0000
0100
0000
0000
,  // measure 25
1000
0000
0000
0100
0000
0000
0101
0000
0000
1100
0000
0000
0020
0000
0000
0000
0030
0000
1000
0000
0000
0100
0000
0000
,  // measure 26
0001
0010
0200
0000
0000
0310
0010
0100
,  // measure 27
1000
0100
0001
0000
0102
0000
1003
0000
,  // measure 28
1100
0000
0010
0000
0200
0000
0000
0300
0001
0000
0010
0000
0100
0000
1000
0000
,  // measure 29
0100
0000
0000
0001
0000
0000
0020
0000
0000
0000
0000
0000
0230
0000
0000
0000
0300
0000
0000
0000
0000
1000
0000
0000
,  // measure 30
0100
0001
1001
0000
2000
0000
3000
0100
,  // measure 31
0001
0010
0100
0000
0110
0000
1000
0001
,  // measure 32
1001
0000
0020
0000
1030
0000
0100
0001
,  // measure 33
0010
0100
2000
0000
3001
0000
0010
0000
,  // measure 34
1000
0100
0002
0000
1003
0000
0010
0100
,  // measure 35
1000
0000
0200
0000
0010
0000
0010
0000
0010
0000
0310
0000
0010
0000
0100
1000
,  // measure 36
0100
0000
0100
0010
0001
0000
1002
0000
0000
0000
0123
0000
0000
0000
0230
0000
,  // measure 37
0300
0220
0000
0000
0330
0000
1000
0001
,  // measure 38
1000
0002
0000
0023
0000
0230
0000
2300
,  // measure 39
3000
1200
0000
0310
0000
0000
1000
0001
,  // measure 40
0010
0110
0000
1000
0101
0000
0001
0010
,  // measure 41
0100
2000
0001
0000
3001
0000
0001
0010
,  // measure 42
0100
2000
0000
3200
0000
0302
0000
0023
,  // measure 43
0000
0230
1000
2300
0001
3002
1000
1003
,  // measure 44
0001
0000
0020
0100
1000
0000
0030
0000
2000
0000
0000
0000
3001
0000
0010
0000
,  // measure 45
0000
0000
0110
0001
1000
0000
0000
0000
0110
0000
1001
0000
0000
0000
1000
0000
,  // measure 46
0100
2000
0000
0000
0001
0000
3000
0001
,  // measure 47
0010
0002
0000
0000
0003
0010
0100
1000
,  // measure 48
0100
2020
0000
3030
1000
0001
0000
0010
,  // measure 49
0000
2001
0000
0000
0001
3000
0000
0001
,  // measure 50
1000
0002
0000
0000
1000
0000
0000
1003
,  // measure 51
2010
0010
0000
0000
3001
0100
0010
0100
,  // measure 52
1000
0000
0002
0000
1000
0000
0000
0000
1000
0000
2003
0000
0001
0000
0100
0010
,  // measure 53
3001
0020
0000
0000
0100
0030
0100
0010
,  // measure 54
0100
0000
0220
0000
0000
0330
0100
0001
0101
0000
0000
0000
1100
0000
1000
0000
,  // measure 55
0100
0002
0000
0023
0000
0130
1000
0001
,  // measure 56
0100
0020
0000
0000
1000
2030
0000
0000
,  // measure 57
0000
3200
0000
0000
0000
0300
0001
0010
,  // measure 58
0100
2000
0000
3000
0110
0000
0100
0010
,  // measure 59
0001
0000
1000
0000
0000
0000
0100
0000
0000
0000
0001
0000
0010
0000
0010
0001
,  // measure 60
0010
0011
0000
1000
0001
0010
0100
1000
,  // measure 61
0100
0010
0010
0000
0110
0000
1000
0100
,  // measure 62
0001
0010
2000
0000
3000
0001
0010
0100
,  // measure 63
1000
0100
0001
0000
0110
0000
1000
0000
,  // measure 64
1100
0001
0000
0100
1000
0100
0010
0100
,  // measure 65
1000
0100
1002
0000
1003
0100
0010
0100
,  // measure 66
0010
1000
0210
0000
0300
0001
0010
1000
,  // measure 67
0100
0000
0001
0000
0020
0000
0000
0030
2000
0000
0000
0000
3001
0000
0000
0000
,  // measure 68
0010
0200
0300
0010
0001
0010
0100
1000
,  // measure 69
0100
0010
2000
0001
3001
0000
0010
0100
,  // measure 70
0010
0100
1000
0100
0110
0000
0001
0010
,  // measure 71
0100
0000
0000
0000
1001
0000
1000
0000
0100
0000
0000
0100
0010
0000
0100
0000
,  // measure 72
0120
0000
1030
0100
0001
0010
0100
0010
,  // measure 73
0100
0000
1000
0000
0200
0000
0000
0300
1010
0000
0000
0000
0100
0000
0010
0000
,  // measure 74
0100
0001
2000
0000
3001
0000
1000
0010
,  // measure 75
0100
0000
1000
0000
0010
0000
0010
0000
0100
0000
0100
0000
0010
0000
0010
0100
,  // measure 76
1000
0000
0001
0010
0100
0000
1001
0000
0000
0000
0010
0000
0000
0000
0100
0000
,  // measure 77
0000
0220
0000
0000
0330
0000
1000
0100
,  // measure 78
0010
0200
0000
0302
0000
2003
0000
3002
,  // measure 79
0000
0023
0000
0200
0330
0000
1000
0100
,  // measure 80
0001
0020
0000
1030
0110
0000
0010
0100
,  // measure 81
0010
0200
0000
0310
0000
0000
0010
0100
,  // measure 82
0001
2000
0000
3200
0000
0302
0000
2003
,  // measure 83
0000
0000
3001
0000
1000
0000
1000
0000
0010
0000
0010
0000
1000
0000
1000
0100
,  // measure 84
0010
0000
0002
0010
0100
0000
0003
0000
1000
0000
0000
0000
0100
0000
0010
0000
,  // measure 85
0000
0000
0002
0010
0100
0000
0000
0000
2000
0000
3003
0000
0000
0000
1000
0000
,  // measure 86
0100
0020
0000
0000
0000
0000
0030
1000
,  // measure 87
0100
0012
0000
0000
0003
1000
0100
0010
,  // measure 88
0100
0110
0000
0000
1000
0001
0000
0010
,  // measure 89
0000
0202
0000
0000
0000
0303
0000
0010
,  // measure 90
0100
2000
0000
0000
0000
0000
3000
0010
,  // measure 91
0100
0002
0000
0000
0003
0000
0010
1000
,  // measure 92
0100
1000
0000
0002
0000
1003
0000
0001
,  // measure 93
0010
0100
0000
1001
0000
0101
0000
1010
,  // measure 94
0000
0110
0000
1000
0100
0001
0000
0010
,  // measure 95
0000
2000
0000
0000
0000
3000
0001
0010
,  // measure 96
0100
1000
0000
0001
0000
0010
0000
1000
,  // measure 97
0100
1000
0000
0100
0000
0110
0000
0100
,  // measure 98
0001
0010
0000
1000
0000
0100
0000
0001
,  // measure 99
0000
0010
0000
0110
0000
1000
0000
0001
,  // measure 100
0000
0000
0220
0000
0000
0000
0000
0000
0000
0330
0220
0000
0000
0000
0000
0000
,  // measure 101
0000
0330
0220
0000
0000
0000
0000
0330
0000
0000
0000
0000
0100
0000
1000
0000
,  // measure 102
0001
0020
0000
0000
0000
2030
0000
0000
,  // measure 103
3000
0200
0000
0000
0300
0000
0010
0100
,  // measure 104
0010
0002
0000
0000
0003
0000
1000
0010
,  // measure 105
1000
0100
0000
1100
0000
1000
0100
0010
,  // measure 106
0100
2000
0000
0000
0000
3002
0000
0000
,  // measure 107
0003
0020
0000
0000
0030
0000
0100
0010
,  // measure 108
0100
2000
0000
0000
3000
0100
0010
0100
,  // measure 109
0001
1000
0000
0110
0000
0101
0000
1000
,  // measure 110
0100
0010
0020
0000
0000
2030
0000
0000
,  // measure 111
0000
3200
0000
0000
0300
0000
0010
0100
,  // measure 112
0001
2000
0000
0000
3000
0000
0001
0010
,  // measure 113
0100
1000
0000
0110
0000
0001
1000
0001
,  // measure 114
0010
0100
2000
0000
0000
3002
0000
0000
,  // measure 115
0003
0020
0000
0000
0030
0000
1000
0100
,  // measure 116
1000
0002
0000
0000
0003
0000
0010
0100
,  // measure 117
0010
0101
0000
0110
0000
0101
0000
1100
,  // measure 118
0000
2002
0000
0000
0000
0000
0000
0000
,  // measure 119
0000
0000
0000
0000
0000
0000
0000
3003
;
