#VERSION:0.81;
#TITLE:Bad Boy;
#SUBTITLE:;
#ARTIST:BIGBANG;
#TITLETRANSLIT:;
#SUBTITLETRANSLIT:;
#ARTISTTRANSLIT:;
#GENRE:;
#ORIGIN:;
#CREDIT:;
#BANNER:Bad Boy.png;
#BACKGROUND:Bad Boy-bg.png;
#PREVIEWVID:;
#JACKET:;
#CDIMAGE:;
#DISCIMAGE:;
#LYRICSPATH:;
#CDTITLE:;
#MUSIC:BAD BOY.mp3;
#OFFSET:0.000000;
#SAMPLESTART:100.000000;
#SAMPLELENGTH:12.000000;
#SELECTABLE:YES;
#BPMS:0.000=150.000;
#STOPS:;
#DELAYS:;
#WARPS:;
#TIMESIGNATURES:0.000=4=4;
#TICKCOUNTS:0.000=4;
#COMBOS:0.000=1;
#SPEEDS:0.000=1.000=0.000=0;
#SCROLLS:0.000=1.000,
224.500=-2.000;
#FAKES:;
#LABELS:0.000=Song Start;
#BGCHANGES:;
#KEYSOUNDS:;
#ATTACKS:
;

//---------------dance-single - Blank----------------
#NOTEDATA:;
#CHARTNAME:;
#STEPSTYPE:dance-single;
#DESCRIPTION:Blank;
#CHARTSTYLE:;
#DIFFICULTY:Hard;
#METER:5;
#RADARVALUES:0.557668,0.608763,0.485322,0.206789,0.006330,761.000000,115.000000,49.000000,0.000000,0.000000,0.000000,0.000000,0.000000,0.557668,0.608763,0.485322,0.206789,0.006330,761.000000,115.000000,49.000000,0.000000,0.000000,0.000000,0.000000,0.000000;
#CREDIT:;
#OFFSET:0.000000;
#BPMS:0.000000=150.000000
;
#STOPS:;
#DELAYS:;
#WARPS:;
#TIMESIGNATURES:0.000000=4=4
;
#TICKCOUNTS:0.000000=4
;
#COMBOS:0.000000=1
;
#SPEEDS:0.000000=1.000000=0.000000=0
;
#SCROLLS:0.000000=1.000000
,224.500000=-2.000000
,224.750000=1.000000
;
#FAKES:;
#LABELS:0.000000=Song Start
;
#NOTES:
0000
0000
0000
0000
,
0000
0002
0000
0000
0000
0000
0000
0003
,
0000
2000
0000
0000
0000
3000
0000
0000
,
0010
0000
0100
0010
0000
0200
0000
0000
,
0300
0002
0000
0000
0000
0000
0000
0000
,
0003
0000
0000
0000
,
0000
0200
0000
0000
0000
0000
0000
0300
,
1000
0100
2000
0000
0000
0000
0000
0000
0000
0000
0000
0000
3000
0000
0000
0000
,
0000
0110
0000
1000
0100
0000
0000
0001
,
0100
0000
0000
0010
0000
0100
0000
0110
,
0000
1000
0000
0100
0001
0000
0000
1000
,
0100
0010
0000
0010
0000
0110
0000
0010
,
0000
1000
0000
0001
0010
0100
0000
0001
,
0100
0001
0000
0100
0000
0010
0000
0110
,
0000
1000
0000
0100
1000
0100
0000
0010
,
0100
0010
0001
0000
0000
0000
0110
0000
0000
0000
1000
0000
0000
0000
0001
0000
,
0100
0010
0100
1000
0100
1000
0010
0100
,
0001
0202
0000
0303
0000
0001
1000
0001
,
0000
1000
0100
1000
0010
0100
1000
0010
,
1000
0100
0000
0010
0000
0010
0000
0100
,
0000
0010
0100
0010
0100
1000
0100
1000
,
0001
2000
0000
3000
0001
1000
0001
0100
,
0000
0100
0010
0100
1000
0100
1000
0100
,
0000
1100
0000
0000
0000
0001
0000
0010
,
0000
1000
0100
1000
0100
0100
0010
0100
,
1000
0100
0001
0100
0010
0100
0000
0101
,
0000
1000
0100
0010
1000
0010
1000
0100
,
0010
0001
0010
0100
1000
0001
0000
1001
,
0000
0100
0010
0100
1000
0010
0100
1000
,
0100
1100
0000
0000
0000
1000
0000
0100
,
0000
0001
0010
0100
1000
0010
1000
0100
,
0010
0002
0000
1003
0000
0010
0100
0010
,
0110
0000
2000
0000
3000
0100
0001
0100
,
0010
0000
0110
0000
0000
1000
0100
0010
,
0001
0000
0110
0000
0000
1000
0100
1000
,
0100
0000
1100
0000
1000
0100
0000
1100
,
0000
0100
0010
0100
1000
0100
0000
0010
,
0000
0110
0000
0000
1000
0100
0000
0001
,
0000
0101
0000
0000
1000
0010
0000
0100
,
0000
0110
0000
1000
0000
0101
0000
0110
,
0000
0010
0100
0010
0100
0001
0100
0001
,
1000
0010
1000
0001
0000
0101
0000
0011
,
0000
1000
0100
1000
0010
1000
0010
0100
,
0001
0100
0001
0100
0001
0101
0000
0110
,
0000
1000
0010
1000
0100
1100
0000
0110
,
1000
0010
1000
0100
0010
0001
0000
0011
,
0000
1000
0100
1000
0100
1000
0010
0100
,
1000
0110
0000
0110
0000
2000
0000
3100
,
0000
0001
0100
0000
0010
0100
1000
0100
,
0010
0000
0110
0000
1000
0100
0010
0001
,
0100
0000
0101
0000
1000
0010
1000
0100
,
0010
0000
0110
0000
1000
0001
0100
2000
,
0001
0010
0001
0010
,
0001
0000
0002
3003
1000
0100
0000
0010
,
0200
0000
1000
0000
0010
0000
1000
0300
,
0010
0000
0020
0000
0030
0100
0010
0001
,
0000
0202
0000
0303
0000
0100
0010
0100
,
0010
0100
0010
0101
0000
0000
0000
0000
,
0100
0010
0000
1000
0100
0000
0010
0000
,
0220
0000
0000
0030
0300
2000
0000
0000
,
3000
0001
0000
0110
0000
1010
0100
0010
,
0000
0100
2000
3001
0000
0001
0000
0110
,
0100
1000
0000
0101
0100
0010
0100
0100
,
0000
1010
0000
0100
0000
0101
0000
1000
,
0000
0110
1000
0100
0010
0001
1000
0100
,
0010
0100
0001
0100
0001
0100
0000
0110
,
0000
1000
1001
0010
1001
0010
0000
1000
,
0001
0010
0011
1000
0010
0100
0001
1000
,
0000
0110
0000
1010
0000
0011
0000
0010
,
0000
0100
0010
0100
0010
0100
0000
0110
,
0000
1000
0010
0100
0010
0100
0001
0010
,
0000
1100
0000
1010
0000
0100
0000
0101
,
0000
0110
2000
0000
3000
0110
0000
0011
,
0000
1000
0220
0000
0330
0010
0100
1000
,
0010
0000
0220
0000
0330
1000
0001
0010
,
0100
0000
0022
0030
1003
0100
0010
0100
,
0000
0010
0100
0001
0100
1000
0000
0011
,
0000
2000
0000
0000
3000
0100
0000
0010
,
0000
0120
0000
0000
0130
0001
0000
0010
,
0000
0100
0000
2000
3000
0002
0000
0000
,
0003
0010
0100
1000
0010
0100
1000
0010
,
0100
0001
0010
0100
0010
0100
0000
0110
,
0000
1000
0100
0010
0100
1000
0010
0100
,
1000
0100
0010
0001
0100
0110
0000
0101
,
0000
0100
0010
0001
0100
0020
0030
1000
,
0001
0100
0010
0100
0001
0200
0300
0001
,
0000
0010
1000
0100
0010
0100
0001
0100
,
1000
2200
0000
0000
3300
1000
0100
0001
,
0100
0000
0110
0000
1000
0100
0010
0001
,
0100
0000
0011
0000
0100
0010
0100
1000
,
0100
0000
1010
0000
0100
0010
0100
0001
,
0010
0000
0101
0000
1000
0010
0100
2000
,
0010
0100
0001
0010
,
0100
3000
0101
0000
1000
0010
0000
0100
,
0002
0010
0100
1000
,
0010
0000
0100
0000
0000
1003
0100
0010
,
0000
0010
0000
0100
1000
0000
0100
0000
,
0020
0000
0000
0000
0030
2000
3000
0001
,
0100
0010
0000
1000
0100
0000
0010
0100
,
1000
0001
0000
0010
0100
1000
0000
0110
,
0000
1000
0000
0001
0010
0000
0100
0000
,
2000
0000
0000
0000
0000
3000
0000
0010
,
0100
1000
0000
0001
0100
0000
0001
0010
,
0100
1000
0000
1001
0000
0110
0000
1010
,
0000
0010
0000
0000
0110
0000
0010
0000
,
0200
0000
0000
0000
0000
0300
0000
0000
,
0010
0100
0000
1000
0010
0000
0010
0000
,
1010
0000
0010
0000
1000
0001
2000
0000
,
0000
3000
0000
0010
0000
0100
0000
0110
,
0000
0000
0000
1000
0000
0001
0000
0200
,
0000
0300
0000
0000
0000
0000
0110
0000
0000
0000
0000
0000
0000
0000
0110
0000
,
0000
0000
0000
0110
0000
1000
0000
0101
,
0000
1000
0010
0100
1000
0100
1000
0110
,
0010
0101
0010
0101
0010
0110
0000
0101
,
0000
1000
0010
1000
1010
1000
1010
1000
,
0110
0010
0000
0001
0010
0100
0000
0011
,
0000
1000
0001
1000
0001
1000
0000
0001
,
0010
0001
0010
0100
0010
0100
0000
0011
,
0000
0110
1000
0010
1000
0100
0010
0001
,
1000
0010
0000
0000
0000
0001
0010
0001
,
0010
0000
0011
0000
0001
1000
0001
1000
,
0001
0000
0101
0000
1000
0010
1000
0010
,
1000
0000
1010
0000
1000
0010
1000
0100
,
0010
0000
0011
0000
1000
0100
0010
0001
,
2000
0010
0001
0010
,
3001
0000
0010
0000
0010
0110
0000
2000
,
0100
0010
0001
0001
,
0010
0000
3001
0000
0010
0100
0010
0001
,
0000
0110
1000
0001
0010
0100
0010
1000
,
0100
0010
1000
0010
0100
0001
0000
0110
,
0000
1000
0010
0100
1000
0001
0000
0011
,
0000
1000
0010
1000
0010
1000
0000
1010
,
0000
1000
0001
0010
0100
1010
1000
0100
,
0010
0001
1000
0110
0000
1010
0100
0110
,
0000
1001
0100
0010
0001
0100
0001
0101
,
0000
1000
0010
1000
0010
1000
0000
1010
,
0000
1000
0001
1000
0010
1000
0001
0010
,
0100
1000
0010
0100
0010
0100
0000
0110
,
0000
1000
0100
0010
0100
0001
0000
0101
,
0000
1000
0100
1000
0010
1000
0000
0110
,
0000
0010
1000
0010
1000
0001
1000
0010
,
1000
0001
0100
0010
0100
0010
0000
0110
,
0000
0010
0100
0010
0100
0010
0000
0100
,
0001
0010
0100
0000
0001
0000
0100
0000
0001
0000
0101
0000
0110
0000
2002
0000
,
0000
3003
0000
0000
;

//---------------dance-single - Blank----------------
#NOTEDATA:;
#CHARTNAME:;
#STEPSTYPE:dance-single;
#DESCRIPTION:Blank;
#CHARTSTYLE:;
#DIFFICULTY:Challenge;
#METER:8;
#RADARVALUES:0.819320,0.885001,1.000000,0.603488,0.008440,816.000000,352.000000,143.000000,0.000000,118.000000,0.000000,0.000000,0.000000,0.819320,0.885001,1.000000,0.603488,0.008440,816.000000,352.000000,143.000000,0.000000,118.000000,0.000000,0.000000,0.000000;
#CREDIT:;
#OFFSET:0.000000;
#BPMS:0.000000=150.000000
;
#STOPS:;
#DELAYS:;
#WARPS:;
#TIMESIGNATURES:0.000000=4=4
;
#TICKCOUNTS:0.000000=4
;
#COMBOS:0.000000=1
;
#SPEEDS:0.000000=1.000000=0.000000=0
;
#SCROLLS:0.000000=1.000000
;
#FAKES:;
#LABELS:0.000000=Song Start
;
#NOTES:
// measure 0
0000
2200
0000
0000
0000
0000
0000
0000
,  // measure 1
0000
0002
0000
0000
0000
0000
0000
3000
,  // measure 2
0000
2000
0000
0000
0000
3303
0000
0000
,  // measure 3
0001
0000
1000
0011
0000
0220
0000
0000
,  // measure 4
0300
0002
0000
0000
0000
0000
0000
0000
,  // measure 5
0000
0000
0000
0000
0000
0000
0000
0033
,  // measure 6
0000
0220
1000
0001
0000
1000
0000
0330
,  // measure 7
0010
0100
2000
0000
0100
0000
0010
0000
0001
0000
0022
0000
3033
0000
0000
0000
,  // measure 8
0000
0110
0000
1000
1100
0001
0000
0001
,  // measure 9
0101
1100
0000
0110
0000
0101
0000
0111
,  // measure 10
0000
0001
0000
0100
0202
0000
0303
1000
,  // measure 11
0100
0110
0000
0101
0000
0110
0000
1110
,  // measure 12
0000
1100
0000
0111
1000
0100
0000
0001
,  // measure 13
0100
0011
0010
0101
0001
0110
0100
2020
,  // measure 14
0000
3130
0000
0100
1000
0100
0000
0010
,  // measure 15
0100
0010
0002
0000
0000
0000
0113
0000
0000
0000
1000
0000
0000
0000
0001
0000
,  // measure 16
1100
0010
1100
1000
1100
1000
0110
0100
,  // measure 17
0011
0101
0000
1111
0000
1000
0010
0100
,  // measure 18
0010
1000
0110
1000
0110
0100
1100
0010
,  // measure 19
1100
0200
0000
0311
0001
0010
0100
0100
,  // measure 20
0000
0010
0100
0010
0100
1000
0010
0110
,  // measure 21
0011
0222
0000
0333
0000
0101
0011
0010
,  // measure 22
0000
0100
0011
0100
1100
0100
0110
1100
,  // measure 23
0110
2220
0000
3330
0000
0001
1000
0010
,  // measure 24
0100
1000
0110
1000
0101
0100
0011
0100
,  // measure 25
1100
0100
0011
0100
1010
2200
0000
3311
,  // measure 26
0000
1000
1100
0010
1100
0010
1100
0100
,  // measure 27
0011
0001
0011
0100
1100
0022
0000
1133
,  // measure 28
0010
0100
0010
0100
1000
0010
0100
1000
,  // measure 29
0100
2202
0000
3303
0000
1000
0001
0100
,  // measure 30
0010
0001
0011
0100
1100
0010
1100
0100
,  // measure 31
0011
1000
0012
0000
0000
0000
1103
0000
0000
0000
0010
0000
0110
0000
0010
0000
,  // measure 32
0120
0000
2000
0000
3030
0100
0001
0100
,  // measure 33
0120
0000
0230
0000
0300
1000
0100
0010
,  // measure 34
0001
0000
0222
0000
0333
1000
0100
1000
,  // measure 35
0100
0000
1110
0000
1000
0220
0000
1331
,  // measure 36
0000
0100
0010
0100
1000
0100
0000
0010
,  // measure 37
0000
1110
0000
0000
1000
0100
0000
0101
,  // measure 38
0000
0111
0000
0000
1000
0010
0000
0110
,  // measure 39
0000
1110
0000
1000
0000
0101
0000
0110
,  // measure 40
0000
0110
1000
0110
1000
0101
0010
0101
,  // measure 41
1000
0110
1000
0101
0011
0110
0000
0111
,  // measure 42
0000
1000
0100
1000
0110
1000
0110
1000
,  // measure 43
0101
0010
0101
1000
0110
0110
0000
0111
,  // measure 44
0000
1000
0110
1000
0100
0101
0000
0111
,  // measure 45
1000
0010
1100
0110
0011
1001
0000
0111
,  // measure 46
0000
1000
0100
1000
0110
0001
0010
0100
,  // measure 47
1000
0110
0000
0110
0000
2000
0001
3100
,  // measure 48
0010
0001
0110
0000
0010
0100
1000
0100
,  // measure 49
0010
0000
1110
0000
1000
0100
0010
0001
,  // measure 50
0100
0000
0111
0000
1000
0010
1000
0100
,  // measure 51
0010
0000
1110
0000
1000
0001
0100
2000
,  // measure 52
0011
0110
0011
0110
,  // measure 53
0011
0000
0222
3333
0010
0100
0000
0010
,  // measure 54
0220
1000
0001
1000
,  // measure 55
0332
0000
0020
0000
0033
2000
0100
0010
,  // measure 56
3001
0110
0000
0000
0011
0100
0011
0100
,  // measure 57
0011
0100
0000
0222
0000
0000
0333
0000
,  // measure 58
0100
0010
0000
1000
0100
0000
0010
0220
,  // measure 59
0000
0000
0000
0030
0310
2020
0000
0100
,  // measure 60
3130
0001
0001
0110
0010
1010
0100
0010
,  // measure 61
1000
0100
2200
0000
3300
0001
0000
0110
,  // measure 62
0100
1000
0110
0101
0100
0010
0100
0100
,  // measure 63
0010
1010
0000
0100
0010
0101
2002
0000
,  // measure 64
3003
0110
1000
0100
0010
0001
1000
0100
,  // measure 65
0010
0100
0011
0100
0011
0100
0011
1110
,  // measure 66
0000
1000
0101
0010
0101
1000
0011
1110
,  // measure 67
0001
0010
0011
1000
0110
0010
0202
0303
,  // measure 68
0000
0110
0010
1110
0010
0111
0000
0011
,  // measure 69
0000
0110
1000
0110
0010
0101
0000
0111
,  // measure 70
0000
1000
0010
0100
0010
0100
0001
0110
,  // measure 71
0000
1100
0110
1010
0001
0100
0010
0101
,  // measure 72
1000
0110
2000
0000
3000
0110
0100
0011
,  // measure 73
0100
1000
0220
0000
0330
0010
0100
1000
,  // measure 74
2010
0000
0220
0000
3330
0100
0001
0011
,  // measure 75
0100
0000
0022
0130
1003
0100
0010
0200
,  // measure 76
0010
0310
0100
0001
0100
2000
0000
3011
,  // measure 77
0000
2200
0000
0011
3300
0110
0000
0011
,  // measure 78
0000
0220
0000
0000
1330
0001
0000
0110
,  // measure 79
0000
0101
0000
2000
3000
0002
0000
0000
,  // measure 80
0003
0110
0100
1100
0010
0110
1000
0011
,  // measure 81
0100
0011
0010
1100
0010
0101
0000
0111
,  // measure 82
0000
1100
0100
0011
0100
1100
0010
0110
,  // measure 83
1000
0101
0010
1001
0100
1110
0000
1111
,  // measure 84
0000
1100
0010
0011
0100
0220
0000
1330
,  // measure 85
0001
0101
0010
1100
0001
0202
0000
1303
,  // measure 86
0000
0110
1000
0101
0010
0110
0001
0110
,  // measure 87
1000
2220
0000
0000
3330
0001
0100
0001
,  // measure 88
0200
0000
0311
0000
1000
0100
0010
0001
,  // measure 89
0200
0000
0311
0000
0100
0010
0100
1000
,  // measure 90
0200
0000
0311
0000
0100
0010
0100
0001
,  // measure 91
0021
0000
0131
0000
1000
0010
0100
2020
,  // measure 92
0001
0100
0001
0100
,  // measure 93
0001
0000
3131
0000
1000
0010
0000
0100
,  // measure 94
2002
0010
0100
0010
,  // measure 95
0100
0000
0010
0000
0000
3113
1001
0110
,  // measure 96
0100
0010
0000
0100
2000
0000
3200
0000
,  // measure 97
0020
0300
0000
0000
0030
2000
3000
0001
,  // measure 98
0100
0020
0000
1000
0130
0000
0010
0100
,  // measure 99
2000
3011
0000
0010
0100
1000
0000
0110
,  // measure 100
0000
1000
0000
1100
0012
0000
0113
0000
,  // measure 101
2002
0000
0000
0110
0000
3113
0000
0010
,  // measure 102
0100
2000
0000
0001
3100
0000
0001
0010
,  // measure 103
0100
2000
0000
3001
0000
0110
0000
1110
,  // measure 104
0000
1001
0000
0000
0110
0000
0010
0000
,  // measure 105
0200
0000
0000
0020
0000
0330
0000
0000
,  // measure 106
0010
1100
0000
1000
0011
0000
1100
0000
,  // measure 107
0110
0000
0201
0301
1002
0000
2200
0000
,  // measure 108
0000
3303
0000
0010
0000
0100
0000
1110
,  // measure 109
0000
0000
0000
1000
0000
0001
0000
0101
,  // measure 110
0000
0000
0000
0220
0000
0330
0000
2220
,  // measure 111
0000
3330
0000
2222
3333
1000
0000
0101
,  // measure 112
0000
1100
0010
0110
1000
0101
1000
0110
,  // measure 113
0010
0101
1000
0101
1000
0110
0000
0111
,  // measure 114
0000
1000
0010
1000
0110
1000
0110
1000
,  // measure 115
0101
0010
0000
0111
0110
1000
0000
0111
,  // measure 116
0000
1000
0110
1000
0110
2000
0000
3110
,  // measure 117
0110
1000
0011
0100
0011
0200
0000
0311
,  // measure 118
0000
0110
1000
0110
1000
0101
0010
0101
,  // measure 119
1000
0110
1000
0110
1000
0101
0010
0101
,  // measure 120
0020
0000
1030
0000
0110
1000
0001
1000
,  // measure 121
0002
0000
0113
0000
1000
0110
1000
0110
,  // measure 122
0102
0000
0113
0000
1000
0010
1000
0100
,  // measure 123
0020
0000
0131
0000
1000
0100
0010
0001
,  // measure 124
0202
0010
1000
0010
,  // measure 125
1000
0000
0313
0000
0010
0110
0000
2000
,  // measure 126
0110
0011
0011
0101
,  // measure 127
0010
0001
0010
0000
3101
0000
0000
0000
0010
0000
0100
0000
0010
0000
0011
0000
,  // measure 128
0000
0110
1000
0011
0010
1100
0010
1100
,  // measure 129
0100
0011
1000
0011
0100
0101
0000
0111
,  // measure 130
0000
1000
0010
0100
1000
2002
0000
3113
,  // measure 131
0000
1000
0010
0101
0011
2200
0000
3311
,  // measure 132
0000
1100
0001
0110
0100
1010
1000
0110
,  // measure 133
0010
0101
1000
0110
0000
2200
0000
3311
,  // measure 134
0000
1001
0100
0010
1001
0200
0000
1301
,  // measure 135
0000
1100
0001
1100
0010
2200
0000
3310
,  // measure 136
0000
1000
0101
1001
0010
1100
0001
0110
,  // measure 137
0100
1100
0010
0101
0010
0101
0000
0111
,  // measure 138
0000
1010
0100
1010
0100
0001
0000
0111
,  // measure 139
0000
1100
0110
0011
0110
1100
0000
0111
,  // measure 140
0000
0110
1100
0110
0011
0101
1100
0110
,  // measure 141
1010
0101
0110
0011
1100
1010
0000
1110
,  // measure 142
0001
0010
0100
0010
1100
0010
0000
1110
,  // measure 143
0001
0110
0001
0010
1110
0110
1010
2220
,  // measure 144
0002
0000
0000
0000
0000
3333
0000
0000
;

//---------------dance-single - ----------------
#NOTEDATA:;
#CHARTNAME:;
#STEPSTYPE:dance-single;
#DESCRIPTION:;
#CHARTSTYLE:;
#DIFFICULTY:Medium;
#METER:3;
#RADARVALUES:0.295413,0.304909,0.118165,0.181468,0.000000,419.000000,28.000000,43.000000,0.000000,0.000000,0.000000,0.000000,0.000000,0.295413,0.304909,0.118165,0.181468,0.000000,419.000000,28.000000,43.000000,0.000000,0.000000,0.000000,0.000000,0.000000;
#CREDIT:;
#OFFSET:0.000000;
#BPMS:0.000000=150.000000
;
#STOPS:;
#DELAYS:;
#WARPS:;
#TIMESIGNATURES:0.000000=4=4
;
#TICKCOUNTS:0.000000=4
;
#COMBOS:0.000000=1
;
#SPEEDS:0.000000=1.000000=0.000000=0
;
#SCROLLS:0.000000=1.000000
;
#FAKES:;
#LABELS:0.000000=Song Start
;
#NOTES:
0000
0000
0000
0000
,
0000
0000
0000
0000
,
0000
0010
0000
0000
0000
0000
0000
0000
,
0000
0100
0000
0010
0000
0100
0000
0000
,
0000
0110
0000
0000
0000
0000
0000
0000
,
0000
0000
0000
0000
,
0000
1001
0000
0000
0000
0000
0000
0000
,
0000
0000
0000
0000
,
0000
1000
0000
0001
0000
1000
0000
0000
,
0000
0001
0000
1000
0000
0001
0000
0000
,
0000
0010
0000
0100
0000
0010
0000
0000
,
0000
0100
0000
0010
0000
0100
0000
0020
,
0000
0200
0330
0000
0000
0100
0000
0010
,
0000
0100
0000
0010
0000
0100
0000
2000
,
0000
0000
0000
3000
,
0000
0001
0000
1000
0000
0001
0000
0000
,
0000
0010
0000
1000
0000
0010
0000
1000
,
0000
1010
0000
0000
0000
0100
0000
0010
,
0000
0100
0000
0010
0000
0100
0000
0010
,
0000
0110
0000
0000
0000
1000
0000
0001
,
0000
0001
0000
1000
0000
1000
0000
0001
,
0000
0020
0000
0030
0000
1000
0000
0010
,
0000
1000
0000
1000
0000
0010
0000
0010
,
0000
0200
0000
0300
0000
0010
0000
0100
,
0000
0001
0000
1000
0000
0001
0000
1000
,
0000
0010
0000
1000
0000
0010
0000
0100
,
0000
0100
0000
0010
0000
0100
0000
0010
,
0000
1000
0000
0010
0000
0100
0000
0001
,
0000
0010
0000
1000
0000
0100
0000
1000
,
0000
0200
0000
0300
0000
0010
0000
0100
,
0000
0010
0000
0100
0000
0010
0000
0100
,
0000
0010
0000
0100
0000
0001
0000
0000
,
0100
0020
0030
0000
,
0200
0301
0000
0000
,
0002
1003
0000
0000
,
2000
0000
0000
3000
0000
0010
0000
0000
,
0000
0100
0000
0010
0000
0100
0000
1000
,
0000
1010
0000
0000
0000
0100
0000
0010
,
0000
0110
0000
0000
0000
1000
0000
0001
,
0000
1000
0000
0001
0000
2000
0000
3000
,
0000
0001
0000
0001
0000
0100
0000
0100
,
0000
0010
0000
0010
0000
1000
0000
0010
,
0000
1000
0000
1000
0000
0100
0000
0100
,
0000
0001
0000
0001
0000
1000
0000
0001
,
0000
0010
0000
0010
0000
0100
0000
0100
,
0000
1000
0000
1000
0000
0010
0000
0010
,
0000
1000
0000
0010
0000
0100
0000
0001
,
0000
0200
0000
0000
0300
0010
0000
0000
,
0100
0000
0010
0000
0000
1000
0000
0010
,
1000
0000
0020
0000
0030
1000
0000
0100
,
1000
0000
0100
0000
0000
0010
0000
0100
,
0020
0000
0000
0030
0100
0010
0000
0200
,
0000
0010
0010
0010
,
0010
0000
0010
0300
0000
0000
0000
0001
,
1000
0002
0000
0000
,
0000
0000
1003
0000
0000
1000
0000
0010
,
0000
2000
0000
3000
0000
0100
0000
0010
,
0000
0100
0000
0110
0000
0000
0000
0000
,
0000
1000
0000
0000
0010
0000
0000
1020
,
0000
0000
0030
0200
0000
0000
0300
0010
,
0000
0100
0000
0010
0000
0100
0000
0010
,
0000
0200
0000
0000
0300
0001
0000
0100
,
0000
0001
0000
0100
0000
0001
0000
0100
,
0000
0001
0000
1000
0000
0002
0000
0003
,
0000
1000
0000
0001
0000
1000
0000
0001
,
0000
0010
0000
1000
0000
0010
0000
1000
,
0000
0010
0000
0010
0000
1000
0000
1000
,
0000
0100
0000
1000
0000
0100
0000
0000
,
0000
1000
0000
0010
0000
1000
0000
1010
,
0000
1000
0000
0010
0000
1000
0000
0100
,
0000
0001
0000
0100
0000
1000
0000
0100
,
0000
0001
0000
0100
0000
1000
0000
0000
,
0020
0000
0130
0000
0000
1000
0000
0000
,
0020
0130
0000
0000
,
0002
1003
0000
0000
,
0020
0000
1030
0000
0000
0100
0000
0000
,
0000
0010
0000
1000
0000
0010
0000
1000
,
0000
1010
0000
0000
0000
1000
0000
0100
,
0000
1100
0000
0000
0000
0001
0000
0100
,
0000
0001
0000
1000
0000
0002
0000
0000
,
0003
1000
0000
1000
0000
0010
0000
0010
,
0000
1000
0000
1000
0000
0100
0000
1100
,
0000
0100
0000
0100
0000
0001
0000
0001
,
0000
0100
0000
0100
0000
1000
0000
1001
,
0000
1000
0000
1000
0000
0010
0000
0010
,
0000
1000
0000
1000
0000
0100
0000
0100
,
0000
0001
0000
1000
0000
0001
0000
1000
,
0000
0020
0000
0000
0030
0000
0000
0000
,
2000
3010
0000
0000
,
0200
0310
0000
0000
,
0002
1003
0000
0000
,
0200
0000
0310
0000
0000
0000
0000
0200
,
0000
0000
0000
0000
,
0000
0000
0310
0000
0000
0000
0000
0002
,
0000
0000
0000
0000
,
0000
0000
1003
0000
0000
0100
0000
0010
,
0000
2000
0000
0000
0000
0000
3000
0000
,
0000
0001
0000
0000
0000
1000
0000
0000
,
0000
0010
0000
0000
0000
0100
0000
0000
,
0000
0010
0000
0000
0000
0110
0000
0000
,
0000
0000
0000
0000
0000
1001
0000
0000
,
0000
0000
0000
0000
0000
1100
0000
0000
,
0000
0000
0000
0000
0000
0101
0000
0000
,
0000
0000
0000
0000
0000
0011
0000
0000
,
0000
0000
0000
0000
0000
1010
0000
0000
,
0000
0000
0000
0000
0000
0110
0000
0000
,
0000
0000
0000
0000
0000
1001
0000
0000
,
0000
0000
0000
0000
0000
1010
0000
0000
,
0000
0000
0000
0000
0000
0110
0000
0000
,
0000
0000
0000
0000
0000
0101
0000
0000
,
0000
0000
0000
0010
0000
0000
0000
0100
,
0000
0000
0000
0100
0000
0010
0000
0110
,
0000
0100
0000
0010
0000
0100
0000
0010
,
0000
0100
0000
0100
0000
0010
0000
0110
,
0000
1000
0000
1000
0000
0001
0000
0001
,
0000
1000
0000
1000
0000
0001
0000
1000
,
0000
0010
0000
0010
0000
1000
0000
1000
,
0000
0100
0000
0100
0000
0001
0000
0001
,
0000
0001
0000
1000
0000
0001
0000
1000
,
0000
0020
0000
0000
0030
1000
0000
0000
,
0020
0130
0000
0000
,
0002
1003
0000
0000
,
0200
0310
0000
0000
,
2000
3100
0000
0000
,
0002
1000
1000
1000
,
1000
1003
0000
0000
,
0020
0000
0000
0000
,
0000
0130
0000
0000
,
0000
1000
0000
0001
0000
1000
0000
1000
,
0000
0010
0000
0010
0000
1000
0000
0010
,
0000
0100
0000
0100
0000
0010
0000
0010
,
0000
0100
0000
0100
0000
0001
0000
0001
,
0000
0001
0000
0100
0000
1000
0000
0100
,
0000
0001
0000
0100
0000
1000
0000
1000
,
0000
0010
0000
0001
0000
0010
0000
0010
,
0000
0001
0000
0010
0000
0001
0000
0001
,
0000
0100
0000
1000
0000
0010
0000
1000
,
0000
0010
0000
1000
0000
0100
0000
1100
,
0000
1000
0000
0010
0000
1000
0000
1010
,
0000
0010
0000
1000
0000
0100
0000
0100
,
0000
1000
0000
0100
0000
1000
0000
0010
,
0000
1000
0000
0100
0000
1000
0000
1000
,
0000
0010
0000
1000
0000
0100
0000
0100
,
0000
1000
0000
0010
0000
0010
1000
0020
,
2000
0000
3030
0000
;
