#VERSION:0.81;
#TITLE:Baby Maniacs;
#SUBTITLE:VF5;
#ARTIST:Hatsune Miku;
#TITLETRANSLIT:;
#SUBTITLETRANSLIT:;
#ARTISTTRANSLIT:;
#GENRE:;
#ORIGIN:;
#CREDIT:;
#BANNER:Baby Maniacs.png;
#BACKGROUND:Baby Maniacs-bg.png;
#PREVIEWVID:;
#JACKET:;
#CDIMAGE:cdtitle.png;
#DISCIMAGE:;
#LYRICSPATH:;
#CDTITLE:;
#MUSIC:Baby Maniacs.mp3;
#OFFSET:0.000;
#SAMPLESTART:0.020;
#SAMPLELENGTH:12.000;
#SELECTABLE:YES;
#BPMS:0.000=132.000;
#STOPS:;
#DELAYS:;
#WARPS:;
#TIMESIGNATURES:0.000=4=4;
#TICKCOUNTS:0.000=4;
#COMBOS:0.000=1;
#SPEEDS:0.000=1.000=0.000=0;
#SCROLLS:0.000=1.000;
#FAKES:;
#LABELS:0.000=Song Start;
#BGCHANGES:0.000=Baby Maniacs-bg.png=1.000=0=0=1=====,
99999=-nosongbg-=1.000=0=0=0 // don't automatically add -songbackground-
;
#KEYSOUNDS:;
#ATTACKS:
;

//---------------dance-single - Blank----------------
#NOTEDATA:;
#CHARTNAME:;
#STEPSTYPE:dance-single;
#DESCRIPTION:Blank;
#CHARTSTYLE:;
#DIFFICULTY:Hard;
#METER:5;
#RADARVALUES:0.873,0.819,0.605,0.549,0.936,532.000,65.000,59.000,0.000,0.000,2.000,0.000,0.000,0.873,0.819,0.605,0.549,0.936,532.000,65.000,59.000,0.000,0.000,2.000,0.000,0.000;
#CREDIT:Blue Army;
#OFFSET:0.000;
#BPMS:0.000=132.000
;
#STOPS:;
#DELAYS:;
#WARPS:;
#TIMESIGNATURES:0.000=4=4
;
#TICKCOUNTS:0.000=4
;
#COMBOS:0.000=1
;
#SPEEDS:0.000=1.000=0.000=0
,33.750=0.200=0.000=0
,34.000=1.000=0.000=0
,64.000=2.000=0.000=0
,64.500=1.000=0.000=0
,66.500=0.500=0.000=0
,66.750=1.000=0.000=0
,98.750=1.500=0.000=0
,99.000=1.000=0.000=0
,128.000=0.100=0.000=0
,128.250=1.000=0.000=0
;
#SCROLLS:0.000=1.000
,7.000=1.500
,7.500=1.000
,15.000=1.500
,15.500=1.000
,32.500=0.500
,33.000=1.000
,33.500=0.000
,34.000=1.000
,39.000=1.500
,39.500=1.000
,47.000=1.500
,47.750=1.000
,55.000=0.000
,55.250=1.000
,57.000=0.000
,57.250=1.000
,59.000=0.000
,59.250=1.000
,65.000=0.000
,65.250=1.000
,66.000=0.500
,66.500=0.000
,66.750=1.000
,77.000=0.500
,77.750=1.000
,83.000=0.000
,83.125=1.000
,83.250=0.000
,83.375=1.000
,83.500=0.000
,83.625=1.000
,83.750=0.000
,83.875=1.000
,96.000=0.500
,97.750=1.000
,106.500=1.500
,107.250=1.000
,112.500=0.500
,113.250=1.000
,113.500=1.500
,113.750=0.000
,113.875=1.000
,114.000=1.500
,114.250=0.000
,114.375=1.000
,114.500=1.400
,115.000=1.000
,120.000=0.500
,122.750=1.000
,129.000=0.000
,129.500=1.000
,130.000=0.500
,132.000=1.000
,169.500=0.000
,169.750=1.000
,198.750=1.500
,199.500=1.000
,206.750=1.500
,207.500=1.000
,214.750=1.500
,215.500=1.000
,222.750=1.500
,223.500=1.000
;
#FAKES:;
#LABELS:0.000=Song Start
;
#NOTES:
0000
0000
0000
0000
,
1000
0001
0000
0001
1000
0000
0100
0010
0000
0010
0100
0000
0220
0000
0330
0000
,
0100
0010
0000
0100
0010
0000
0001
1000
0000
0001
1000
0000
1000
0100
0010
0100
,
0001
1000
0000
0001
1000
0000
0100
0010
0000
0100
0010
0000
2002
0000
3003
0000
,
1000
0001
0000
1000
0001
0000
0010
0100
0000
0010
0100
0000
1000
0100
1000
0100
,
1000
0000
1001
0000
0010
0000
0010
0010
0100
0000
0110
0000
0010
0000
1010
0100
,
0001
0000
0011
0000
0001
0000
0101
1000
0100
0000
0101
0000
0010
0100
0010
0001
,
1000
0001
1000
0001
1000
0001
1000
0001
1000
0001
1000
0001
1000
0001
0010
0100
,
1000
0000
0000
0000
0000
0000
0000
0000
0000
0000
0000
0000
0100
0000
0000
0000
0000
0000
0000
0000
0000
0000
0000
0000
0000
0000
0000
0000
0000
0000
0001
0000
0000
0000
0000
0000
1000
0000
0000
0000
0000
0000
0001
0000
0000
0000
0000
0000
1000
0000
0000
0000
0000
0000
0000
0000
0000
0000
0000
0000
0000
0000
0000
0000
0000
0000
0000
0000
0000
0000
0000
0000
2002
0000
0000
0000
0000
0000
0000
0000
0000
0000
0000
0000
0000
0000
0000
0000
0000
0000
0000
0000
0000
0000
0000
0000
0000
0000
0000
0000
0000
0000
0000
0000
0000
0000
0000
0000
3003
0000
0000
0000
0000
0000
0000
0000
0000
0000
0000
0000
1000
0000
0000
0000
0000
0000
0000
0000
0010
0000
0000
0000
0000
0000
0000
0000
1000
0000
0000
0000
0000
0000
0000
0000
0010
0000
0000
0000
0000
0000
0000
0000
0000
0000
0000
0000
0000
0000
0000
0000
0000
0000
0000
0000
0000
0000
0000
0000
0110
0000
0000
0000
0000
0000
0000
0000
0000
0000
0000
0000
0010
0000
0000
0000
0000
0000
0000
0000
0000
0000
0000
0000
,
0100
0010
0000
0100
0010
0000
0100
0010
0000
0001
1000
0000
2002
0000
3003
0000
,
0100
0010
0000
0100
0010
0000
1000
0001
0000
0001
1000
0000
0001
0010
0100
1000
,
0100
0010
0000
0100
0010
0000
1000
0001
0000
0001
1000
0000
0220
0000
0000
0330
,
1000
0010
0000
0010
1000
0000
0001
0010
0000
0010
0001
0000
0010
0100
1000
0100
,
0010
0100
0000
0100
0010
0000
1000
0001
0000
0001
1000
0000
1001
0000
0001
1000
,
0000
1000
0001
0000
0110
0000
0001
1000
0000
1000
0001
0000
1010
0000
0100
0010
,
0100
0010
0010
0100
0010
0100
0010
0010
0100
0010
0100
0010
0100
0010
0100
0010
,
0200
0000
0000
0000
0000
0000
0300
0000
1001
0000
0000
0000
0110
0000
0000
0000
1000
0001
1000
0000
0000
0000
0000
0000
0110
0000
0000
0000
0100
0000
0010
0000
,
0100
0000
0001
1000
0001
0000
0000
0010
0100
0000
0010
0100
0000
1010
0000
0001
,
1000
0000
0100
0010
0000
0110
0000
1000
0001
0000
0010
0100
0000
1001
0000
1000
,
0001
0000
0110
0000
2002
0000
0000
3003
1000
0001
0000
0010
0100
0000
0110
0000
,
0001
0000
1000
0000
0001
0000
0110
1001
0000
0110
0000
0000
0100
0100
0100
0200
,
0000
0300
0100
0000
1001
0000
0000
0010
0001
0000
0110
0000
0010
0000
0000
0001
,
1000
0000
0000
0010
0100
0000
0010
0100
0000
1000
0001
0000
0100
0010
0000
0110
,
0000
0000
1000
0100
0010
0001
0010
0100
1000
0100
0010
0100
1000
0010
0100
0000
,
0100
0000
0010
0000
0100
0000
1000
0001
1000
0001
1000
2002
0000
3003
0010
0000
,
0100
0000
0010
0110
0000
0000
0010
0000
0100
0000
0001
1100
0000
0000
0100
0000
,
0010
0000
0100
0010
0000
0000
1000
0100
1000
0000
2002
0000
0000
3003
0010
0000
,
0100
0000
1000
0100
0000
0000
0100
0000
0010
0000
0100
0010
0000
0000
0010
0000
,
0100
0000
0220
0000
0000
0330
1000
0000
0001
0000
2002
0000
3003
0000
0010
0100
,
1000
0000
1000
0010
0000
0110
0000
0100
0010
0001
0100
0010
0100
0000
0010
0000
,
0001
0000
0000
1001
0000
0000
0110
0000
1000
0001
0000
2002
0000
3003
0010
0000
,
0001
0000
0110
0000
0010
0000
0100
0000
1000
0000
0000
1000
0001
0000
2000
0000
,
0002
0000
0000
0000
0000
0000
0000
0000
3003
0000
0000
0000
0000
0000
0000
0000
0020
0000
0000
0000
0000
0000
0000
0000
0130
1000
0200
0000
0000
0000
0300
0000
,
2000
0000
0000
0000
3001
0000
0010
0000
0100
1000
0100
0000
1000
0000
0100
0000
,
0010
0001
0010
0000
0100
0010
0100
0000
0010
0100
0010
0000
0002
0000
0023
0000
,
0230
0000
2300
0000
3200
0000
0310
0000
2002
0000
0000
3003
0110
0000
2001
0000
,
0000
0000
0000
0000
0000
0000
3000
0000
0010
0100
0010
0000
0100
1000
0100
0000
,
1000
0001
1000
0000
1001
0000
0020
0000
0000
0000
1030
0000
0100
0000
0010
0000
,
0100
0110
0011
1200
0000
1300
0001
0001
,
0010
0100
1000
0100
2002
3003
0010
0220
,
0000
0000
0000
0330
1010
0000
1001
0000
,
1000
0001
1000
0000
0001
0010
0200
0000
0000
0000
1300
0000
0100
0000
1000
0000
,
0100
0000
0010
0011
0110
0010
0100
1000
,
0100
0000
0001
0000
0010
0000
0100
0000
1000
0001
1000
0000
0001
0000
2000
0000
,
0001
0001
0001
0000
0001
0001
3001
0000
2002
0000
3003
0000
0110
0000
0000
0000
,
0010
0000
0000
0010
0100
0000
0220
0000
0000
0330
1000
0000
0001
0000
0010
0000
,
0100
0000
0000
0110
0000
0000
0101
0000
0000
0000
0010
0000
0100
0000
1000
0000
,
0100
0000
0010
0000
0100
0000
0001
0000
1001
0000
0000
1000
0001
0000
2000
0000
,
0000
0000
0000
0000
0000
0000
0000
0000
0000
0000
0000
0000
0000
0000
0000
0000
0000
0000
0000
0000
0000
0000
0000
0000
3000
0000
0000
0000
0000
0000
0000
0000
0000
0000
0000
0000
0000
0000
0000
0000
0000
0000
1000
0000
0000
0000
0000
0000
0001
0000
0000
0000
0000
0000
1000
0000
0000
0000
0000
0000
0000
0000
0000
0000
0000
0000
0000
0000
0000
0000
0000
0000
0001
0000
0000
0000
0000
0000
0000
0000
1000
0000
0000
0000
0000
0000
0000
0000
0001
0000
0000
0000
0000
0000
0000
0000
1000
0000
0000
0000
0000
0000
0000
0000
0001
0000
0000
0000
0000
0000
0000
0000
1000
0000
0000
0000
0000
0000
0000
0000
0001
0000
0000
0000
0000
0000
0000
0000
1000
0000
0000
0000
0000
0000
0000
0000
0001
0000
0000
0000
0000
0000
0000
0000
2000
0000
0000
0000
0000
0000
0000
0000
0000
0000
0000
0000
0000
0000
0000
0000
0000
0000
0000
0000
0000
0000
0000
0000
3000
0000
0000
0000
0000
0000
0000
0000
0000
0000
0000
0000
0010
0000
0000
0000
0000
0000
0000
0000
0000
0000
0000
0000
,
0100
0000
0010
0100
0000
1000
0001
0000
0001
1000
0000
2002
0000
0000
3003
0001
,
1000
0000
0001
1000
0000
0010
0100
0000
0010
0100
0000
0100
1000
0100
0010
0001
,
0010
0000
0100
0010
0000
1000
0100
0000
0010
0001
0000
0202
0000
0000
0303
0100
,
0010
0000
0100
0010
0000
1000
0001
0000
1000
0001
0000
0001
0010
0100
1000
0100
,
0010
0000
0100
0010
0000
0100
0010
0000
1000
0001
0000
2020
0000
0000
3030
0100
,
0010
0000
0100
0010
0000
1000
0001
0000
1000
0001
1000
0100
0010
0001
0010
0100
,
1000
0000
0010
0100
0000
0010
0100
0000
0001
1000
0000
0220
0000
0000
0330
0100
,
0010
0000
0100
0010
0000
0100
0010
0000
0100
0010
0000
0100
0010
0100
0010
0100
,
1000
0001
0000
4004
0000
0000
0000
0000
0000
0000
0000
0000
0000
0000
0000
0000
,
0000
0000
0000
0000
0000
3003
0000
0000
;

//---------------dance-single - Blank----------------
#NOTEDATA:;
#CHARTNAME:;
#STEPSTYPE:dance-single;
#DESCRIPTION:Blank;
#CHARTSTYLE:;
#DIFFICULTY:Challenge;
#METER:7;
#RADARVALUES:1.000,1.000,1.000,0.484,1.000,645.000,199.000,52.000,59.000,0.000,2.000,0.000,0.000,1.000,1.000,1.000,0.484,1.000,645.000,199.000,52.000,59.000,0.000,2.000,0.000,0.000;
#CREDIT:;
#OFFSET:0.000;
#BPMS:0.000=132.000
;
#STOPS:;
#DELAYS:;
#WARPS:;
#TIMESIGNATURES:0.000=4=4
;
#TICKCOUNTS:0.000=4
;
#COMBOS:0.000=1
;
#SPEEDS:0.000=0.200=0.000=0
,2.000=1.000=0.000=0
,7.000=1.500=0.000=0
,7.500=1.000=0.000=0
,15.000=1.500=0.000=0
,15.500=1.000=0.000=0
;
#SCROLLS:0.000=1.000
,7.000=1.500
,7.500=1.000
,15.000=1.500
,15.500=1.000
,32.500=0.500
,33.000=1.000
,39.000=1.500
,39.500=1.000
,47.000=1.500
,47.750=1.000
,65.000=0.500
,65.500=1.000
,66.250=2.000
,66.750=1.000
,83.000=0.000
,83.125=1.000
,83.250=0.000
,83.375=1.000
,83.500=0.000
,83.625=1.000
,96.000=0.500
,98.750=1.000
,162.000=1.700
,162.500=1.000
,163.000=1.700
,163.500=1.000
,191.500=0.500
,192.500=1.000
,198.750=1.500
,199.500=1.000
,206.750=1.500
,207.500=1.000
,214.750=1.500
,215.500=1.000
,222.750=1.500
,223.500=1.000
;
#FAKES:;
#LABELS:0.000=Song Start
;
#ATTACKS:TIME=0.000000:LEN=0.909091:MODS=Mini, 50% Tornado, Overhead:TIME=58.181816:LEN=0.227272:MODS=Mini, Reverse, Cross, Overhead:TIME=103.977272:LEN=1.818184:MODS=-35% Mini, Invert, 50% Tornado, Overhead;
#NOTES:
0000
0000
0000
0000
,
1000
0101
0000
0001
1100
0000
0100
1010
0000
0010
0101
0000
0220
0000
0330
0000
,
0100
0011
0000
0100
1010
0000
0001
1010
0000
0001
1010
0000
1000
0100
0010
0100
,
0001
1000
0000
1001
1000
0000
0100
0011
0000
1100
0010
0000
2002
0000
3003
0000
,
1000
0101
0000
1000
0101
0000
0010
1100
0000
0010
0101
0000
1000
0110
1000
0110
,
1000
0000
1001
0100
0010
0000
0010
0010
0100
1000
0110
0000
0010
0000
1010
0100
,
0001
0000
0000
0100
0000
0000
0011
0000
0000
0000
0000
0000
0001
0000
0000
0000
0000
0000
0101
0000
0000
1000
0000
0000
0100
0000
0000
0010
0000
0000
0101
0000
0000
0000
0000
0000
0010
0000
0000
0100
0000
0000
0010
0000
1000
0000
0011
0000
,
1000
0000
0011
0000
1000
0000
0011
0000
1000
0000
0011
0000
1000
0000
0011
0000
1000
0000
0011
0000
1000
0000
0011
0000
1000
0000
0011
0000
1000
0000
0011
0000
1000
0000
0011
0000
1000
0000
0000
0001
0000
0000
0010
0000
0000
0100
0000
0000
,
1000
0000
0000
0000
0000
0000
0000
0000
0000
0000
0000
0000
0100
0000
0000
0000
0000
0000
0000
0000
0000
0000
0000
0000
0000
0000
0000
0000
0000
0000
0011
0000
0000
0000
0000
0000
1100
0000
0000
0000
0000
0000
0011
0000
0000
0000
0000
0000
1100
0000
0000
0000
0000
0000
0000
0000
0000
0000
0000
0000
0000
0000
0000
0000
0000
0000
0000
0000
0000
0000
0000
0000
2MM2
0000
0000
0000
0000
0000
0000
0000
0000
0000
0000
0000
0000
0000
0000
0000
0000
0000
0000
0000
0000
0000
0000
0000
3MM3
0000
0000
0000
0000
0000
0000
0000
0000
0000
0000
0000
0000
0000
0000
0000
0000
0000
0000
0000
0000
0000
0000
0000
1100
0000
0000
0000
0000
0000
0000
0000
0011
0000
0000
0000
0000
0000
0000
0000
1100
0000
0000
0000
0000
0000
0000
0000
0011
0000
0000
0000
0000
0000
0000
0000
0000
0000
0000
0000
0000
0000
0000
0000
0000
0000
0000
0000
0000
0000
0000
0000
0110
0000
0000
0000
0000
0000
0000
0000
0000
0000
0000
0000
0010
0000
0000
0000
0000
0000
0000
0000
0000
0000
0000
0000
,
0100
0011
0000
0100
1010
0000
0100
1010
0000
0001
1001
0000
2002
0000
3003
0000
,
0100
1010
0000
0100
0011
0000
1000
1001
0000
0001
1010
0000
0001
1010
0100
1010
,
0100
1010
0000
0100
0011
0000
1000
0101
0000
0001
1001
0000
0220
0000
0000
0330
,
1000
0110
0000
0010
1001
0000
0001
0110
0000
0010
0101
0000
0010
0101
1000
0101
,
0010
0101
0000
0100
1010
0000
1000
0101
0000
0001
1010
0000
1MM1
0000
0001
1100
,
0000
1000
0101
0000
M11M
0000
0001
1010
0000
1000
0101
0000
1M1M
0000
0100
0011
,
0100
1010
0010
0101
0010
1100
0010
0011
0100
1010
0100
0011
0100
1010
0100
0011
,
M22M
0000
M00M
0000
M00M
0000
0330
0000
1001
0000
0000
0000
0110
0000
0000
0000
1100
0011
1100
0000
M00M
0000
0MM0
0000
0110
0000
0000
0000
0101
0000
1010
0000
,
0101
0000
0001
1000
0001
0110
0000
0010
0100
0000
0010
0100
0000
1010
0100
0001
,
1000
0000
0100
0010
0000
0110
0001
1000
0001
0000
0010
0100
0000
1001
0110
1000
,
0001
0000
0110
0000
1001
0100
0010
0100
1001
0010
0100
0010
0100
0000
0110
0000
,
1010
0100
1000
0110
0001
0000
0110
1001
0000
0110
0000
0000
1100
0110
0101
1100
,
0000
0110
0100
0000
1001
0000
0100
0010
0001
0000
0110
0001
0010
0100
0010
0001
,
1000
0100
0011
0010
0100
0000
0010
1100
0000
1010
0001
0000
0100
0010
1001
0220
,
0000
0330
1000
0100
0010
0001
0010
0100
1000
0100
0010
0100
1000
0010
0100
0010
,
0100
0000
0010
0000
0100
0000
1100
0011
1100
0011
1100
0202
0000
0303
0010
0000
,
0100
0000
0011
0100
0010
0000
0010
1100
0010
0000
0001
0010
0100
1000
0100
0000
,
0100
0010
0100
0010
1001
0000
1000
0100
1000
0100
1001
0000
0110
0000
0010
0100
,
0010
0100
1000
0100
0001
0010
0100
0000
0100
0010
0100
0000
0010
0100
0010
0000
,
0100
0000
0000
0000
0110
0000
0000
0000
1001
0000
0000
0000
1000
0000
0100
0000
0010
0000
0000
0000
1000
0001
1000
0000
0110
0000
0000
0000
0010
0000
0100
0000
,
1000
0000
1000
0010
0000
0110
0000
0100
0010
0001
0100
0010
0100
0000
0010
0100
,
0001
0010
0000
2002
0000
3003
0110
0000
1000
0001
0000
2002
0000
3003
0010
0100
,
0001
0010
0110
0001
0010
0100
1000
0100
1000
0001
0000
1000
0001
0000
2001
0000
,
0002
0000
0000
0000
0000
0000
0000
0000
3003
0000
0000
0000
0000
0000
0000
0000
0020
0000
0000
0000
0000
0000
0000
0000
1030
0001
2000
0000
0000
0000
3000
0000
,
0220
0000
0330
0000
0001
0010
0100
0000
0100
1000
0100
0000
1000
0010
1000
0000
,
0010
0001
0010
0000
0100
0010
0100
0000
0010
0100
0010
0000
0002
0010
0023
0100
,
0230
1000
2300
0100
3200
0010
0310
0000
1001
0100
0010
0001
0110
0000
2001
0000
,
0001
0010
0001
0010
0001
0000
3001
0000
0010
0100
0010
0000
0100
1000
0100
0000
,
1000
0001
1000
0000
1001
0100
0020
0000
1000
0100
1030
0000
0100
0010
0100
0000
,
0100
0010
0001
0000
0010
0100
1000
0000
0100
1000
0100
0000
0001
0010
0001
0100
,
0010
0001
0100
0010
1000
0010
0100
0000
2002
0000
3003
0000
0010
0000
0200
0000
,
0010
0001
0010
0001
0010
0000
0301
0000
2020
0000
3030
0000
2002
0000
3003
0000
,
1000
0001
1000
0000
0001
0010
0100
0000
0100
1000
0100
0000
0100
0010
0100
0000
,
0100
0010
0001
0000
0010
0000
0011
0000
0110
0000
0010
0000
0100
0010
0100
0000
,
0100
0010
0001
0000
0010
0100
0100
0000
1000
0001
1000
0000
1001
0100
2000
0000
,
0001
0001
0001
0000
0001
0001
3001
0000
1001
0110
1001
0000
1001
0000
0110
0000
,
0010
0000
0000
0010
0100
0000
0220
0000
0000
0330
1000
0000
0001
1000
0001
0000
,
0100
0010
0001
0110
0000
0000
0101
0000
0010
0100
0010
0000
0100
0010
0100
0000
,
0100
0010
0001
0000
0100
0010
0001
0000
1001
0000
0000
1000
0001
0000
2000
0000
,
0000
0000
0000
0000
0000
0000
0000
0000
0000
0000
0000
0000
0000
0000
0000
0000
0000
0000
0000
0000
0000
0000
0000
0000
3000
0000
0000
0000
0000
0000
0000
0000
0000
0000
0000
0000
0000
0000
0000
0000
0000
0000
1000
0000
0000
0000
0000
0000
0001
0000
0000
0000
0000
0000
1000
0000
0000
0000
0000
0000
0000
0000
0000
0000
0000
0000
0000
0000
0000
0000
0000
0000
0001
0000
0000
0000
0000
0000
0000
0000
1000
0000
0000
0000
0000
0000
0000
0000
0001
0000
0000
0000
0000
0000
0000
0000
1000
0000
0000
0000
0000
0000
0000
0000
0001
0000
0000
0000
0000
0000
0000
0000
1000
0000
0000
0000
0000
0000
0000
0000
0001
0000
0000
0000
0000
0000
0000
0000
1000
0000
0000
0000
0000
0000
0000
0000
0001
0000
0000
0000
0000
0000
0000
0000
1000
0000
0000
0000
0000
0000
0000
0000
0000
0000
0000
0000
0000
0000
0000
0000
0000
0000
0000
0000
0000
0000
0000
0000
0000
0000
0000
0000
0000
0000
0000
0000
0000
0000
0000
0000
0010
0000
0000
0000
0000
0000
0000
0000
0000
0000
0000
0000
,
1100
0000
0010
0101
0000
1000
1001
0000
0001
1010
0000
2M02
00M0
0M00
30M3
0001
,
1100
0000
0001
1010
0000
0010
1100
0000
0010
0101
0000
0100
1000
0100
0010
0001
,
0010
0000
0100
0011
0000
1000
0110
0000
0010
1001
0000
20M2
0M00
00M0
3M03
0100
,
0011
0000
0100
1010
0000
1000
0101
0000
1000
0101
0000
0001
0010
0100
1000
0100
,
0010
0000
0100
0011
0000
0100
1010
0000
1000
0001
0000
2M02
00M0
0M00
30M3
0100
,
0011
0000
0100
1010
0000
1000
0001
0000
1000
0001
1000
0100
0010
0001
0010
0100
,
1000
0000
0010
1100
0000
0010
0101
0000
0001
1100
0000
2M02
00M0
0M00
3003
0100
,
0011
0000
0100
1010
0000
0100
0011
0000
0100
1010
0000
1100
0011
1100
0011
1100
,
0001
0010
0001
4M04
00M0
0M00
00M0
0M00
00M0
0M00
00M0
0M00
00M0
0M00
00M0
0M00
,
00M0
0M00
00M0
0M00
00M0
0M00
00M0
0M00
00M0
0M00
30M3
0000
0000
0000
0000
0000
;

//---------------dance-single - ----------------
#NOTEDATA:;
#CHARTNAME:;
#STEPSTYPE:dance-single;
#DESCRIPTION:;
#CHARTSTYLE:;
#DIFFICULTY:Medium;
#METER:3;
#RADARVALUES:0.307,0.327,0.121,0.158,0.149,201.000,13.000,17.000,0.000,0.000,0.000,0.000,0.000,0.307,0.327,0.121,0.158,0.149,201.000,13.000,17.000,0.000,0.000,0.000,0.000,0.000;
#CREDIT:;
#NOTES:
// measure 0
0000
0000
0000
0000
,  // measure 1
0000
0000
0000
2000
,  // measure 2
3000
0001
0100
0001
,  // measure 3
0100
0100
0010
0010
,  // measure 4
1000
1000
0001
0001
,  // measure 5
1000
0000
1001
0000
0000
1000
0001
0000
,  // measure 6
0000
1000
0001
0000
1000
0000
0001
0000
,  // measure 7
0100
0010
0100
0010
,  // measure 8
0200
0000
0000
0300
0000
0000
0000
0000
,  // measure 9
1000
0100
1000
1100
,  // measure 10
0001
0100
0001
0101
,  // measure 11
0010
0100
0010
0110
,  // measure 12
1000
0100
1000
1100
,  // measure 13
0010
0100
0010
0110
,  // measure 14
0001
0100
0001
0101
,  // measure 15
1000
0001
1000
0001
,  // measure 16
2000
0000
3000
0000
,  // measure 17
0000
0010
0000
1000
,  // measure 18
0000
0100
0000
0110
,  // measure 19
0000
0001
0000
0100
,  // measure 20
0001
0100
0010
0200
,  // measure 21
0000
0300
0101
0000
0000
0000
0000
0000
,  // measure 22
0100
0010
0010
0100
,  // measure 23
0010
0100
0010
0100
0010
0100
0010
1000
,  // measure 24
0010
1000
0010
0000
2000
0000
0000
3000
,  // measure 25
0010
0110
1000
1100
,  // measure 26
0001
0000
0100
0000
0010
0100
0000
0000
,  // measure 27
1000
0000
0100
0000
0001
1000
0001
0000
,  // measure 28
1000
0000
0000
0000
0001
0100
0010
0000
,  // measure 29
0010
0100
0010
1000
,  // measure 30
0100
0010
0100
0110
,  // measure 31
1000
0000
0100
0000
0001
0000
1000
0200
,  // measure 32
0000
0000
0000
0300
0010
0000
0100
0000
,  // measure 33
0020
0130
0010
0100
,  // measure 34
0010
1000
0100
1000
,  // measure 35
0100
0000
0010
0000
1000
0000
0100
0020
,  // measure 36
0000
0000
0000
0030
0100
0000
0001
0000
,  // measure 37
0010
0000
0100
0020
0000
0000
0130
0000
,  // measure 38
0100
0000
0001
2000
0000
3000
0001
0000
,  // measure 39
0010
0000
0100
0000
1000
0000
0001
2000
,  // measure 40
0000
0000
0000
3000
0010
0000
0010
0000
,  // measure 41
0100
0000
0010
0200
0000
0000
0300
0000
,  // measure 42
0010
0000
1001
0010
,  // measure 43
0001
0010
0100
0001
,  // measure 44
2000
0000
0000
3000
0001
0000
1000
0000
,  // measure 45
0001
0000
1000
0001
0000
0000
0010
0000
,  // measure 46
0100
0000
0010
0200
0000
0300
0010
0000
,  // measure 47
0100
0000
0010
0000
0100
0000
0010
0200
,  // measure 48
0000
0000
0000
0000
0000
0000
0000
0300
,  // measure 49
0000
0000
0000
0000
0000
1000
0000
0000
0000
0000
0000
0001
0000
0000
0000
0000
0000
0010
0000
0000
0000
0000
0000
0100
,  // measure 50
0000
0000
0000
0000
0000
0010
0000
0000
0000
0000
0000
0100
0000
0000
0000
0000
0000
1000
0000
0000
0000
0000
0000
0001
,  // measure 51
0000
0000
0000
0000
0000
1000
0000
0000
0000
0000
0000
0001
0000
0000
0000
0000
0000
2000
0000
0000
0000
0000
0000
3000
,  // measure 52
0000
0000
0001
0000
0000
0010
0000
0000
0000
0000
0000
0001
0000
0000
0000
0000
0000
0010
0000
0000
0000
0000
0000
0100
,  // measure 53
0000
0000
0000
0000
0000
0010
0000
0000
0000
0000
0000
0100
0000
0000
0000
0000
0000
1000
0000
0000
0000
0000
0000
0010
,  // measure 54
0000
0000
0000
0000
0000
1000
0000
0000
0000
0000
0000
0010
0000
0000
0000
0000
0000
0001
0000
0000
0000
0000
0000
0001
,  // measure 55
0000
0000
0000
0000
0000
0010
0000
0000
0000
0000
0000
1000
0000
0000
0000
0000
0000
0010
0000
0000
0000
0000
0000
0001
,  // measure 56
0000
0000
0000
0000
0000
0100
0000
0000
0000
0000
0000
1000
0000
0000
0000
0000
0000
0100
0000
0000
0000
0000
0000
0002
,  // measure 57
0000
0000
0000
0000
,  // measure 58
0000
0000
0000
0000
0000
0000
0000
0000
0000
0000
0000
0003
0000
0000
0000
0000
0000
0000
0000
0000
0000
0000
0000
0000
;
