#TITLE:YYZ;
#SUBTITLE:-Blood4Fame Mix-;
#ARTIST:Rush;
#TITLETRANSLIT:;
#SUBTITLETRANSLIT:;
#ARTISTTRANSLIT:;
#GENRE:Rock;
#CREDIT:Blood4Fame;
#MUSIC:music.mp3;
#BANNER:banner.png;
#BACKGROUND:bg.png;
#CDTITLE:;
#SAMPLESTART:0.000;
#SAMPLELENGTH:0.000;
#SELECTABLE:YES;
#OFFSET:-5.743;
#BPMS:0.000=104.000
,5.000=103.000
,20.000=101.000
,25.000=104.000
,30.000=103.000
,45.000=116.000
,46.000=90.000
,47.000=111.000
,48.000=88.000
,50.000=85.000
,52.000=71.000
,54.000=51.000
,55.000=46.000
,56.000=116.000
,58.000=62.000
,60.000=142.000
,68.000=137.000
,72.000=140.000
,88.000=142.000
,96.000=140.000
,116.000=142.000
,124.000=140.000
,140.000=141.000
,148.000=143.000
,152.000=141.000
,156.000=140.000
,164.000=142.000
,168.000=140.000
,172.000=141.000
,192.000=145.000
,196.000=143.000
,200.000=140.000
,204.000=141.000
,212.000=140.000
,232.000=142.000
,244.000=140.000
,264.000=141.000
,268.000=138.000
,272.000=142.000
,280.000=141.000
,288.000=140.000
,296.000=142.000
,304.000=140.000
,316.000=142.000
,328.000=139.000
,336.000=140.000
,344.000=144.000
,348.000=141.000
,360.000=142.000
,364.000=141.000
,380.000=139.000
,392.000=142.000
,404.000=141.000
,408.000=132.000
,416.000=189.000
,421.000=104.000
,426.000=88.000
;
#STOPS:;
#BGCHANGES:;
#FGCHANGES:;

//--------------- dance-single - Blood4Fame ----------------
#NOTES:
     dance-single:
     Blood4Fame:
     Easy:
     3:
     0,0,0,0,0:
0010
0010
0010
0010
,
0010
1000
1000
1000
,
1000
1000
0001
0001
,
0001
0001
0001
0100
,
0100
0100
0100
0100
,
0010
1000
0010
1000
,
0010
0100
0001
0100
,
0001
0100
0010
0100
,
0010
0100
0010
1000
,
0100
1000
0100
1000
,
0100
0001
0100
0001
,
0100
1000
0000
1000
,
0000
0000
0000
1001
0000
0000
0000
0000
,
0100
0000
0010
1000
,
0010
0000
0010
0000
0100
0000
0000
0100
,
0010
0000
1000
0000
,
0001
0100
0001
0001
,
1000
0000
0100
0000
,
0010
0001
0010
0010
,
0100
0000
0010
0000
,
1000
0100
1000
1000
,
0001
0000
0100
0000
,
0010
0100
0001
0010
,
0100
0000
1000
0000
,
0000
1000
0100
0010
,
1000
0000
0001
0000
,
0000
0001
0100
0010
,
1000
0000
0010
0000
,
0000
1000
0100
0010
,
0001
0000
0001
0000
,
0000
0010
0100
1000
,
0100
0000
0000
0100
0000
0000
0000
0000
,
0010
0000
0000
0010
0000
0000
0000
0000
,
0100
0000
0000
0100
0000
0000
0000
0000
,
1001
0000
0000
0000
,
0010
0000
0000
0010
0000
0000
0000
0000
,
0100
0000
0000
0100
0000
0000
0000
0000
,
0001
0000
0000
0001
0000
0000
0000
0000
,
1010
0000
0000
0000
,
0100
0000
0010
0001
,
0100
0000
0010
0001
,
0100
0000
0010
1000
,
0100
0000
0000
0000
,
0100
0100
0010
0010
,
0100
0100
0010
0010
,
0100
0100
0010
0010
,
1001
0000
0000
0000
,
0000
0000
0000
0000
,
1100
0000
1100
0000
,
0011
0000
0011
0000
,
1100
0000
1100
0000
,
1001
0000
0000
0000
,
0000
0000
0000
0000
,
0001
0000
1000
0000
,
0001
0000
1000
0000
,
0010
0000
1000
0000
,
1000
0100
1000
0000
,
0001
0000
0010
0000
,
0001
0000
0100
0000
,
0001
0000
0010
0000
,
0100
0010
0100
0000
,
1000
0000
0100
0000
,
1000
0000
0001
0000
,
1000
0000
0010
0000
,
1000
0100
1000
0000
,
0001
0000
0100
0000
,
0010
0000
0100
0000
,
0001
0000
0100
0010
,
1000
0000
0000
0000
,
0000
0000
0000
0000
,
0001
0000
0000
0000
0000
0000
0000
0100
,
0000
0000
0000
0000
,
0010
0000
0000
0000
0000
0000
0000
1000
,
0000
0000
0000
0000
,
0100
0000
0000
0000
0000
0000
0000
0010
,
0000
0000
0000
0000
,
0001
0000
0000
0000
0000
0000
0000
0100
,
0000
0000
0000
0000
,
0010
0000
0000
0000
0000
0000
0000
1000
,
0000
0000
0000
0000
,
0100
0000
0000
0000
0000
0000
0000
0001
,
0000
0000
0000
0000
,
0100
0000
0000
0000
0010
0000
0000
1000
,
0000
0000
0000
0000
,
0100
0000
0000
0000
0000
0000
0000
0010
,
0000
0000
0000
0000
,
0000
0000
0000
0100
,
0010
0000
1000
0000
,
0001
0100
0001
0001
,
1000
0000
0100
0000
,
0010
0001
0010
0010
,
0100
0000
0010
0000
,
1000
0100
1000
1000
,
0001
0000
0100
0000
,
0010
0100
0001
0010
,
0100
0000
1000
0000
,
0000
1000
0100
0010
,
1000
0000
0001
0000
,
0000
0001
0100
0010
,
1000
0000
0010
0000
,
0000
1000
0100
0010
,
0001
0000
0001
0000
,
0010
0000
1100
0000
,
0000
0000
0001
0000
,
0100
0000
0100
0000
,
0000
0010
0000
0000
,
0000
0000
0000
0000
0000
0000
0000
0000
0001
0000
0000
0001
0000
0000
0000
0000
;

//--------------- dance-single - Blood4Fame ----------------
#NOTES:
     dance-single:
     Blood4Fame:
     Medium:
     7:
     0,0,0,0,0:
1001
0000
0000
0100
0000
0100
0000
1001
0000
0000
0100
0000
0100
0000
0100
0000
,
1001
0000
0000
0000
0010
0000
0000
0100
0000
0100
0000
0110
0000
0000
0010
0000
,
0010
0000
0010
0000
0110
0000
0000
0000
0001
0000
0000
0001
0000
0001
0000
0001
,
0000
0000
1000
0000
1000
0000
1000
0000
1000
0000
0000
0000
1001
0000
0000
1000
,
0000
0001
0000
1000
0000
0000
0100
0000
0100
0000
0100
0000
0100
0000
1000
0000
,
0110
0000
0000
0011
0000
0011
0000
0011
0000
0000
1100
0000
1100
0000
1100
0000
,
1100
0000
0000
0000
1001
0000
0000
1001
0000
1001
0000
1001
0000
0000
0110
0000
,
0110
0000
0110
0000
0110
0000
0000
0000
1010
0000
0000
1010
0000
1010
0000
1010
,
0000
0000
1100
0000
1100
0000
1100
0000
1100
0000
0000
0000
0011
0000
0000
0011
,
0000
0011
0000
0011
0000
0000
0101
0000
0101
0000
0101
0000
0101
0000
0000
0000
,
1001
0000
0000
1000
0000
0001
0000
1000
0000
0000
0001
0000
1000
0000
0001
0000
,
1000
0100
0100
0000
0100
0100
0100
0000
,
0100
0100
0100
0100
0000
0000
0000
0000
,
2000
0000
0000
0000
0000
0000
0000
0000
0000
0000
0000
0000
3000
0000
0000
0000
0202
0000
0000
0000
0303
0000
0000
0000
0001
0000
0000
0100
0000
0000
0000
0000
,
0001
0000
0010
0000
0200
0000
0000
2300
,
3001
0001
2000
0000
,
3001
0001
2000
0100
,
3001
0001
2000
0000
,
3001
0001
2000
0100
,
3010
0010
0200
0000
,
0310
0010
0200
0001
,
0301
0001
0200
0000
,
0001
0000
0310
0000
1000
0001
0010
0100
,
1000
0000
0000
0100
0000
0000
0010
0000
0002
0000
0000
0000
0000
0000
0003
0000
,
0000
0001
0100
0010
2000
0000
3002
0000
,
1003
0000
0000
0100
0000
0000
0010
0000
0001
0000
0001
0000
2000
0000
0000
0000
,
3000
0001
0100
0010
2000
0000
3002
0000
,
0103
0000
0000
0001
0000
0000
1000
0000
0100
0000
0000
0000
0010
0000
0000
0000
,
0000
0001
1000
0010
0100
0000
0010
0000
,
0100
0000
0000
0001
0000
0000
1000
0000
0100
0000
0000
0000
0010
0000
0000
0000
,
0000
0001
1000
0010
0100
0000
0010
0000
,
1010
0000
0000
1001
0000
1000
0000
0010
,
1000
0000
0000
1001
0000
1000
0000
0001
,
0100
0000
0000
0110
0000
0100
0000
0001
,
0100
0000
0000
0000
,
0011
0000
0000
1001
0000
0001
0000
0010
,
0001
0000
0000
1001
0000
0001
0000
1000
,
0100
0000
0000
0110
0000
0100
0000
1000
,
0100
0000
0000
0000
,
0100
0100
0000
0000
1000
0100
0010
0000
,
0100
0100
0000
0000
1000
0100
0010
0000
,
0001
0001
0000
0000
0100
0010
1000
0000
,
0010
0000
0000
0000
,
1000
0100
0010
0000
1000
0100
0010
0000
,
1000
0100
0010
0000
0001
0100
0010
0000
,
0001
0100
0010
0000
0001
0100
0010
0000
,
0110
0000
0000
0000
,
0000
0000
0000
0000
0000
0000
0000
0000
0000
1000
0000
0000
0001
0000
0000
0000
,
1001
0000
0000
1001
0000
0000
0000
0000
,
1001
0000
0000
1001
0000
0000
0000
0000
,
0110
0000
0000
0110
0000
0000
0000
0000
,
0110
0000
0000
0000
0000
0000
0000
0000
0000
0000
0000
0000
0000
0011
0000
0000
,
0000
0000
0000
0000
0000
0000
0000
0000
0000
0000
0000
0000
0000
1100
0000
0000
,
0001
0100
0010
0100
,
1000
1000
0100
0010
,
0001
0001
0010
0100
,
0002
0000
0000
0003
0000
1000
0000
0000
,
0001
0000
0000
0010
0000
0000
0100
0000
,
1000
0000
0000
0010
0000
0000
1000
0000
,
0100
0000
0000
0100
0000
0000
0010
0000
,
0001
0010
0100
0000
,
0001
0000
0000
0100
0000
0000
1000
0000
,
0100
0000
0100
1000
,
0001
0000
0000
0100
0000
0000
0100
0000
,
0001
0010
1000
0000
,
0100
0000
0100
0000
0010
0000
0001
0010
,
0000
0100
1000
0001
0000
0000
0001
0000
,
0100
0000
0000
0010
0000
0000
0001
0000
,
0002
0000
0023
0000
,
0230
0000
0000
0000
0000
0000
0000
0000
2300
0000
0000
0000
0000
0000
0000
3000
,
0220
0000
0000
0000
0000
0330
0000
0200
,
0000
0000
0000
0300
,
0002
0000
0000
0000
0000
0003
0000
0020
,
0000
0000
0000
0000
0000
0000
0000
0000
0000
0000
0000
0030
0000
0000
0000
0000
,
2200
0000
0000
0000
0000
3300
0000
0020
,
0000
0000
0000
0030
,
0022
0000
0000
0000
0000
0000
0000
0000
0000
0000
0000
0033
0000
0000
0200
0000
,
0000
0000
0000
0300
,
2000
0000
0000
0000
0000
0000
0000
0002
,
0000
0000
0000
3000
,
0023
0000
0000
0000
0000
0000
0130
0020
,
0000
0000
0000
0000
0000
0000
0000
0030
,
2000
0000
3000
0100
2000
0000
0000
0200
,
0000
0000
0000
0000
0000
0000
0000
3300
,
0001
0000
0000
0000
0000
0000
0000
0001
0000
1000
0000
0100
0000
0020
0000
0000
,
0000
0000
0000
0000
,
0000
0000
0000
0000
0000
0030
0010
0000
,
0001
0001
2000
0000
,
3001
0001
2000
0100
,
3001
0001
2000
0000
,
3001
0001
2000
0100
,
3010
0010
0200
0000
,
0310
0010
0200
0001
,
0301
0001
0200
0000
,
0001
0000
0310
0000
1000
0001
0010
0100
,
1000
0000
0000
0100
0000
0000
0010
0000
0002
0000
0000
0000
0000
0000
0000
0000
,
0000
0103
0100
0020
2000
0030
3020
0000
,
1030
0000
0000
0100
0000
0000
0010
0000
0002
0000
0000
0000
0000
0000
0000
0000
,
0003
0100
0100
0010
2000
0000
3200
0000
,
1300
0000
0010
1000
0100
0000
0010
0000
,
0000
1000
0001
0010
0100
0000
0010
0000
,
0100
0000
0000
1000
0000
0000
1000
0000
0100
0000
0000
0000
0020
0000
0000
0000
,
0000
0000
0000
0000
,
0000
0000
0000
0000
,
0031
0000
0000
0000
0001
0000
0000
0000
0000
1000
0000
0000
0000
1000
0000
0000
,
0000
1000
0000
0000
0002
0000
0000
0000
0000
0000
0000
0000
0000
0000
0000
0000
,
0000
0000
0000
0000
0000
0000
0000
0000
0003
0000
0000
0100
0000
0000
0000
0000
;

//--------------- dance-single - Blood4Fame ----------------
#NOTES:
     dance-single:
     Blood4Fame:
     Hard:
     10:
     0,0,0,0,0:
0011
0000
0010
0001
0000
0001
0000
0001
0000
0100
0010
0000
0010
0000
0010
0000
,
1010
0000
0100
0001
0100
0000
0100
0010
0000
0010
0000
0010
0000
0100
0001
0000
,
1000
0000
0100
0000
0010
0000
0001
0010
0100
0000
0100
0010
0000
0010
0000
0010
,
0000
0001
0100
0000
0010
0000
0010
0000
0100
0000
0001
0100
0010
0000
1000
0100
,
0000
0100
0000
0100
0000
1000
0001
0000
1000
0000
0001
0000
1000
0000
1000
0100
,
0010
0000
0100
1000
0000
0100
0000
0100
0000
1000
0100
0000
0010
0000
0001
0000
,
0100
0000
0100
0001
0010
0000
0100
0010
0000
0010
0000
0010
0000
0001
0100
0001
,
0100
0001
0100
0001
0100
0010
0100
0001
1000
0000
0001
0100
0000
0100
0000
0100
,
0000
0001
0010
0000
0010
0000
0010
0000
0100
0000
1000
0100
0010
0000
0001
0100
,
0000
0010
0000
0010
0000
0100
0010
0000
0010
0000
0010
0000
0010
0000
1000
0001
,
0100
0000
0100
0010
0000
0010
0000
0010
0000
0100
0010
0000
1000
0000
0001
0000
,
0010
0000
0100
1000
0010
0000
0000
0000
0110
0000
0110
0000
0110
0000
0000
0000
,
1001
1001
1001
1001
0000
0000
0000
0000
,
1000
0000
0000
0000
0000
0000
0000
0000
0000
0000
0100
0000
0000
0000
0000
0000
0000
0010
0000
0000
0000
0000
0000
0000
0001
0000
0000
0000
0000
0000
0000
1000
0000
0000
0000
0000
0000
0001
0000
0000
0000
0000
0000
0000
0010
0000
0000
0000
0000
0000
0000
0000
0100
0000
0000
0000
0000
0000
0000
1000
0000
0000
0000
0000
0000
0000
0010
0000
0000
0000
0000
0000
0000
0100
0000
0000
0000
0000
0000
0000
0000
0001
0000
0000
0000
0000
0000
0000
2000
0000
0000
0000
0000
0000
0000
0000
0200
0000
0000
0000
0000
0000
0000
0000
0000
0000
0000
0000
0000
0000
0000
0000
0000
0000
0000
0000
0000
0000
0000
0000
0000
0000
0000
0000
0000
0000
0000
0000
0000
0000
0000
0000
0000
0000
0000
3300
0000
0000
0000
0000
0000
0000
0000
0000
0000
0000
1000
0000
0000
0000
0000
0000
0010
0000
0000
0000
0000
0000
0100
0000
0000
0000
0000
0000
1001
0000
0000
0000
0000
0000
0000
0000
0000
0000
0000
0000
0000
0000
0000
0000
0000
0000
0000
0000
0000
0000
0000
0000
0000
0000
0000
0000
,
0100
0000
0000
0000
0000
0000
0000
0000
0000
0000
0000
0000
0000
0000
0000
0000
0001
0000
0000
0000
0000
0000
0000
0000
0000
0000
0000
0000
0000
0100
0000
0000
0000
0000
0000
0000
0000
0000
0000
0000
0000
0000
0010
0000
0000
0000
0000
0000
0000
0000
0000
0000
0000
0000
0100
0000
0000
0000
0000
0000
0000
0000
0000
0000
0000
0000
0001
0000
0000
0000
0000
0000
0000
0000
0000
0000
0000
0000
0010
0000
0000
0000
0000
0000
0000
0000
0000
0000
0000
0000
0000
0000
0000
0000
0000
0000
0002
0000
0000
0000
0000
0000
0000
0000
0000
0000
0000
0000
0000
0000
0000
0000
0000
0000
0000
0000
0000
0000
0000
0000
0000
0000
0000
0000
0000
0000
0000
0000
0000
0000
0000
0000
0000
0000
0000
0000
0000
0000
0000
0000
0000
0000
0000
0000
0000
0000
0000
0000
0000
0000
0000
0000
0000
0000
0000
0000
0000
0000
0000
0000
0000
0000
0000
0000
0000
0003
0000
0000
0200
0000
0000
0000
0000
0000
0000
0000
0000
0000
0000
0000
0000
0000
0000
0000
0000
0000
0000
0000
0000
0000
0000
0000
,
0301
0000
0000
0001
0100
0000
0010
0000
1000
0000
1000
0000
0100
0000
0000
0000
,
0001
0000
0000
0001
0100
0000
0010
0000
1000
0000
1000
0000
0100
0000
0000
0000
,
1000
0000
0000
1000
0100
0000
0010
0000
0001
0000
0001
0000
0100
0000
0000
0000
,
1000
0000
0000
1000
0100
0000
0010
0000
0001
0000
0001
0000
0100
0000
0000
0000
,
0010
0000
0000
0010
1000
0000
0001
0000
0100
0000
0100
0000
0001
0000
0000
0000
,
0010
0000
0000
0010
1000
0000
0001
0000
0100
0000
0100
0000
0001
0000
0000
0000
,
0010
0000
0000
0010
0001
0000
1000
0000
0100
0000
0100
0000
1000
0000
0000
0000
,
0010
0000
0000
0010
0001
0000
1000
0000
0100
0000
0100
0000
1000
0000
0010
0000
,
2000
0000
0000
0000
3000
0000
1000
0000
0001
0100
0001
0100
0000
0001
0200
0000
,
0000
0000
0300
0000
0100
0000
0001
0000
1000
0100
1000
0100
0000
1000
0100
0000
,
0200
0000
0000
0000
1300
0000
0100
0000
0010
0001
0010
0001
0010
0002
0000
0000
,
0000
0000
1003
0000
0100
0000
0010
0000
0001
0000
0000
0100
0002
0000
0000
0000
,
2003
0000
0000
3200
0000
0000
0310
0000
0001
0100
0010
0000
0200
0000
0000
0000
,
0300
0000
1000
0000
0100
0000
0010
0000
1000
0100
0010
0000
0001
0010
0001
0000
,
0002
0000
0000
0203
0000
0000
0310
0000
1000
0100
0001
0000
0200
0000
0000
0000
,
0300
0000
1000
0000
0100
0000
0010
0000
0001
0100
0010
0000
1000
0010
1000
0000
,
0002
0000
0000
0100
0000
0000
0100
0000
0000
0000
0100
0000
0000
0000
0103
0000
,
0020
0000
0000
0100
0000
0000
0100
0000
0000
0000
0100
0000
0000
0000
0130
0000
,
0002
0000
0000
0010
0000
0000
0010
0000
0000
0000
0010
0000
0003
0000
0010
0000
,
1001
0000
0000
0000
,
2000
0000
0000
0100
0000
0000
0100
0000
0000
0000
0100
0000
0000
0000
3100
0000
,
0020
0000
0000
0100
0000
0000
0100
0000
0000
0000
0100
0000
0000
0000
0130
0000
,
2000
0000
0000
0010
0000
0000
0010
0000
0000
0000
0010
0000
0000
0000
3010
0000
,
1001
0000
0000
0000
,
1001
0000
1001
0000
0000
0000
0000
0000
1000
0100
0010
0000
0010
0000
0000
0000
,
1001
0000
1001
0000
0000
0000
0000
0000
0001
0100
0010
0000
0010
0000
0000
0000
,
0110
0000
0110
0000
0000
0000
0000
0000
0010
0100
0010
0100
0000
0100
0000
0000
,
0110
0000
0000
0000
,
1000
0100
1000
0100
1000
0000
0001
0100
0010
1000
0010
1000
0010
0000
1000
0100
,
0010
0001
0010
0001
0010
0000
0001
0100
0010
1000
0010
1000
0010
0000
0100
0010
,
1000
0001
1000
0001
1000
0000
0001
1000
0001
1000
0001
1000
0001
0000
0010
0000
,
0110
0000
0000
0000
,
0000
0000
0000
0000
,
2200
0000
3000
2300
0002
0000
0000
3003
,
2200
0000
3000
2300
0002
0000
0000
3003
,
0202
0000
0003
0302
2000
0000
0000
3003
,
0101
0000
0000
0100
0000
0000
0010
0000
1000
0000
0100
0000
0100
0020
0000
0000
,
0030
0000
0001
0000
0100
0000
0010
0000
0100
0000
1000
0000
0000
1001
0000
0000
,
1200
0000
0000
0000
0300
0000
0200
0000
0000
0000
0310
0000
0001
0010
0000
0000
,
0200
0000
0000
0000
0300
0000
0200
0000
0000
0000
0310
0000
0001
1000
0000
0000
,
0200
0000
0000
0000
0300
0000
0200
0000
0000
0000
0310
0000
0100
0010
0000
0000
,
0001
0100
0010
1000
0001
0100
0010
1000
,
0200
0000
0000
0000
0300
0000
0200
0000
0000
0000
1300
0000
0001
0010
0000
0000
,
0200
0000
0000
0000
0300
0000
0200
0000
0000
0000
1300
0000
0010
0100
0000
0000
,
0200
0000
0300
0200
0000
0301
1000
0010
,
0100
1000
0100
0010
1010
0000
0000
0000
,
0200
0000
0000
0000
0300
0000
0200
0000
0000
0000
0310
0000
1000
0010
0000
0000
,
0200
0000
0000
0000
0300
0000
0200
0000
0000
0000
0310
0000
1000
0100
0000
0000
,
0200
0000
0000
0000
0300
0000
0200
0000
0000
0000
0310
0000
0100
0010
0000
0000
,
0001
0100
0010
2020
3030
0010
1000
0001
,
0200
0000
0000
0000
0300
0000
0200
0000
0000
0000
0310
0000
1000
0100
0000
0000
,
0200
0000
0000
0000
0300
0000
0200
0000
0000
0000
0310
0000
0001
0100
0000
0000
,
0200
0000
0300
0200
0000
0301
0100
0001
,
0020
0200
0030
0300
0020
0200
0030
0300
0200
2000
0300
3000
0200
2000
0300
3000
,
0002
0020
0003
0030
0002
0200
0003
0300
0020
2000
0030
3000
0002
0200
0003
0300
,
0022
0000
0000
0033
1000
0010
0100
0202
,
0000
0303
0001
1000
0100
0000
1000
0000
,
0220
0000
0330
1000
0001
0100
0020
2000
,
0000
3030
0100
0100
1100
0000
1001
0000
,
0022
0000
0030
1003
0010
1000
0001
2002
,
0000
3003
1000
0100
1100
0000
0011
0000
,
0001
0000
0000
0000
0001
0010
0100
1000
0002
0000
0000
2003
0000
0000
3002
0000
,
0000
0003
0100
0100
0101
0000
0000
0100
,
0210
0000
0000
0310
0100
0001
0000
2010
,
0000
0000
0100
3100
1100
0000
1000
0000
,
1002
0000
0000
0013
0001
1000
0020
0200
,
0000
0030
0310
1000
0100
0000
0100
0000
,
0202
0000
0000
0000
0303
0000
0100
0000
0002
0000
0003
0001
1000
0000
2002
0000
,
0000
0000
0003
0000
3100
0000
1000
0000
0200
0000
0000
0000
0000
0300
0000
1000
,
0001
0000
0000
0000
0000
0000
0000
0001
0000
1000
0000
0100
0000
0020
0000
0000
,
0000
0000
0000
0000
,
0000
0000
0000
0230
,
0301
0000
0000
0001
0100
0000
0010
0000
1000
0000
1000
0000
0100
0000
0000
0000
,
0001
0000
0000
0001
0100
0000
0010
0000
1000
0000
1000
0000
0100
0000
0000
0000
,
1000
0000
0000
1000
0100
0000
0010
0000
0001
0000
0001
0000
0100
0000
0000
0000
,
1000
0000
0000
1000
0100
0000
0010
0000
0001
0000
0001
0000
0100
0000
0000
0000
,
0010
0000
0000
0010
1000
0000
0001
0000
0100
0000
0100
0000
0001
0000
0000
0000
,
0010
0000
0000
0010
1000
0000
0001
0000
0100
0000
0100
0000
0001
0000
0000
0000
,
0010
0000
0000
0010
0001
0000
1000
0000
0100
0000
0100
0000
1000
0000
0000
0000
,
0010
0000
0000
0010
0001
0000
1000
0000
0100
0000
0100
0000
1000
0000
0010
0000
,
2000
0000
0000
0000
3000
0000
1000
0000
0001
0100
0001
0100
0000
0001
0100
0000
,
0000
0001
1000
0001
1100
0000
0110
0000
,
0001
0000
0000
0100
0000
0000
0020
0000
2000
0000
0000
0000
0000
0000
3030
0000
,
0000
0000
0001
0000
0000
1000
0000
0000
0001
0000
0000
0010
0000
0001
0000
0000
0000
1000
0000
0000
0001
0000
0000
0000
,
1000
0000
0000
0200
0000
0000
0310
0000
0001
0100
0010
0000
0200
0000
0000
0000
,
0300
0000
1000
0000
0100
0000
0010
0000
1000
0100
0010
0000
0001
0010
0001
0000
,
0002
0000
0000
0203
0000
0000
0310
0000
1000
0100
0010
0000
0200
0000
0000
0000
,
0000
0000
0000
0000
0000
0300
0000
0001
0100
0001
0000
1000
0100
1000
0000
0001
,
0010
0001
0000
1000
0010
1000
0000
1000
0100
0000
0000
0000
0000
0000
0000
0000
,
1001
0000
0000
0000
1001
0000
0000
0100
0000
0010
0000
0000
0110
0000
0000
0000
,
0110
2002
0000
0000
,
0000
0000
0000
0000
0000
0000
3003
0000
0001
0010
0100
1000
0000
0000
0000
0000
;
