#TITLE:We Wish;
#SUBTITLE:(Starlight Mix);
#ARTIST:浜崎あゆみ;
#TITLETRANSLIT:;
#SUBTITLETRANSLIT:;
#ARTISTTRANSLIT:Ayumi Hamasaki;
#GENRE:J/K-Pop;
#CREDIT:Blood4Fame;
#MUSIC:music.mp3;
#BANNER:banner.png;
#BACKGROUND:bg.png;
#CDTITLE:;
#SAMPLESTART:0.000;
#SAMPLELENGTH:0.000;
#SELECTABLE:YES;
#OFFSET:-0.499;
#BPMS:0.000=140.000
,32.000=142.000
,36.000=140.000
,196.000=138.000
,200.000=140.000
;
#STOPS:;
#BGCHANGES:;
#FGCHANGES:;

//--------------- dance-single - Blood4Fame ----------------
#NOTES:
     dance-single:
     Blood4Fame:
     Easy:
     3:
     0,0,0,0,0:
0000
0000
0000
0000
,
0000
0000
0000
0000
,
0000
0000
0000
0000
,
0000
0000
0000
0000
,
0000
0000
0000
0000
,
0000
0000
0000
0000
,
0000
0000
0000
0000
,
0000
0000
0000
0000
,
0000
0000
0000
0000
,
0010
0010
0010
0000
,
0100
0100
0100
0000
,
0010
1000
0010
0000
,
0001
0010
0001
0000
,
0010
0010
0010
0000
,
0100
0100
0100
0000
,
1000
0100
1000
0000
,
0101
0000
0000
1000
,
1000
0001
0001
1000
,
1000
0001
0001
0000
,
0100
0010
0100
0000
,
0010
0100
0010
1000
,
1000
0001
0001
1000
,
1000
0001
0001
0100
,
0010
0000
0000
0100
,
0000
0000
0000
0000
,
0001
0001
1000
0100
,
0000
0010
0010
0010
,
1000
1000
0001
0100
,
0000
0010
0000
1000
,
0001
0001
0100
0010
,
0000
0100
0010
0010
,
0001
0001
0100
0100
,
0000
0000
0011
0000
,
1000
1000
1000
0000
,
0001
0001
0001
0000
,
0010
0001
0010
0100
,
1000
0100
0010
0000
,
1000
1000
1000
0000
,
0001
0001
0001
0000
,
1000
0100
0010
0001
,
0010
0100
1000
0000
,
0001
0000
1000
0000
,
0001
0000
0100
0000
,
0010
1000
0010
0000
,
0100
0001
0010
0000
,
1000
0000
0001
0000
,
1000
0100
0010
0000
,
0001
0100
0010
0000
,
1000
0000
0001
0001
,
0100
0000
0000
0010
,
0010
1000
1000
0010
,
0010
1000
1000
0000
,
0001
1000
0001
0100
,
0010
0010
0010
1000
,
1000
0100
0100
1000
,
1000
0100
0100
0010
,
0001
0000
0010
0000
,
1000
0000
0000
0001
,
0001
0100
0100
0001
,
0001
0100
0100
0000
,
0010
0001
0100
0000
,
1000
0100
1000
0010
,
0010
1000
1000
0010
,
0010
1000
1000
0000
,
0100
0000
0010
0000
,
0100
1000
0001
0100
,
0010
0000
0010
0000
,
0000
0100
0100
0100
;

//--------------- dance-single - Blood4Fame ----------------
#NOTES:
     dance-single:
     Blood4Fame:
     Medium:
     6:
     0,0,0,0,0:
0000
0000
0000
0000
,
0002
0000
0000
0000
,
2000
0003
0020
3000
,
0200
0000
0000
0000
0030
0000
0310
1000
,
0002
2003
0002
3003
,
2000
0000
0000
0000
,
0002
3000
0200
0003
,
0020
0300
0000
2030
0000
0000
3200
0000
,
0000
0000
0000
0300
,
0011
0000
1010
0000
,
0110
0000
0101
0000
,
1000
0100
0010
0000
0001
0100
0010
1000
,
0000
0001
0010
0000
0100
1000
0100
0000
,
1010
0000
0011
0000
,
0110
0000
1100
0000
,
0001
0100
0010
0000
1000
0100
0010
0001
,
1000
0000
0000
0010
0000
0000
1000
0000
0000
0000
0000
0000
0100
0000
0000
0200
,
0000
0000
0000
0000
0310
0000
0000
0002
0000
0000
0000
0000
0013
0000
0000
0200
,
0000
0000
0000
0000
0310
0000
0000
0002
0000
0000
0003
0000
0000
0000
0100
0000
,
0001
1000
0001
0010
0100
0010
0001
1000
,
0001
0000
0000
0000
0101
0000
0000
0000
0101
0000
0000
0000
0010
0000
0000
2000
,
0000
0000
0000
0000
3100
0000
0000
0020
0000
0000
0000
0000
0130
0000
0000
2000
,
0000
0000
0000
0000
3100
0000
0000
0020
0000
0000
0030
0000
0100
0000
0010
0000
,
0002
0000
0000
0203
0000
0000
0320
0000
,
0000
0000
0000
0030
,
0010
0100
1010
1010
,
0100
0001
0010
0001
1000
0100
0010
0000
,
0010
0100
0101
0101
,
0001
1000
0001
0010
0000
0001
0002
0003
,
0010
0100
0011
0011
,
0100
1000
0010
1000
0001
0100
0010
0000
,
1000
0000
1000
0000
0100
0000
0100
0000
0010
0000
0010
0001
0000
0000
0001
0000
,
0000
0000
0000
0001
0010
0100
1000
0000
,
1001
0000
0100
0000
0001
0010
0000
0010
,
0001
0100
0010
1000
0100
0010
0000
0000
,
0100
0000
0011
0000
1000
0010
0100
0000
,
1000
0000
1001
0000
1100
0000
0000
1000
,
0010
0000
1000
0100
1000
0001
0000
0001
,
0010
0000
0001
0100
0001
1000
0000
1000
,
1000
0100
0010
0001
0100
0100
0010
1000
,
1000
0000
0001
0000
0100
0000
0001
0010
,
0002
0000
0103
0010
0200
0000
0301
0020
,
0000
0031
0200
0000
0000
0000
0000
0300
,
0000
0001
0100
0001
0002
0000
0103
0020
,
0000
2030
0000
3200
0000
0300
1000
0020
,
0000
0000
0000
0030
0010
0100
0001
0002
,
0000
0013
0002
0000
0000
0003
0000
1000
,
0200
0000
0000
2300
0000
0000
3010
0000
,
0200
0000
0000
0300
,
1001
0000
0000
0000
0000
0000
0110
0000
0000
0000
0000
0000
0100
0000
0000
2000
,
0000
0000
0000
0000
3010
0000
0000
0200
0000
0000
0000
0000
0310
0000
0000
2000
,
0000
0000
0000
0000
3010
0000
0000
0200
0000
0000
0300
0000
0000
0000
0100
0000
,
0001
1000
0001
0010
0100
0010
0001
1000
,
0002
0000
0000
0000
2003
0000
0000
0000
3001
0000
0000
0000
0010
0000
0000
0002
,
0000
0000
0000
0000
0103
0000
0000
0020
0000
0000
0000
0000
0130
0000
0000
0002
,
0000
0000
0000
0000
0103
0000
0000
0020
0000
0000
0030
0000
1000
0000
0010
0000
,
1000
0000
1000
0100
0000
0100
1000
0000
,
1000
0000
0000
0010
0000
0000
0100
0000
0000
0001
0000
0000
0010
0000
0000
0002
,
0000
0000
0000
0000
0103
0000
0000
0020
0000
0000
0000
0000
1030
0000
0000
0200
,
0000
0000
0000
0000
0310
0000
0000
0002
0000
0000
0000
0003
0100
0000
0010
0000
,
1000
1000
0001
0100
0010
0010
1000
0001
,
2000
0000
0000
0000
3002
0000
0000
0000
1003
0000
0000
0000
0100
0000
0000
2000
,
0000
0000
0000
0000
3010
0000
0000
0200
0000
0000
0000
0000
0310
0000
0000
2000
,
0000
0000
0000
0000
3100
0000
0000
0020
0000
0000
0030
0000
0010
0000
0100
0000
,
2000
0000
0000
3020
0000
0000
2030
0000
,
0000
0000
3000
0000
;

//--------------- dance-single - Blood4Fame ----------------
#NOTES:
     dance-single:
     Blood4Fame:
     Hard:
     8:
     0,0,0,0,0:
0000
0000
0000
0000
,
0202
0000
0000
0300
,
2000
0003
0020
3000
,
0200
0000
0000
0000
0030
0000
0310
1000
,
0002
2003
0002
3003
,
2020
0000
0000
0030
,
0002
3000
0200
0003
,
0020
0300
0000
1000
0000
0000
0200
0000
,
0000
0000
0000
0330
,
0011
0100
1010
0001
,
0110
1000
0101
0010
,
1000
0100
0010
0000
0001
0100
0010
1000
,
0000
0001
0010
0000
0100
1000
0100
0000
,
1010
0100
0011
1000
,
0110
0001
1100
0010
,
0001
0100
0010
0000
1000
0100
0010
0001
,
1000
0000
0000
0010
0000
0000
1000
0000
0000
0001
0000
0000
0100
0000
0001
0200
,
0000
0000
0000
0000
0310
0000
1000
0200
0000
0000
0000
0000
0310
0000
0001
0200
,
0000
0000
0000
0000
0310
0000
1000
0200
0000
0000
1300
0000
0010
0000
0100
0000
,
0001
1000
0001
0010
0100
0010
0001
1000
,
0001
0000
0000
0000
0101
0000
0000
0000
1010
0000
0000
0000
0010
0000
1000
0020
,
0000
0000
0000
0000
0130
0000
0001
0020
0000
0000
0000
0000
0130
0000
1000
0020
,
0000
0000
0000
0000
0130
0000
0001
0020
0000
0000
0031
0000
0100
0000
0010
0000
,
1000
0000
1000
0100
0000
0100
1000
0000
,
2002
0000
0000
0000
0000
0000
0000
3003
,
0011
0000
0000
0000
0101
0000
0000
0000
0010
1000
0000
0100
0000
1000
0010
0000
,
0100
0001
0010
0001
1000
0100
0010
0000
,
0011
0000
0000
0000
0101
0000
0000
0000
1000
0010
0000
0100
0000
0010
1000
0000
,
0100
1000
0100
0010
0001
0010
0001
0000
0000
0000
0011
0000
0002
0000
0003
0000
,
1010
0000
0000
0000
1100
0000
0000
0000
0010
0001
0000
0100
0000
0001
0010
0000
,
0100
1000
0010
1000
0001
0100
0010
0000
,
1000
0100
1000
0000
0100
0010
0100
0000
0010
0001
0010
0001
0000
0001
1000
0000
,
0000
0000
0000
0010
1010
0010
0110
0000
,
1001
0000
0100
0000
0001
0010
0000
0010
,
0001
0000
0100
0000
0010
0000
1000
0000
0100
0000
0010
0000
0000
0000
0100
0010
,
0100
0000
0011
0000
1000
0010
0100
0010
,
1000
0000
0000
0000
1001
0000
0000
0000
1100
0000
0000
0000
0000
0000
1000
0100
,
0010
0000
0001
0000
0010
0000
0100
0000
1000
0000
0000
0000
0000
0000
0001
0100
,
0010
1000
0010
0100
0001
0000
0000
1000
,
1000
0100
0010
0001
0100
0100
0010
1000
,
1000
0000
0001
0000
0100
0000
0001
0010
,
0001
0100
0100
0010
0100
0001
0100
0001
,
0000
0001
0010
0001
1000
0100
0010
0010
,
0000
0001
0100
0001
0001
0010
0100
1000
,
0000
0001
0000
0100
0000
0000
1020
2000
,
3030
1000
0001
1000
0010
0100
0001
0001
,
0000
0001
0010
0100
0010
0001
1000
0010
,
0200
0000
0000
0302
0000
0000
0010
0000
,
2000
0000
0000
0000
0000
0000
0000
3003
,
1001
0000
0000
0000
0000
0000
0110
0000
0000
0000
0000
0000
0100
0000
0001
0200
,
0000
0000
0000
0000
0310
0000
1000
0200
0000
0000
0000
0000
0310
0000
0001
0200
,
0000
0000
0000
0000
0310
0000
1000
0200
0000
0000
1300
0000
0010
0000
0100
0000
,
0001
1000
0001
0010
0100
0010
0001
1000
,
0001
0000
0000
0000
0101
0000
0000
0000
1010
0000
0000
0000
0010
0000
1000
0020
,
0000
0000
0000
0000
0130
0000
0001
0020
0000
0000
0000
0000
0130
0000
1000
0020
,
0000
0000
0000
0000
0130
0000
0001
0020
0000
0000
0031
0000
0100
0000
0010
0000
,
1000
0000
1000
0100
0000
0100
1000
0000
,
1010
0000
0000
0010
0000
0000
0100
0000
0000
0001
0000
0000
0010
0000
0001
0020
,
0000
0000
0000
0000
0130
0000
1000
0020
0000
0000
0000
0000
0130
0000
0001
0020
,
0000
0000
0000
0000
0130
0000
1000
0020
0000
0000
1030
0000
0100
0000
0010
0000
,
0001
1000
0001
0100
0010
0100
0001
1000
,
0001
0000
0000
0000
0011
0000
0000
0000
1100
0000
0000
0000
0100
0000
1000
0200
,
0000
0000
0000
0000
0310
0000
0001
0200
0000
0000
0000
0000
0310
0000
1000
0200
,
0000
0000
0000
0000
0310
0000
0001
0200
0000
0000
0301
0000
0010
0000
0100
0000
,
1000
0000
1000
0010
0000
0010
2000
0000
,
0001
0000
0010
0000
3100
0010
0001
0100
;
