#TITLE:Violent Bounce;
#SUBTITLE:(Razihel Remix);
#ARTIST:I SEE STARS;
#TITLETRANSLIT:;
#SUBTITLETRANSLIT:;
#ARTISTTRANSLIT:;
#GENRE:EDM;
#CREDIT:Blood4Fame;
#MUSIC:Violent Bounce (Razihel Remix).mp3;
#BANNER:Banner.png;
#BACKGROUND:BG.png;
#CDTITLE:;
#SAMPLESTART:106.454;
#SAMPLELENGTH:13.448;
#SELECTABLE:YES;
#OFFSET:-0.288;
#BPMS:0.000=87.267
,16.000=174.535
,20.000=87.267
,28.000=174.535
,36.000=349.070
,44.000=690.140
,60.000=42.634
,62.000=87.267
,94.000=173.515
,138.000=87.800
,140.000=347.931
,144.000=173.966
,150.000=86.983
,151.000=173.966
,155.000=347.931
,158.000=86.983
,158.500=256.966
,160.000=173.484
,166.000=174.000
,174.000=87.000
,175.000=174.000
,181.000=87.000
,182.000=174.000
,187.000=348.000
,188.000=87.000
,189.000=174.000
,203.000=87.000
,204.000=348.000
,210.000=87.000
,211.000=348.000
,216.000=174.000
,217.000=87.000
,218.000=348.000
,224.000=174.000
,232.000=348.000
,242.000=87.000
,243.000=348.000
,248.000=174.000
,249.000=348.000
,257.000=174.000
,329.000=87.000
;
#STOPS:157.000=0.086
,157.500=0.086
,187.000=0.086
,187.500=0.086
,204.000=0.172
,205.000=0.086
,205.500=0.086
,206.000=0.172
,207.000=0.086
,207.500=0.086
,208.000=0.086
,208.500=0.086
,209.000=0.086
,209.500=0.086
,211.000=0.172
,212.000=0.086
,212.500=0.086
,213.000=0.172
,214.000=0.086
,214.500=0.086
,215.000=0.086
,215.500=0.086
,218.000=0.172
,219.000=0.086
,219.500=0.086
,220.000=0.172
,221.000=0.086
,221.500=0.086
,222.000=0.086
,222.500=0.086
,223.000=0.086
,223.500=0.086
,236.000=0.172
,237.000=0.086
,237.500=0.086
,238.000=0.172
,239.000=0.086
,239.500=0.086
,240.000=0.086
,240.500=0.086
,241.000=0.086
,241.500=0.086
,243.000=0.172
,244.000=0.086
,244.500=0.086
,245.000=0.172
,246.000=0.086
,246.500=0.086
,247.000=0.086
,247.500=0.086
,249.000=0.086
,249.500=0.086
,250.000=0.086
,250.500=0.086
,251.000=0.172
,252.000=0.086
,252.500=0.086
,253.000=0.172
,254.000=0.086
,254.500=0.086
,255.000=0.086
,255.500=0.086
,256.000=0.086
,256.500=0.086
;
#BGCHANGES:;
#FGCHANGES:;

//--------------- dance-single - Blood4Fame ----------------
#NOTES:
     dance-single:
     Blood4Fame:
     Beginner:
     3:
     0,0,0,0,0:
0000
0000
0000
0000
,
0000
0000
0000
0000
,
1000
1000
0001
0001
,
1000
1000
0001
0001
,
0100
0000
0010
0000
,
1000
1000
0001
0001
,
1000
1000
0001
0001
,
1000
0000
1000
0000
,
0001
0000
0001
0000
,
2000
0000
0000
3000
,
0020
0000
0000
0030
,
0200
0000
0000
0000
,
0000
0000
0300
0000
,
0002
0000
0000
0000
,
0000
0000
0003
0000
,
2000
0000
3002
0000
,
0000
0003
0200
0000
,
0300
0010
2000
0000
,
0000
3000
0002
0000
,
0003
0010
0200
0000
,
0300
0100
0020
0000
,
0030
0010
2000
3000
,
0001
0010
2000
3000
,
0010
0100
0002
0000
,
0003
0000
2000
0000
,
3000
0000
0020
0000
,
0030
0000
0200
0000
,
0300
0000
0000
0000
0001
0000
0000
0001
,
0000
0000
1000
0000
0000
1000
0000
0000
,
0000
0010
0010
0000
,
0100
0000
0001
1000
,
0001
0000
1000
0000
0001
0000
0000
0001
,
0000
0000
1000
0000
0000
1000
0000
0000
,
0010
0000
0000
0010
0000
0000
0100
0000
,
0000
0100
0000
0000
0002
0003
0000
0000
,
2000
0000
0000
0000
0000
0000
0000
3000
,
0010
0000
0010
0000
,
0010
0000
0200
0310
,
0000
0010
0000
0020
,
0000
0000
0030
0000
2000
3000
0000
0000
,
0001
0000
0001
0000
,
0001
0000
0000
0000
0200
0000
0000
0300
,
0010
0000
0000
0000
2000
0000
0000
3000
,
0001
0000
0200
0301
,
0000
0001
0000
0001
,
0000
0020
0031
0000
,
0001
0000
0001
0000
,
0200
0310
0000
0010
,
0000
0010
0000
2000
,
0000
3100
0000
0002
,
0000
0000
0013
0000
0000
0000
0200
0300
,
0001
0000
0001
0000
,
0010
0000
0000
0000
0200
0300
0010
0000
,
0000
0010
0000
0010
,
0000
0000
2000
3000
0100
0000
0000
0000
,
0100
0000
0100
0000
,
0002
0000
1003
0000
,
2000
0000
3100
0000
,
0002
0000
0000
0000
,
0013
0000
0100
0000
,
0001
0000
0000
0000
0200
0300
0010
0000
,
0000
0010
0000
0001
,
0000
1000
1000
0100
,
0000
0010
0000
1000
,
0000
0200
0000
0301
,
0000
0020
0000
0130
,
0000
2000
0000
0000
,
3000
0002
0000
0000
,
0003
0020
0000
0000
,
0030
0002
0000
0003
,
0000
0200
0000
0300
,
0000
0020
0030
1000
,
0100
0002
0000
0000
,
0003
0020
0000
0000
,
0030
0200
0000
0300
,
0000
0020
0000
0030
,
0000
2000
0000
3000
,
0000
0200
0000
0300
,
0000
0002
0000
0003
,
0000
0020
0000
0030
,
0000
0100
0100
0100
,
0000
1000
1000
1000
,
0000
2002
0000
0000
,
0000
3003
0000
0000
;

//--------------- dance-single - Blood4Fame ----------------
#NOTES:
     dance-single:
     Blood4Fame:
     Easy:
     6:
     0,0,0,0,0:
0000
0000
0000
0000
,
0000
0000
0000
0000
,
1000
0000
0010
0000
0010
0000
0000
0001
,
0001
0000
0010
0000
0010
0000
0000
1000
,
0100
0010
0000
0010
,
1000
0000
0001
0000
0001
0000
0000
1000
,
0100
0000
0010
0000
0010
0000
0000
0001
,
0000
0100
0001
0100
,
0100
0010
1000
1000
,
0001
0000
0010
0000
,
0100
0000
1000
0000
,
0200
0000
0000
0000
,
0000
0000
0000
0000
,
0000
0000
0000
0000
,
0000
0000
0000
0000
,
2300
0000
3010
0000
,
0000
0000
0100
0000
,
0000
0100
0001
0000
,
0000
0010
0010
0000
,
0100
0010
1000
0000
,
0010
0000
1000
0000
,
0100
0000
0100
0000
,
0010
0000
0001
0100
,
0010
0000
0001
0000
0001
0000
0000
1000
,
0000
0000
0001
0000
0000
0100
0000
0000
,
0001
0000
0010
0000
0001
0000
0000
0010
,
0000
0000
0010
0000
0000
0100
0000
0000
,
0100
0100
1000
0100
,
0100
0010
0010
0001
,
0001
1000
1000
0010
,
0010
0100
0100
0001
,
0001
1000
1000
0100
,
0100
0010
0010
0100
,
1000
0100
0001
0010
,
0001
0000
0200
0000
0300
0000
0000
0010
,
1010
0000
0000
0000
,
0010
0010
0001
0100
,
0001
0000
0010
0000
0001
0010
0100
0000
,
0001
0001
0100
0001
,
0000
0100
0100
0000
,
0010
0010
0001
0001
,
0001
0100
0011
0011
,
0010
1000
1010
1010
,
0010
0001
1001
0001
,
1000
0001
1000
0100
,
0001
0000
0001
0100
0001
0000
0001
0000
,
0001
0010
0100
0010
,
0001
1000
0100
0000
0100
0000
0001
0000
,
0010
0010
0100
1010
,
1010
0100
1000
1100
,
1100
0000
1000
0000
0010
0000
2000
3000
,
0100
0010
0100
0100
,
0001
0010
0001
0100
,
0001
0001
0100
0010
,
1000
0100
0001
0001
,
0100
1000
0100
0000
,
1001
1001
1000
0001
,
1001
1001
0001
1000
,
0020
0000
0000
0000
,
1030
0001
0001
0001
,
0010
0010
0100
1000
,
0001
0001
0001
0001
,
0010
0100
1000
0001
,
0100
0001
1000
0001
,
0010
1100
1100
1000
,
0100
0101
0101
0001
,
0010
0020
0000
0000
,
1030
0000
0010
0000
0000
0100
0000
0000
,
0001
0000
2000
0000
3020
0030
0010
0000
,
1000
0000
0000
0000
0000
0000
0000
0000
0000
0000
0000
0000
0000
0000
0000
0000
0200
0000
0000
0000
0000
0000
0000
0000
0000
0000
0000
0000
0000
0000
0000
0000
0000
0000
0000
0000
0000
0000
0000
0000
0000
0000
0000
0000
0000
0000
0000
0000
0000
0300
0000
0000
0000
0000
0000
0000
0000
0000
0000
0000
0000
0000
0000
0000
,
1000
0020
0000
0030
,
1000
0020
0000
0031
,
1000
0020
0000
0000
,
0000
0000
2030
0000
3000
0020
0000
0000
,
0030
0000
0020
0000
0000
2030
0000
0000
,
3100
0100
1000
0010
,
0010
0200
0000
0000
,
0320
0000
0000
0030
,
1000
0000
0010
0000
1000
0020
0000
0030
,
0010
0000
0100
0020
0000
0030
0010
0000
,
0100
0002
0000
0000
0000
0000
0000
0000
,
0103
0020
0000
0000
,
0000
2030
0000
0000
,
0000
3000
0000
0000
;

//--------------- dance-single - Blood4Fame ----------------
#NOTES:
     dance-single:
     Blood4Fame:
     Medium:
     8:
     0,0,0,0,0:
0000
0000
0000
0000
,
0000
0000
0000
0000
,
2000
0000
0000
0000
0020
0000
0000
0030
0020
0000
0000
0000
3030
1000
0001
1000
,
0002
0000
0000
0000
0020
0000
0000
0030
0020
0000
0000
0000
0033
0001
1000
0001
,
0100
0000
0000
0000
0010
0000
0000
0100
0000
0000
0000
0000
0010
0000
0000
0000
,
2000
0000
0000
0000
0002
0000
0000
0003
0002
0000
0000
0000
3003
0001
1000
0001
,
0200
0000
0000
0000
0020
0000
0000
0030
0020
0000
0000
0000
0330
1000
0001
1000
,
0000
0100
0001
0100
,
0100
0010
1000
1000
,
0001
0100
0010
0000
,
1000
0010
0100
0000
,
0200
0000
0000
0000
,
0000
0010
0000
0000
,
0000
0000
0000
0000
,
0000
0000
0000
0010
0000
0000
0000
0000
0000
0000
0000
0000
0000
0000
0000
0000
,
0302
0000
0023
0000
,
0000
0000
0230
0000
,
0000
0300
0100
0000
2000
0000
0000
0000
,
0000
0000
0000
0000
3020
0000
0000
0030
,
0200
0320
0032
0000
,
0010
0000
2003
0000
,
0100
0000
3200
0000
,
0010
0000
0000
0000
0000
0000
0000
0000
0301
0000
0010
0000
0100
0000
0000
1000
,
0010
0100
0001
0010
0001
0000
0000
1000
,
0000
0000
0001
0000
0000
0100
0000
0000
,
0001
0100
0010
1000
0001
0000
0000
0010
,
0000
0000
0010
0000
0000
0100
0000
0000
,
0100
0010
0100
1000
2000
0000
3100
1000
,
0200
0000
0310
0100
0020
0000
0031
0010
,
0002
0000
1003
0001
2000
0000
3010
1000
,
0020
0000
0130
0010
0200
0000
0301
0100
,
0002
0000
1003
0001
2000
0000
3100
0010
,
0200
0000
0310
1000
0020
0000
0130
0001
,
2000
0000
3100
0010
0001
1000
0010
0100
,
0001
0010
0100
2000
0000
0000
0000
3010
,
2020
0000
0000
3030
,
0010
1000
0010
0000
0001
0010
0100
0000
,
0001
0000
0100
0000
0010
0000
0000
0000
0002
0000
0020
0003
0130
0000
0010
0000
,
0001
0000
0001
0010
0100
0000
0002
0000
,
0000
0000
0103
0000
0200
0020
0000
0330
,
0010
1000
0010
0000
0001
0010
0001
0000
,
0001
0010
0100
0000
0000
0000
0011
0000
,
0010
0100
1000
0010
0000
0000
1010
0000
,
0010
0000
0100
0000
0001
0000
0010
0000
2002
0000
0000
3003
0001
0000
0010
0000
,
0001
0000
0001
0010
1000
0000
0100
1000
,
0001
0000
0002
0203
0301
1000
0001
0000
,
0001
0100
0010
0000
0200
0000
0310
0000
,
0002
0000
2000
3003
0100
0000
1000
0000
0100
0000
0000
0000
0001
0000
0100
0000
,
0010
0000
0010
1000
0100
0000
0000
0000
,
1010
0000
0100
0001
1000
0100
0000
0000
,
1100
0000
0000
0000
1000
0000
0001
0000
0010
0000
0001
0000
2000
0000
0000
3000
,
0100
0010
0100
0100
,
0001
0000
0000
0000
0010
0000
0000
0000
0002
0000
0000
0003
0100
0000
0000
0000
,
0001
0001
0100
0010
,
2000
0000
0000
0000
3200
0000
0000
0300
0001
0000
0000
0000
0001
0000
0000
0000
,
0100
1000
0100
1000
,
0000
0000
1001
0000
1000
0100
0001
0100
,
0000
0000
1001
0000
0001
0100
1000
0100
,
0020
0000
0000
0000
,
0031
0001
0001
0001
,
0010
0000
0000
0000
0010
0000
0000
0000
0200
0000
0000
0300
1000
0000
0000
0000
,
0001
0001
0001
0001
,
0020
0000
0230
0300
2000
3000
0001
0000
,
0100
0001
1000
0001
,
0010
0000
0000
0000
1100
0000
1000
0010
,
0100
0010
0000
0000
0001
0100
0001
1000
,
0010
0100
0020
0000
0000
0000
0030
0000
,
1000
0100
0020
0130
0000
0100
0000
0020
,
0002
0000
0000
0000
0033
0000
0000
0001
0010
0000
0000
0000
0010
0000
0001
0000
,
0100
0010
0200
0000
0000
0000
0300
0000
,
1000
0100
0020
0000
0000
0000
0030
0000
,
1000
0000
0000
0001
0000
0000
0020
0000
0000
0000
0000
0000
0000
0000
0000
0000
0000
0000
0031
0000
0000
0000
0100
0000
,
0001
0000
1000
0020
0000
0000
0000
0000
0000
0100
0000
0000
,
0000
0000
2030
0000
0000
0020
0000
0000
,
0000
3030
0010
0000
0000
1000
0000
0000
,
0100
0000
1000
0000
0010
0000
0100
0000
0000
0000
0000
0000
1000
0000
0000
0001
0000
0000
0010
0000
0000
0000
0000
0000
,
0010
0001
0200
0000
0000
0000
0000
0000
,
0320
0000
0000
0030
,
1000
0001
0010
0100
1000
0020
0000
0030
,
0010
1000
0100
0020
0000
0030
0010
0001
,
0100
0020
0000
0000
0000
0000
0030
0000
,
0200
0302
0000
0000
,
0000
2003
0000
0000
,
0000
3000
0000
0000
;

//--------------- dance-single - Blood4Fame ----------------
#NOTES:
     dance-single:
     Blood4Fame:
     Hard:
     9:
     0,0,0,0,0:
0000
0000
0000
0000
,
0000
0000
0000
0000
,
0000
0001
0010
0100
0000
1000
0010
0100
0000
0010
1000
0100
0000
1000
0001
1000
,
0000
1000
0010
0100
0000
0001
0010
0100
0000
0010
0001
0100
0000
0001
1000
0001
,
0000
0001
0000
0010
0000
0100
0000
0000
0000
0010
0000
0001
0000
0100
0000
0000
,
0000
0010
1000
0010
0000
1000
0010
0100
0000
0010
1000
0100
0000
1000
0001
1000
,
0000
1000
0010
0100
0000
0001
0010
0100
0000
0010
0001
0100
0000
0001
1000
0001
,
0000
0001
0010
0100
0000
1000
0010
0100
,
0000
0010
1000
0100
0000
1000
0001
1000
,
0000
1000
0010
0100
,
0000
0001
0010
0100
,
0000
0000
0010
0000
,
0001
0000
0100
0000
,
0000
0000
0001
0000
,
1000
0000
0001
0000
,
0020
0000
0230
0000
,
0000
0000
0020
0000
,
0000
0030
0010
0300
0002
0000
0000
0000
,
0000
0000
0000
0000
0200
0000
0000
0300
,
0020
0003
0200
0030
2000
0300
0100
0000
,
0100
0010
3002
0010
,
0010
0000
0203
0000
0020
0300
0100
0000
,
0100
0000
0000
0000
1000
0000
0000
0000
2030
0000
3200
0000
0320
0000
0000
0032
,
0203
0320
2030
3100
0011
0000
0000
0101
,
0000
0000
1010
0000
0000
0110
0000
0000
,
1000
0010
0100
0001
1001
0000
0000
1100
,
0000
0000
0101
0000
0000
0011
0000
0000
,
0010
0100
0010
0001
0012
0000
0013
0001
,
0020
0000
0130
0010
0200
0000
1300
0100
,
2000
0000
3001
1000
0002
0000
0103
0001
,
0200
0000
0310
0100
0020
0000
1030
0010
,
2000
0000
3001
1000
0002
0000
0013
0100
,
0020
0000
0130
0001
0200
0000
0310
1000
,
0002
0000
0013
0100
1000
0001
0100
0010
,
1000
0100
0010
0002
0000
0000
0000
0103
,
0202
0000
0000
0303
,
0100
0001
0100
0010
1000
0100
0010
0100
,
1000
0000
0010
0000
0100
0000
1000
0000
2000
0000
0200
3000
0310
0000
0100
0000
,
1000
0010
1000
0100
0010
0100
2000
0000
,
0000
0000
3010
0010
0020
0200
0000
0330
,
0100
0001
0100
0001
1000
0100
1000
0100
,
1000
0100
0010
0001
1100
0000
1100
0000
,
0100
0010
0001
0100
0101
0000
0101
0000
,
0100
0000
0010
0000
1000
0000
0100
0000
2001
0000
0002
3003
1000
0000
0100
0000
,
1000
0010
1000
0100
0001
0100
0010
0001
,
1000
0100
2000
3020
1030
0001
1000
0100
,
1000
0010
0100
0001
0020
0000
0130
0100
,
2000
0000
0002
3003
0010
0000
0001
0000
0010
0000
0001
0000
1000
0000
0010
0000
,
0100
0010
0100
0001
0010
0001
0101
0000
,
0101
0000
0010
1000
0001
0010
0011
0000
,
0011
0000
0000
0000
0001
0000
1000
0000
0100
0000
1000
0000
0002
0000
0000
0003
,
0010
0000
0100
0001
0010
0000
0010
0100
,
1000
0000
0010
0000
0100
0000
0001
0000
2000
0000
0000
3000
0010
0000
0000
0000
,
1000
0010
1000
0000
0010
1000
0100
1000
,
0002
0000
0000
0000
0023
0000
0000
0030
1000
0000
0000
0000
1000
0000
0100
0000
,
0010
0000
0001
0100
0010
0100
0001
1000
,
1001
0000
1001
0000
0001
0010
1000
0010
,
1001
0000
1001
0000
1000
0010
0001
0010
,
0200
0000
0000
0000
,
1300
0000
1000
0001
1000
0000
1000
0010
,
0100
0000
0010
0000
0100
0000
0001
0000
0020
0000
0000
0030
0001
0000
0000
0000
,
1000
0001
1000
0000
1000
0100
1000
0010
,
0200
0000
0310
0100
0001
0001
1000
0000
,
1000
0001
1000
0000
1000
0001
1000
0010
,
0100
0001
0011
0000
0011
0000
0001
0100
,
0010
0100
1010
0000
1000
0010
1000
0001
,
0100
0010
0200
0000
0000
0000
0301
0000
,
0001
0010
0200
0310
0000
0010
0000
0200
,
2000
0000
0000
0000
3300
0000
0000
1000
0100
0000
0000
0000
0100
0000
0010
0000
,
0001
0100
0020
0000
0000
0000
1030
0000
,
0001
0010
0200
0000
0000
0000
1300
0000
,
0001
0000
0000
1000
0000
0000
0200
0000
0000
0000
0000
0000
0000
0000
0000
0000
0000
0000
1300
0000
0010
0000
0100
0000
,
0001
0010
0001
0200
0000
0000
0000
0000
0000
0010
0000
0000
,
0000
0000
0302
0000
0000
0200
0000
0000
,
0000
0303
0100
0000
0000
0001
0000
0000
,
0010
0000
0001
0000
0100
0000
0010
0000
0000
0100
0000
0000
0001
0000
0000
1000
0000
0000
0100
0000
0000
0010
0000
0000
,
0100
1000
0020
0000
0000
0000
1000
0000
,
0230
0001
0000
0301
,
0001
1000
0100
0010
0001
0200
0000
0300
,
0100
0001
0010
0200
0000
0300
0100
1000
,
0010
0200
0001
0000
0001
0000
0310
0000
,
0020
0000
1030
0000
0001
0010
0100
0000
,
1000
1000
0002
0000
0000
0000
0000
0000
,
0000
0003
0000
0000
;

//--------------- dance-single - Blood4Fame ----------------
#NOTES:
     dance-single:
     Blood4Fame:
     Challenge:
     9:
     0,0,0,0,0:
0000
0000
0000
0000
,
0000
0000
0000
0000
,
0000
1000
0100
0010
0000
0001
0100
0010
0000
0100
0001
0010
0000
0001
1000
0001
,
0000
0001
0100
0010
0000
1000
0100
0010
0000
0100
1000
0010
0000
1000
0001
1000
,
0100
0000
1000
0000
1000
0000
0100
0010
0000
0010
0100
0000
1000
0000
0100
0000
,
0000
1000
0100
0010
0000
0001
0100
0010
0000
0100
0001
0010
0000
0001
1000
0001
,
0000
0001
0100
0010
0000
1000
0100
0010
0000
0100
1000
0010
0000
1000
0001
1000
,
0000
1000
0100
0010
0000
0001
0100
0010
,
0000
0100
0001
0010
0000
0001
1000
0001
,
0000
0001
0100
0010
,
0000
1000
0100
0010
,
0000
0000
0100
0000
,
1000
0000
0010
0000
,
0000
0000
1000
0000
,
0001
0000
1000
0000
,
0200
0000
0322
0000
,
0000
0000
0000
0030
0200
0000
0000
0000
,
0000
0300
0100
0000
2000
0000
0000
0000
,
0000
0000
0000
0003
0020
0000
0000
0030
,
0200
3000
0020
0300
0002
0030
0010
0000
,
0010
0100
2003
0100
,
0100
0000
3020
0000
0200
0030
0010
0000
,
0010
0000
0000
0000
0001
0000
0000
0000
0302
0000
0023
0000
0230
0000
0000
2300
,
3020
0230
0302
0013
1100
0000
0000
1010
,
0000
0000
0101
0000
0000
0110
0000
0000
,
0001
0000
0100
0000
0010
0100
0010
0000
1001
0000
0000
0000
0000
0000
0011
0000
,
0000
0000
1010
0000
0000
1100
0000
0000
,
0100
0000
0010
0000
0001
0010
0100
0000
2100
0000
0000
0000
3100
0000
1000
0000
,
0200
0000
0310
0100
0020
0000
0031
0010
,
0002
0000
1003
0001
2000
0000
3010
1000
,
0020
0000
0130
0010
0200
0000
0301
0100
,
0002
0000
1003
0001
2000
0000
3100
0010
,
0200
0000
0310
1000
0020
0000
0130
0001
,
2000
0000
0000
0000
3100
0000
0010
0000
0001
1000
0000
1000
0010
0000
0010
0100
,
0000
0100
0010
0000
0100
0000
0002
0000
0000
0000
0000
0000
0000
0000
0013
0000
,
2020
3000
0200
0330
,
0010
0000
1000
0000
0010
0000
0100
0001
1000
0000
0010
0000
0100
0000
0010
0000
,
1000
0000
0100
0000
0010
0000
0001
0000
0002
0000
0020
0003
0130
0000
0010
0000
,
0001
0000
0100
0010
1000
0000
0010
0000
0100
0000
0001
0000
2000
0000
0000
0000
,
0000
0000
3100
0100
0200
0020
0000
0330
,
0010
0000
0001
0000
0010
0000
0001
1000
0010
0000
1000
0000
0010
0000
1000
0000
,
0100
1000
0100
0010
0011
0000
0011
0000
,
0010
0100
1000
0010
1010
0000
1010
0000
,
0010
0000
0100
0000
0001
0000
0010
0000
1002
0000
2000
3003
0001
0000
0010
0000
,
0001
0000
0100
0010
0100
0000
0010
0000
1000
0000
0100
0000
0010
0000
0100
0000
,
1000
0000
0010
0000
2000
0000
3200
0000
1300
0000
0001
0000
1000
0000
0010
0100
,
0001
0100
0010
1000
0200
0000
0310
0010
,
0002
0000
2000
3003
0100
0000
1000
0000
0100
0000
1000
0100
1000
0000
0100
0000
,
0010
0001
0010
0001
0100
0010
1010
0000
,
1010
0000
0100
0001
1000
0100
1100
0000
,
1100
0000
0000
0000
1000
0000
0001
0000
0010
0000
0001
0000
2000
0000
0000
3010
,
0100
0000
0010
1000
0100
0000
0100
0010
,
0001
0000
0100
0000
0010
0000
1000
0000
0002
0000
0000
1003
0100
0000
0000
0000
,
1000
0000
0100
0000
1000
0000
0000
0000
0100
0000
1000
0000
0010
0100
0010
0000
,
2000
0000
0000
0000
3200
0000
0000
0310
0001
0000
0000
0000
0001
0000
0010
0000
,
0100
0000
1000
0010
0100
0010
1000
0001
,
1001
0000
1001
0000
1000
0100
0001
0100
,
1001
0000
1001
0000
0001
0100
1000
0100
,
0020
0000
0000
0000
,
0031
0000
0001
1000
0001
0000
0001
0100
,
0010
0000
0100
0000
0010
0000
1000
0000
0200
0000
0000
0310
0001
0000
0000
0000
,
0001
1000
0001
0000
0001
0010
0001
0100
,
0020
0000
0130
0010
1000
1000
0001
0000
,
0001
1000
0001
0000
0001
1000
0001
0100
,
0010
1000
1100
0000
1100
0000
1000
0010
,
0100
0010
0101
0000
0001
0100
0001
1000
,
0010
0100
0020
0000
0000
0000
1030
0000
,
1000
0100
0020
0130
0000
0100
0000
0020
,
0002
0000
0000
0000
0033
0000
0000
1000
0010
0000
0000
0000
0010
0000
0100
0000
,
0001
1000
0002
0000
0000
0000
0100
0000
,
1003
0100
0020
0000
0000
0000
0031
0000
,
1000
0000
0000
0001
0000
0000
0020
0000
0000
0000
0000
0000
0000
0000
0000
0000
0000
0000
0031
0000
0100
0000
0010
0000
,
1000
0100
1000
0020
0000
0000
0000
0000
0000
0100
0000
0000
,
0000
0000
2030
0000
0100
0020
0000
0000
,
0000
3030
0010
0000
0000
1000
0000
0000
,
0100
0000
1000
0000
0010
0000
0100
0000
0000
0010
0000
0000
1000
0000
0000
0001
0000
0000
0010
0000
0000
0100
0000
0000
,
0010
0001
0200
0000
0000
0000
0001
0000
,
0320
1000
0000
1030
,
1000
0001
0010
0100
1000
0020
0000
0030
,
0010
1000
0100
0020
0000
0030
0010
0001
,
0100
0020
1000
0000
1000
0000
0130
0000
,
0200
0000
0000
0000
0301
0000
1000
0010
1000
0000
0100
0000
0010
0000
0001
0000
,
0100
0010
2000
0000
0000
0000
0000
0000
,
0000
3000
0000
0000
;
