#TITLE:Things Can Only Get Better;
#SUBTITLE:;
#ARTIST:Howard Jones;
#TITLETRANSLIT:;
#SUBTITLETRANSLIT:;
#ARTISTTRANSLIT:;
#GENRE:Pop;
#CREDIT:Blood4Fame;
#MUSIC:Things Can Only Get Better.mp3;
#BANNER:Banner.png;
#BACKGROUND:BG.png;
#CDTITLE:;
#SAMPLESTART:42.083;
#SAMPLELENGTH:24.575;
#SELECTABLE:YES;
#OFFSET:-0.081;
#BPMS:0.000=108.238;
#STOPS:;
#BGCHANGES:;
#FGCHANGES:;

//--------------- dance-single - Blood4Fame ----------------
#NOTES:
     dance-single:
     Blood4Fame:
     Beginner:
     2:
     0,0,0,0,0:
0000
0000
0000
0000
,
0200
0000
0000
0300
,
0020
0000
0000
0030
,
0002
0000
0000
0000
,
0000
0000
0000
0003
0000
0000
0000
0000
,
1000
0000
0100
0000
,
0010
0000
0001
0100
,
0010
0000
0100
0000
,
0010
0000
1000
0001
,
0020
0000
0000
0000
0000
0030
0000
0000
,
0000
0000
1000
0100
,
0001
0000
0100
0000
,
0001
0000
0010
0100
,
0001
0000
1000
0000
,
0000
0000
0010
0001
,
0100
0000
1000
0000
,
0000
0000
1000
0100
,
0001
0000
0010
0000
,
0000
0000
1000
0100
,
0002
0000
0000
0003
,
2000
0000
0000
3000
,
0020
0000
0000
0030
,
0200
0000
0000
0300
,
0002
0000
0000
0003
,
2000
0000
0000
3000
,
0020
0000
0000
0030
,
0200
0300
0200
0300
,
0000
0000
0000
0000
,
0001
0000
0100
0000
,
0010
0000
0100
0000
,
0010
0000
0100
0000
,
0010
0000
1000
0000
,
0001
0000
0100
0000
,
0010
0000
1000
0000
,
0010
0000
1000
0000
,
0010
0000
0001
0000
,
0002
0003
0001
0000
0000
0000
0000
0000
,
2000
3000
1000
0000
0000
0000
0000
0000
,
0020
0030
0010
0000
0000
0000
0000
0000
,
0200
0300
0100
0000
0200
0000
0300
0000
,
0002
0003
0001
0000
0000
0000
0000
0000
,
2000
3000
1000
0000
0000
0000
0000
0000
,
0020
0030
0010
0000
0000
0000
0000
0000
,
0200
0000
0000
0000
,
0000
0000
0000
0000
0000
0300
0000
0000
,
1000
0000
0001
0000
,
1000
0000
1000
0000
,
0100
0000
1000
0000
,
0001
0010
0001
0000
,
1000
0000
0010
0000
,
0010
0000
1000
0001
,
0100
0000
0010
0000
,
0001
0010
0100
0000
,
0001
0000
1000
0000
,
0010
0000
1000
0000
,
0001
0000
0100
0000
,
0010
0000
0100
0000
,
0001
0000
1000
0000
,
0010
0000
0100
0000
,
0010
0000
1000
0000
,
0100
0000
0001
0000
,
0010
0000
0100
0000
,
0010
0000
1000
0000
,
0010
0000
1000
0000
,
0100
0000
1000
0000
,
0022
0033
0000
0000
0000
0000
0000
0000
;

//--------------- dance-single - Blood4Fame ----------------
#NOTES:
     dance-single:
     Blood4Fame:
     Easy:
     3:
     0,0,0,0,0:
0000
0000
0000
0000
,
0200
0000
0000
0300
,
0020
0000
0000
0030
,
0002
0000
0000
0000
,
0000
0000
0000
0000
,
1003
0000
0000
1000
0100
0000
0000
0001
,
0010
0000
0000
0100
0001
0000
0100
0000
,
0010
0000
0000
1000
0100
0000
0000
0001
,
0010
0000
1000
0001
,
0020
0000
0000
0000
0000
0000
0000
0100
,
0030
0000
1000
0100
,
0001
0000
0000
1000
0100
0000
0000
0000
,
0001
0000
0000
0000
0010
0010
0100
0100
,
0001
0000
0000
0010
1000
0000
0000
0000
,
0000
0000
0000
0000
0010
0010
0001
0001
,
0100
0000
0000
0010
1000
0000
0000
0000
,
0000
0000
0000
0000
1000
1000
0100
0100
,
0001
0000
0000
0001
0010
0000
0000
0000
,
0000
0000
0000
0000
1000
1000
0100
0100
,
0002
0000
0000
0003
,
2000
0000
0000
3000
,
0020
0000
0000
0030
,
0200
0000
0000
0300
,
0002
0000
0000
0003
,
2000
0000
0000
3000
,
0020
0000
0000
0030
,
0200
0000
0300
0100
0200
0000
0300
0000
,
0000
0000
0000
0000
,
0011
0000
1100
0000
,
0110
0000
1100
0000
,
0011
0000
1100
0000
,
0110
0000
1100
0000
,
0011
0000
1100
0000
,
0110
0000
1100
0000
,
0011
0000
1100
0000
,
0110
0000
0011
0000
,
0002
0003
0001
0001
0000
0000
0000
0000
,
2000
3000
1000
1000
0000
0000
0000
0000
,
0020
0030
0010
0010
0000
0000
0000
0000
,
0200
0300
0100
0000
0200
0000
0300
0000
,
0002
0003
0001
0001
0000
0000
0000
0000
,
2000
3000
1000
0000
0000
0000
0000
0000
,
0020
0030
0010
0000
0000
0000
0000
0000
,
0200
0000
0000
0000
,
0000
0000
0000
0300
,
1000
0100
0001
0010
,
1000
0000
1000
0001
,
0100
1000
1000
0000
,
0001
0010
0001
0000
,
1000
0100
0010
0001
,
0010
0000
1000
0001
,
0100
0000
0010
0000
,
0001
0010
0100
0000
,
0011
0000
1100
0000
,
0110
0000
1100
0000
,
0011
0000
1100
0000
,
0110
0000
1100
0000
,
0011
0000
1100
0000
,
0110
0000
1100
0000
,
0011
0000
1100
0000
,
0110
0000
0011
0000
,
0011
0000
1100
0000
,
0110
0000
1100
0000
,
0011
0000
1100
0000
,
0110
0000
1100
0000
,
0022
0033
0000
0000
0000
0000
0000
0000
;

//--------------- dance-single - Blood4Fame ----------------
#NOTES:
     dance-single:
     Blood4Fame:
     Medium:
     5:
     0,0,0,0,0:
0000
0000
0000
0000
,
0000
0000
0000
0000
,
0000
0000
0000
0000
,
0000
0000
0000
0000
,
0000
0000
0000
0000
,
1100
0100
0000
1000
0011
0000
0000
0010
,
1001
0000
0000
1000
0100
0100
0001
0001
,
1100
0100
0000
0100
0011
0000
0000
0010
,
1001
0000
0000
1000
0200
0300
0000
0220
,
0000
0000
0000
0000
0000
0000
0330
1001
,
0000
0000
0000
0000
1000
0000
0000
0001
,
0100
0000
0000
2000
3001
0001
0000
1000
,
0000
0001
0000
0000
0100
0100
0001
0001
,
0200
0300
0000
0000
0000
0000
2000
0000
0001
3000
1000
0000
0100
0000
0010
0000
,
2000
0000
3001
2000
0100
0100
0001
3001
,
0100
1000
0000
0010
1000
0001
0100
1000
,
0001
1000
0000
0000
0100
0100
1000
1000
,
0100
0100
0000
0001
1000
0010
0001
0100
,
0010
0100
0100
0020
1000
1030
0000
0001
,
0010
1000
0010
0001
0010
2000
3001
2000
,
0100
0000
3200
0000
0000
0000
0310
0000
0001
0000
0220
0000
0000
0000
0000
0330
,
1000
0010
1000
0001
0000
2000
0001
3200
,
1300
1000
0010
0002
0000
0203
0300
0010
,
0001
0100
1000
0100
0001
2000
0100
0010
,
0010
3020
0000
2030
0000
3002
0100
0103
,
0020
0000
0100
0001
0030
0000
0100
0000
,
0001
0010
0000
0000
2000
0000
3010
0001
,
0100
0000
0100
0001
1000
1000
0001
0010
,
0001
1000
0000
0020
0130
0000
0000
0002
,
0103
0000
0000
0010
0001
0001
0000
0100
,
0010
0010
0000
0200
0310
0000
0000
2000
,
3100
0000
0110
0000
0001
0000
0010
2000
,
3001
1000
0000
0020
0130
0000
0000
0001
,
0100
0000
0000
0010
0001
0001
0000
0100
,
0010
0010
0000
0200
0310
0000
0000
2000
,
3100
0000
0000
0010
0001
0000
0010
0000
,
0002
0000
1000
0100
0000
0000
1003
0000
,
0100
0000
0000
0000
0000
0000
0010
0000
0000
0000
0220
0000
0000
0000
0000
0330
,
1000
0010
2000
3001
0000
2000
0001
3200
,
1000
1300
0010
0002
0000
0203
0000
0310
,
0002
0100
1003
0100
0001
0000
0100
0010
,
0010
0020
0000
2030
0000
3002
0100
0103
,
0020
0000
0100
1000
0030
1000
0100
0002
,
0010
0000
0023
0000
2030
0000
0000
3000
0000
0000
0020
0000
0031
0000
0100
0000
,
0202
0000
0000
0303
0100
0100
0220
0330
,
1001
0000
0000
0000
0011
0000
0000
0000
0100
0000
0000
0000
0021
0000
0001
0030
,
2000
0000
0000
3000
0000
0000
0002
0000
0000
0000
0100
0000
0100
0000
0010
0000
,
0013
0010
0000
0100
0020
0030
1000
2000
,
3001
0000
0000
0000
0000
0100
0022
0003
,
0032
0023
0230
1300
,
1000
0000
0100
0000
0001
0000
0200
0310
,
0000
0000
0000
1000
0010
1000
1000
0000
,
1000
0000
0010
0000
0100
0010
2000
3100
,
0001
1000
0000
0020
0230
0000
0000
0302
,
0103
0000
0000
0000
0020
0000
0000
0030
0001
0000
0002
0000
0100
0000
0203
0000
,
0310
0010
0000
0200
0320
0000
0000
2030
,
3001
0010
0100
1000
0001
0100
0010
2000
,
3002
1003
0000
0020
0130
0000
0000
0001
,
0100
0000
0000
0000
0001
0000
0100
0000
0001
0000
0002
0003
0000
0000
0200
0000
,
0310
0010
0000
0200
0320
0000
0000
2030
,
3100
0000
0000
0010
0001
0002
0013
0020
,
0031
1000
0000
0020
0230
0000
0000
0300
,
0002
0000
0000
0013
0001
0002
0103
0200
,
0310
0010
0000
0200
0320
0030
1000
0000
,
0000
0000
0100
0100
0001
0001
0020
0000
,
0032
0003
0000
0000
;

//--------------- dance-single - Blood4Fame ----------------
#NOTES:
     dance-single:
     Blood4Fame:
     Hard:
     8:
     0,0,0,0,0:
0000
0000
0000
0000
,
0000
0000
0000
0000
,
0000
0000
0000
0000
,
0000
0000
0000
0000
,
0000
0000
0000
0000
,
1100
0000
0100
1000
0000
0000
1000
0000
0011
0000
0000
0000
0000
0000
0010
0000
,
1001
0000
0000
0000
0000
0000
1000
0010
0100
0000
0100
0000
0001
0000
0001
0000
,
1100
0000
0100
1000
0000
1000
0100
0000
0011
0000
0000
0000
0000
0000
0010
0000
,
1001
0000
0000
0000
0000
0000
1000
0010
0200
0000
0300
0202
0000
0303
0220
0000
,
0000
0000
0000
0000
0000
0000
0330
1001
,
0000
0000
0000
0000
0000
0000
0000
0000
0001
0000
0000
0100
0000
0000
0001
0000
,
0100
0000
0000
0100
0000
0010
2000
0000
3001
0000
0001
2000
0000
3000
1000
0020
,
0000
0030
1000
0200
0000
2300
0000
3010
0100
0000
0100
0000
0001
0000
0001
0000
,
0200
0300
0000
0100
0000
0001
2000
0000
0001
3000
1000
0000
0100
0000
0100
0000
,
2000
0000
3001
2000
0100
0100
0001
3001
,
0100
0000
1000
0100
0000
0200
0010
0000
1300
0000
0001
0000
0100
0000
0001
0000
,
0001
0000
1000
0200
0000
0320
0000
0032
0100
0000
0103
0000
0010
0000
0010
0000
,
1000
0000
0100
0010
0000
0010
0001
0000
1000
0000
0010
0000
1000
0000
0100
0000
,
0010
0000
0100
0000
0100
0000
0020
0000
1000
0000
1030
0000
0000
0000
0001
0100
,
0010
1000
0010
0001
0010
2000
3001
2000
,
0100
0000
3200
0000
0000
0000
0310
0000
0001
0000
0220
0000
0000
0000
0000
0330
,
1000
0100
0010
0000
0001
0000
1000
0000
0000
0000
2000
0000
0001
0000
3200
0000
,
1300
0000
0100
0000
1000
0000
0002
0000
0000
0000
0203
0000
0300
0000
0010
0100
,
0001
0100
1000
0100
0001
2000
0100
0010
,
0010
3020
0000
2030
0000
3002
0100
0103
,
0020
0000
0100
0001
0030
0000
0100
0000
,
0001
0000
0010
0000
0000
0001
0000
0000
2000
0000
0000
0000
3010
0000
1000
0000
,
0100
0000
0000
0001
0100
0000
0001
0000
1000
0001
1000
0100
0001
0100
0010
0100
,
1000
0000
1000
0100
0000
0100
0020
0000
0130
0000
0000
0000
0000
0000
0002
0000
,
0103
0000
0000
0000
0000
0000
0010
1000
0001
0000
0001
0100
0000
0001
0100
0000
,
0010
0000
0010
1000
0000
0001
0200
0000
0310
0000
0000
0000
0000
0000
2000
0000
,
3100
0000
0000
0000
0110
0000
0000
0000
0001
0000
0000
0100
0010
0000
2000
0000
,
3001
0000
1000
0100
0000
0001
0200
0000
0310
0000
0000
0000
0000
0000
1000
0000
,
0100
1000
0000
0000
0000
0000
0010
1000
0001
0000
0001
0100
0000
1000
0100
0000
,
0010
0000
1000
0001
0000
0001
0200
0000
0310
0000
0000
0000
0000
0000
2000
0000
,
3100
0000
0000
0000
0000
0000
0010
0100
1000
0000
0000
0100
0010
0000
0000
0000
,
0002
0000
0000
0000
1000
0000
0100
0000
0000
0000
0000
0000
1003
0000
0000
0010
,
0100
0000
0000
0100
0000
0000
0010
0000
0000
0000
0220
0000
0000
0000
0000
0330
,
1000
0100
0010
0000
0002
0000
1003
0000
0000
0000
2000
0000
0001
0000
3200
0000
,
1000
0000
1300
0000
0010
0000
2000
0000
0000
0000
3200
0000
0000
0000
0310
0100
,
1000
0100
1000
0001
0001
0000
0100
0010
,
0010
0020
0000
2030
0000
3002
0100
0103
,
0020
0000
0100
1000
0030
1000
0100
0020
,
0001
0000
0032
0000
2003
0000
0000
3002
0000
0000
0023
0000
0031
0010
0100
0000
,
2200
0000
0000
3300
0100
0100
0220
0330
,
1001
0000
0000
0000
0011
0000
0000
0000
0100
0000
0000
0000
2001
0000
3001
0100
,
0020
0000
0000
0130
0000
0100
0002
0000
0000
0000
0100
0000
0100
0000
0010
0000
,
0013
0000
0010
0001
0000
0001
0100
0000
0020
0000
0030
0000
1000
0000
2000
0000
,
3001
0000
0000
0100
0000
0010
0000
2000
0000
0000
3100
0000
0022
0000
0003
0000
,
0032
0000
0000
0000
0023
0000
0000
0000
0230
0000
0000
0000
1300
0001
0000
0001
,
1000
0000
0000
1000
0100
0000
0000
0000
0001
0010
0000
0000
0200
0000
0310
0001
,
0000
0000
0000
0001
0000
0001
1000
0000
0010
0000
1000
0000
1000
0100
0000
0011
,
0000
0110
0000
1100
0000
0110
0000
0002
0000
0000
0013
0000
0002
0000
0103
0000
,
0001
0000
1000
0100
0000
0010
0002
0000
0203
0000
0000
0000
0000
0000
0302
0000
,
0103
0000
0000
0000
0020
0000
0000
1030
0001
0000
0002
0000
0100
0000
0203
0000
,
0310
0000
0010
1000
0000
1000
0200
0000
0320
0000
0000
0000
0000
0000
0032
0000
,
1003
0010
0100
0001
1000
0010
0100
0002
,
2003
0000
3001
0100
0000
0001
0020
0000
0130
0000
0000
0000
0000
0000
0001
0000
,
0100
0000
0000
0000
0001
0000
0100
0000
0001
0000
0002
0103
0000
1000
0200
0000
,
0310
0000
0010
1000
0000
1000
0200
0000
0320
0000
0000
0000
0000
0000
0032
0000
,
0103
0000
0000
0000
0000
0000
0010
0100
0001
0000
0002
0000
0013
0000
0020
0000
,
0031
0000
1000
0100
0000
0100
0020
0000
0230
0000
0000
0000
0000
0000
0300
0000
,
2000
0000
0000
0000
3000
0000
0010
1000
0001
0000
0002
0000
0103
0000
0200
0000
,
0310
0000
0010
1000
0000
1000
0200
0000
0320
0000
0030
0000
0001
0000
0000
0000
,
0000
0000
0000
1000
0100
0000
0100
0000
0001
0000
0001
0000
0020
0000
0000
0000
,
0032
0003
0000
0000
;
