#TITLE:The Hills;
#SUBTITLE:(Remix ft. Eminem);
#ARTIST:The Weeknd;
#TITLETRANSLIT:;
#SUBTITLETRANSLIT:;
#ARTISTTRANSLIT:;
#GENRE:Rap;
#CREDIT:Blood4Fame;
#MUSIC:The Hills (Remix).mp3;
#BANNER:Banner.png;
#BACKGROUND:BG.png;
#CDTITLE:;
#SAMPLESTART:34.648;
#SAMPLELENGTH:26.759;
#SELECTABLE:YES;
#OFFSET:-0.489;
#BPMS:0.000=113.000
,62.000=10.500
,62.021=16.500
,62.063=21.500
,62.125=26.500
,62.188=31.500
,62.250=37.500
,62.333=43.500
,62.479=54.500
,62.708=62.500
,62.833=74.500
,63.021=88.500
,63.250=100.500
,63.479=112.500
,63.750=123.500
,64.000=139.500
,64.250=150.500
,64.583=168.500
,64.896=188.500
,65.188=216.500
,65.583=280.500
,68.000=113.000
,204.000=24.500
,204.083=31.500
,204.375=64.500
,204.896=217.500
,208.000=113.000
;
#STOPS:;
#BGCHANGES:-0.489=The Hills (Remix).avi=1.000=1=0=1===CrossFade==,
99999.000=-nosongbg-=1.000=0=0=0=StretchNoLoop====;
#FGCHANGES:;

//--------------- dance-single - Blood4Fame ----------------
#NOTES:
     dance-single:
     Blood4Fame:
     Easy:
     3:
     0,0,0,0,0:
0002
0000
0000
0000
,
0000
0000
0000
0000
,
0203
0000
0000
0000
,
0000
0000
0000
0000
,
0310
1000
0200
0000
,
0310
0001
2000
0000
,
3010
0100
0002
0000
,
0203
0000
0000
0000
,
0310
0010
0100
0100
,
1000
1000
0200
0020
,
0330
0000
0100
1000
,
0010
0100
0001
0010
,
0001
0010
0001
0010
,
1000
0001
1000
0100
,
0010
0001
1000
0010
,
2000
0000
3020
0000
,
0000
0000
0000
0000
0000
0000
0000
0030
,
2000
0000
0000
0000
0000
0000
0000
3000
0002
0000
0000
0000
0000
0000
0000
0003
,
0101
1000
0100
1000
,
0200
0300
0002
0003
,
0110
0010
0100
0001
,
1100
0000
0000
0000
0000
0000
0000
0000
0201
0000
0000
0300
0000
0000
0000
0000
,
2010
0000
0000
3000
0000
0000
0000
0000
0020
0000
0030
0000
0000
0000
0000
0000
,
0120
0000
0000
0030
0000
0000
0000
0000
0020
0000
0000
0030
0000
0000
0000
0000
,
1001
0000
0001
0000
,
0001
0000
1000
0000
,
1000
0001
0010
0100
,
0010
0000
1000
0000
,
1000
0000
0000
0000
0200
0000
0000
0000
0310
0000
0000
0000
0020
0000
0000
0030
,
1000
0000
0000
0000
0000
0000
0000
0000
0002
0000
0000
0003
0000
0000
0000
0000
,
0001
1000
0010
0100
,
0020
0000
0000
0030
0000
0000
0000
0000
0001
0000
0000
0000
0000
0000
0000
0000
,
2000
0000
0000
3000
0100
0000
0000
0000
0020
0000
0000
0030
0000
0000
0000
0000
,
0200
0000
0000
0000
,
0000
0000
0000
0000
,
0302
0000
0000
0000
,
0000
0000
0000
0000
,
0023
0000
0000
0000
,
0000
0000
0000
0000
,
1030
0100
0001
1000
,
0100
1000
0001
0100
,
0010
0010
0100
0100
,
1000
0000
0000
0000
1000
0000
0000
0000
0200
0000
0000
0300
0000
0000
0000
0000
,
0020
0000
0000
0000
0030
0000
0000
0000
0200
0000
0000
0300
0000
0000
0000
0000
,
0020
0000
0000
0030
0000
0000
0000
0000
0002
0000
0000
0000
0000
0000
0003
0000
,
0010
0100
0001
0000
,
0100
1000
0010
0100
,
0001
1000
0000
1000
,
0100
0000
2000
3000
,
0010
0000
0002
0003
,
0100
0000
1000
0000
,
0200
0000
0000
0000
0000
0000
0000
0000
0000
0000
0000
0000
0000
0000
0000
0300
,
2000
0000
0000
0000
0000
0000
0000
3000
2002
0000
0000
0000
3000
0000
0000
0003
,
0011
1000
0010
1000
,
0022
0000
0000
0000
0030
0000
0000
0003
0200
0000
0000
0000
0000
0000
0300
0000
,
0110
0100
0010
0001
,
2020
3030
0022
0033
,
2200
0000
3300
0000
0200
0300
0000
0000
,
0220
0000
0000
0000
0330
0000
0000
0000
0200
0000
0000
0300
0000
0000
0000
0000
,
0000
0010
0110
0000
,
2200
0000
0000
0300
0000
0000
0000
0000
0200
0000
0000
0300
0000
0000
0000
0000
,
0200
0000
0000
3300
,
2020
0000
0000
0030
,
3000
0000
0000
0000
;

//--------------- dance-single - Blood4Fame ----------------
#NOTES:
     dance-single:
     Blood4Fame:
     Medium:
     5:
     0,0,0,0,0:
0000
0001
0010
1000
,
0010
1000
0001
0010
,
0100
0010
0001
1000
,
0010
1000
0001
0010
,
0100
1000
0100
1000
,
0010
1000
0001
0100
,
0010
0100
0001
1000
,
0100
1000
0001
0100
,
0010
0010
0010
1000
0100
0100
0100
0100
,
1000
1000
1000
1000
0100
0000
0000
0100
,
0100
0100
0100
0100
0100
0000
0000
0100
,
0010
0000
0000
0010
0001
0000
0000
0000
,
0001
0001
0010
0000
0001
1000
0010
0000
,
1000
1000
0001
0001
0000
0010
0100
0100
,
0010
0000
0001
0001
1000
0000
0010
0010
,
1000
0000
0020
0000
,
0000
0000
0000
0000
0000
0000
0000
0030
,
2020
0000
0000
0000
0030
0000
0000
3000
2002
0000
0000
0000
3000
0000
0000
0003
,
0101
0010
1000
0010
0100
0001
1000
0010
,
0202
0000
0000
0000
0300
0000
0000
0003
0022
0000
0000
0000
0003
0000
0030
0000
,
0110
1000
0010
1000
0100
0010
0001
0010
,
1100
0000
0000
0000
0000
0000
0001
0000
0201
0000
0000
0300
0000
0000
0100
0000
,
2010
0000
0000
3000
0000
0000
0001
0000
0020
0000
0030
0000
0000
0000
0010
0000
,
0120
0000
0000
0030
0000
0000
0010
0000
0020
0000
0000
0030
0000
0000
4004
0000
,
0000
3003
0000
0000
0000
0000
0000
0000
,
0001
0000
0000
0010
1000
0000
0000
0010
,
1000
1000
0001
0001
0010
0010
0100
0100
,
0010
0000
0000
0001
1000
0000
0000
0010
,
1000
0000
0001
0000
0200
0000
2000
0000
3300
0000
0000
0000
0020
0000
0000
0030
,
1000
0000
1000
0000
0010
0000
0010
0000
0002
0000
0000
0003
0200
0000
0000
0300
,
0001
0000
1000
1000
0010
0010
0100
0000
,
0020
0000
0000
0030
0002
0000
0000
0003
0001
0000
0001
0000
0020
0000
0000
0030
,
2000
0000
0000
3000
0100
0000
1000
0000
0020
0000
0000
0030
0000
0000
0000
0000
,
0100
0010
0001
1000
,
0010
1000
0001
0010
,
0100
1000
0100
1000
,
0010
1000
0001
0100
,
0010
0100
0001
1000
,
0100
1000
0001
0100
,
0010
0100
0001
1000
,
0100
1000
0001
0100
,
0010
0010
0010
1000
0100
0100
0100
0100
,
1000
0000
1000
0000
1000
0000
1000
0000
0200
0000
0000
0300
0000
0000
0002
0000
,
0003
0000
0000
0000
0000
0000
0100
0000
0200
0000
0000
0300
0000
0000
0100
0000
,
0020
0000
0000
0030
0000
0000
0010
0000
0002
0000
0000
0000
0000
0000
0003
0000
,
0010
0000
0100
1000
0001
0010
0000
0010
,
0100
0001
1000
0000
0000
1000
0100
1000
,
0000
0100
1000
0000
0000
0001
1000
0010
,
0100
0001
0000
0100
2000
0000
3000
0100
,
0010
0100
0000
0001
0001
0000
0010
0000
,
0100
1000
0000
0100
1000
0000
0010
0000
,
0200
0000
0000
0000
0000
0000
0000
0000
0000
0000
0000
0000
0000
0000
0000
0300
,
2200
0000
0000
0000
0300
0000
0000
3000
2002
0000
0000
0000
3000
0000
0000
0003
,
0011
0100
1000
0100
0010
0001
1000
0100
,
0022
0000
0000
0000
0030
0000
0000
0003
0200
0000
0000
0000
0000
0000
0300
0000
,
0110
1000
0100
1000
0010
0100
0001
0100
,
1010
0000
0000
0000
0000
0000
0001
0000
0021
0000
0000
0030
0000
0000
0010
0000
,
2100
0000
0000
3000
0000
0000
0001
0000
0200
0000
0300
0000
0000
0000
0100
0000
,
0210
0000
0000
0300
0000
0000
0100
0000
0200
0000
0000
0300
0000
0000
4004
0000
,
3003
0010
0010
0000
0110
0000
0000
0000
,
2200
0000
0000
0300
0200
0000
0000
0300
0200
0000
0000
0300
0200
0000
0000
0300
,
0200
0000
0000
3300
,
2020
0000
0000
0030
0020
0000
0000
0030
0020
0000
0000
0030
0020
0000
0000
3000
,
2000
0000
0000
0030
0020
0000
0000
3000
2000
0000
0000
0000
3030
0000
0000
0000
;

//--------------- dance-single - Blood4Fame ----------------
#NOTES:
     dance-single:
     Blood4Fame:
     Hard:
     8:
     0,0,0,0,0:
0000
1000
0100
0001
,
0100
0001
1000
0100
,
0010
0100
1000
0001
,
0100
0001
1000
0100
,
0010
0001
0010
0001
,
0100
0001
1000
0010
,
0100
0010
1000
0001
,
0010
0001
1000
0010
,
0100
0000
0100
0000
0100
0000
0001
0100
0010
0000
0010
0000
0010
0000
0010
1000
,
0001
0000
0001
0000
0001
0000
0001
1000
0010
0000
0000
0200
0000
0000
0010
0000
,
0310
0000
0010
0000
0010
1000
0010
0100
0010
0000
0000
1000
0000
0100
0010
0001
,
0100
0000
0000
0010
0000
1000
0100
0000
1000
0000
0000
0002
0000
0000
0000
0000
,
1003
0000
1000
0000
0100
0000
0000
0100
1000
0000
0001
0000
0100
0000
0000
1000
,
0001
0001
1000
1000
0000
0100
0010
0010
,
0100
0000
0000
0001
1000
0000
1000
0000
0001
0000
0000
0000
0100
0000
0100
0000
,
0001
0000
0000
0010
0000
0100
0000
0000
0200
0000
0000
0000
0000
0000
0000
0000
,
0000
0000
0000
0000
0000
0000
0000
0300
,
0202
0000
0000
0000
0300
0000
0000
0003
2002
0000
0000
0000
0003
0000
0000
3000
,
1010
0100
0001
0100
0010
1000
0001
0100
,
2020
0000
0000
0000
0030
0000
0000
3000
2200
0000
0000
0000
3000
0000
0300
0000
,
0110
0001
0100
0001
0010
0100
1000
0100
,
0011
0000
0000
0002
0000
0000
1003
0000
1020
0000
0000
0130
0000
0001
0010
0000
,
0102
0000
0000
0103
0000
0000
1000
0010
0200
0000
0300
1100
0000
1000
0100
0000
,
0210
0000
0000
0310
0000
0000
0100
1000
0200
0000
0000
2300
0000
3000
4004
0000
,
0000
3003
0000
0000
0000
0000
0000
0000
,
1000
0000
0000
0100
0000
0000
0100
0000
0001
0000
0000
0001
0000
0000
0100
0000
,
0001
0000
0001
0000
1000
0000
1000
0000
0100
1000
0100
1000
0010
0000
0010
0000
,
0100
0000
0000
0100
0000
0000
1000
0000
0001
0000
0000
0001
0000
0000
0100
0000
,
0001
0000
1000
0100
0020
0000
0002
0000
0033
0000
0000
1000
0200
0000
0000
0310
,
0001
0000
0001
0000
0100
0000
0100
0000
2000
0000
0000
3100
0020
0000
0000
0130
,
1000
0000
0000
0000
0001
0000
0001
0000
0100
0000
0100
0000
0010
0000
0000
0010
,
0200
0000
0000
0301
2000
0000
0000
3001
1000
0000
1000
0000
0200
0000
0000
0310
,
0002
0000
0000
0103
0010
0100
0001
1000
0200
0000
0000
0310
0000
0000
0000
0000
,
0010
0100
1000
0001
,
0100
0001
1000
0100
,
0010
0001
0010
0001
,
0100
0001
1000
0010
,
0100
0010
1000
0001
,
0010
0001
1000
0010
,
0100
0010
1000
0001
,
0010
0001
1000
0010
,
0100
0000
0100
0000
0100
0000
0001
0100
0010
0000
0010
0000
0010
0000
0010
1000
,
0001
0000
0001
0000
0001
0000
0001
1000
0020
0000
0000
0230
0000
0310
2000
0000
,
3000
0002
0000
0000
0003
1000
0010
0100
0020
0000
0000
2030
0000
3100
0010
0001
,
0200
0000
0000
0320
0000
0000
0130
0001
2000
0000
0000
0002
0000
0000
3000
0000
,
0103
0000
0000
0000
0010
0100
0001
0000
1000
0000
0100
0010
0000
0000
0100
0000
,
0010
0000
1000
0000
0001
1000
0000
0100
0000
0010
0001
0000
0010
0000
0001
0100
,
0000
1000
0010
0100
0001
1000
0000
0100
0000
0010
1000
0000
0001
0000
0100
0000
,
0010
0000
1000
0100
0000
0000
0010
0000
0002
0000
0000
0000
0003
1000
0010
1000
,
0100
0000
0010
0200
0000
0000
1300
0000
1000
0000
0000
0000
0100
0000
0000
0000
,
0010
0000
0001
1000
0000
0100
0010
0000
0001
0000
0000
0000
0100
0000
0000
0000
,
0020
0000
0000
0000
0000
0000
0000
0000
0000
0000
0000
0000
0000
0000
0000
0030
,
0022
0000
0000
0000
0030
0000
0000
0003
2002
0000
0000
0000
0003
0000
0000
3000
,
1100
0010
0001
0010
0100
1000
0001
0010
,
2200
0000
0000
0000
0300
0000
0000
3000
0020
2000
0000
0000
0000
0000
3030
0000
,
0110
0001
0010
0001
0100
0010
1000
0010
,
0101
0000
0000
0002
0000
0000
1003
0000
1200
0000
0000
0310
0000
0001
0100
0000
,
0012
0000
0000
0013
0000
0000
1000
0100
0020
0000
0030
1010
0000
1000
0010
0000
,
0120
0000
0000
0130
0000
0000
0010
1000
0020
0000
0000
2030
0000
3000
4004
0000
,
3003
0100
0100
0000
0110
0000
0000
0000
,
0022
0000
0000
0030
0020
0000
0000
0030
0020
0000
0000
0030
0020
0000
0000
0030
,
0020
0000
0000
0033
,
0202
0000
0000
0300
0200
0000
0000
0300
0200
0000
0000
0300
0200
0000
0000
0003
,
0002
0000
0000
0300
0200
0000
0000
0003
0002
0000
0000
0000
0303
0000
0000
0000
;
