#TITLE:The Day;
#SUBTITLE:My Hero Academia -Opening Theme-;
#ARTIST:ポルノ;
#TITLETRANSLIT:;
#SUBTITLETRANSLIT:;
#ARTISTTRANSLIT:Porno;
#GENRE:Anime;
#CREDIT:Blood4Fame;
#MUSIC:The Day.mp3;
#BANNER:Banner.png;
#BACKGROUND:BG.png;
#CDTITLE:;
#SAMPLESTART:0.000;
#SAMPLELENGTH:0.000;
#SELECTABLE:YES;
#OFFSET:-0.074;
#BPMS:0.000=186.000;
#STOPS:;
#BGCHANGES:;
#FGCHANGES:;

//--------------- dance-single - Blood4Fame ----------------
#NOTES:
     dance-single:
     Blood4Fame:
     Beginner:
     3:
     0,0,0,0,0:
0000
0000
1001
0000
,
0000
0000
0000
0000
,
0000
0000
0100
0000
,
0100
0000
0001
0000
,
0100
0000
0001
0000
,
0010
0000
2000
3000
,
0001
0000
1000
1000
,
1000
0000
0001
0001
,
0001
0000
0100
0100
,
0100
0000
0110
0110
,
0000
1010
2020
0000
,
0000
3030
0000
0000
,
0100
0000
2020
0000
,
0000
3030
0000
0000
0100
0000
0200
0000
,
0300
0000
2200
0000
,
3300
0000
1000
2000
,
3000
0000
0000
0000
0022
0000
0000
0033
,
0000
0000
0100
0200
,
0300
0000
2200
0000
,
3300
0000
0020
0000
,
0030
0000
0100
0100
,
0000
0010
0020
0030
,
0000
0000
0100
0000
,
0010
0000
0001
0000
,
0200
0300
0001
0000
,
0100
0000
0001
0000
,
0010
0000
0000
0000
0000
0001
0000
0002
,
0000
0000
0000
0003
0000
0000
0000
0100
,
0000
0000
0001
0001
,
0000
0100
0000
0100
0000
0200
0000
0300
,
0000
0000
0100
0000
,
0001
0000
1000
1000
,
1000
0000
0001
0000
,
0010
0000
0010
0000
0010
0000
0000
0010
,
0000
0000
0000
0001
0000
0001
0000
0002
,
0000
0003
0000
0000
0200
0000
0000
0000
,
0300
0000
0000
0000
0100
0000
0000
0200
,
0000
0000
0000
0000
0000
0000
0300
0100
,
0000
0100
0000
0100
0000
0000
0000
0020
,
0000
0000
0030
0000
,
0100
0000
0100
0000
0000
0000
0000
0020
,
0000
0000
0000
0030
0000
0000
0000
0000
,
1000
0000
0100
0000
,
0001
0000
0020
0030
,
0010
0000
2002
3003
,
0000
0000
0000
0022
0000
0000
0000
0000
,
0000
0033
0000
0000
2200
0000
0000
3300
,
0000
1001
0000
0022
,
0033
0000
0100
0100
,
0200
0300
0010
0010
,
0020
0030
0000
0000
0001
0000
0001
0000
,
0001
0000
1000
1000
,
1000
0000
1000
0000
,
0010
0000
0001
0000
,
0100
0000
1000
0000
,
0010
0000
0010
0020
,
0030
0000
0100
0100
,
0200
0300
0000
0000
0001
0000
0001
0000
,
0001
0000
0010
0010
,
0010
0000
1000
1000
,
1000
0000
1000
0000
,
0010
0000
1000
0000
,
0100
0000
1000
1000
,
0000
0000
0220
0330
,
0000
1010
2020
0000
,
0000
0000
0000
0000
,
0000
3030
0000
0000
1000
0000
0000
0000
,
0100
0000
0100
0000
,
1001
2002
0000
0000
,
0000
3003
0000
0000
;

//--------------- dance-single - Blood4Fame ----------------
#NOTES:
     dance-single:
     Blood4Fame:
     Easy:
     4:
     0,0,0,0,0:
0000
0000
1001
0000
,
0000
0000
0000
0000
,
0000
0000
0000
0000
0100
0000
0000
1000
,
0000
0100
0000
0000
0001
0000
0000
0100
,
0000
0100
0000
0000
0001
0000
0000
0010
,
0000
0100
0000
0000
2000
0000
3000
0001
,
0000
0010
0000
0000
1000
0000
1000
0000
,
0010
0010
0001
0001
,
0100
0010
1000
1000
,
0010
1000
0010
0220
,
0330
1010
2020
0000
,
0000
0000
3030
0000
,
0100
0100
2020
0000
,
0000
3030
0000
0100
0000
0000
0200
0000
,
0300
0100
2200
0000
,
3300
0000
0000
1000
0000
0000
2000
0000
,
0000
3000
0022
0000
,
0000
0033
0000
0100
0000
0000
0200
0000
,
0300
0100
2200
0000
,
3300
0000
0000
0020
0000
0000
0000
0000
,
0030
0000
0100
0100
,
0001
0100
0020
0030
,
0000
0000
0100
0010
,
0010
0001
0010
0001
,
0200
0300
0001
1000
,
0100
0000
1000
0000
0100
0000
0000
0020
,
0000
0000
0030
0100
0000
0001
0000
0022
,
0000
0000
0000
0033
1000
0000
0000
0100
,
0000
0010
0000
0000
0001
0000
0010
0000
,
0000
1000
0000
0010
0000
0200
0000
0300
,
0000
0000
0100
0010
,
0001
1000
1000
0110
,
0000
0010
0000
0000
0010
0000
1000
0000
,
0010
0000
0010
0000
0000
0100
0000
0020
,
0000
0030
0000
1000
0000
1100
0000
0022
,
0000
0033
0000
0000
0200
0000
0300
2000
,
0000
3000
0001
0000
0100
0000
0000
0200
,
0000
0000
0000
0000
0000
0000
0300
0100
,
0000
0100
0000
0100
0000
1000
0000
0020
,
0000
0000
0000
0000
0000
0000
0000
0030
,
0100
0000
0100
0000
0000
0010
0000
0020
,
0000
0000
0000
0000
0000
0000
0000
0030
,
1000
0000
0000
0000
0100
0000
0000
0001
,
0000
0010
0000
0000
0020
0000
0030
0000
,
0000
0010
0000
0000
1001
0000
0000
0010
,
0000
1100
0000
0022
0000
0000
0000
0000
,
0000
0033
0000
0000
1100
0000
0000
1010
,
0000
0000
1001
0000
0000
0022
0000
0000
,
0000
0033
0000
0000
0100
0000
0000
1000
,
0000
0200
0000
0300
0020
0000
0030
0200
,
0300
0200
0000
0000
0301
0000
0000
0020
,
0000
0230
0000
0300
1000
0000
1000
0000
,
1000
0000
1000
1000
,
0010
0010
0001
0001
,
0100
0010
1000
1000
,
0010
1000
0010
0220
,
0330
0000
0000
0000
0100
0000
0000
1000
,
0000
0200
0000
0300
0001
0000
0000
0100
,
0000
0200
0300
0000
0001
0000
0000
0010
,
0000
0100
0000
0000
1000
0000
0000
0001
,
0000
0010
0000
0000
1000
0000
1000
0000
,
0010
0010
1000
0001
,
0100
0010
1000
1000
,
0010
1000
0110
0220
,
0330
1010
2020
0000
,
0000
0000
0000
0000
,
0000
3030
0000
0000
1000
0000
0010
0000
,
0100
1000
0100
0010
,
0001
2002
0000
0000
,
0000
3003
0000
0000
;

//--------------- dance-single - Blood4Fame ----------------
#NOTES:
     dance-single:
     Blood4Fame:
     Medium:
     8:
     0,0,0,0,0:
0000
0000
1001
0000
,
0000
0000
0000
0000
,
0000
0000
0000
0010
0100
0000
0010
1000
,
0000
0100
0000
0010
0001
0010
0001
0100
,
0000
0100
0010
0000
0001
1000
0001
0010
,
0000
0100
1000
0000
1000
0200
0000
0301
,
0000
0010
0000
0000
1000
0000
1000
0100
,
0010
0000
0010
0000
0001
0000
0001
0010
,
0100
0001
0010
0100
1000
0000
1000
0100
,
0010
0000
1000
0100
0010
0000
0220
0000
,
0330
0000
1010
0000
1020
0000
0000
0100
,
0000
0000
0001
0000
0000
0100
0000
0000
,
0100
0000
0130
0000
2020
3030
0000
0001
,
0010
0001
0010
0200
0300
1000
0200
0000
,
0300
1000
0100
0000
1100
0000
1100
0000
,
1000
0010
0100
1000
0000
0010
2000
0000
,
0100
0000
3100
0000
0022
0033
0000
0001
,
0010
0001
0010
0200
0000
1300
0200
0000
,
0300
1000
0100
0000
1100
0000
1100
0000
,
1000
0010
0000
0020
0000
0000
0000
0000
,
0030
0000
0000
0000
0100
1000
0100
0010
,
0001
0000
0100
0010
0001
0020
0030
0000
,
0000
0000
0000
1000
0200
0300
0010
0001
,
0010
0100
0010
0001
0020
0030
0001
1000
,
0100
0100
0000
0100
0002
0003
1000
0010
,
0100
0010
1000
0001
0100
0200
0000
0320
,
0000
0000
1030
0200
0300
0011
0000
0022
,
0000
0000
0000
0033
1000
0000
0000
0100
,
0000
0010
0000
0000
0001
0100
0010
1000
,
0000
1000
0100
0010
0001
0200
0000
0300
,
0000
0000
0000
1000
0100
1000
0010
0100
,
0001
0100
1000
0010
1000
0000
0110
0000
,
0001
0010
0000
0001
0010
0100
1000
0100
,
0010
0100
0010
0001
1000
0200
0300
0020
,
0000
0000
0130
1000
0000
1100
0000
0022
,
0000
0000
0000
0033
2200
0000
3300
2020
,
0000
3030
1001
0000
0010
0100
0000
0200
,
0000
0000
0001
0000
0000
0001
0300
0100
,
0000
0100
0000
0100
0001
1000
0000
0020
,
0000
0000
0100
0000
0000
0100
0000
0030
,
0100
0000
0100
0000
0001
0010
0000
0022
,
0000
0003
0001
0000
0000
0001
0000
0030
,
1000
0000
0000
1000
0100
0010
0001
0002
,
0003
0020
0030
0001
0020
0000
0000
0000
,
0130
0010
0000
0000
1001
0000
0001
0010
,
0000
1100
0000
0022
0000
0000
0000
0000
,
0000
0033
0000
0000
2200
3300
0000
2020
,
3030
0000
1001
0000
0000
0022
0003
0000
,
0200
0000
0000
0330
0100
0000
0010
2000
,
0000
3200
0000
0310
0001
0020
0000
0230
,
0300
0200
0000
0000
0301
0000
0001
0020
,
0000
0230
0000
0300
1000
0100
1000
0002
,
0000
0013
0000
0000
1000
0000
1000
0100
,
0010
0000
0010
0100
0001
0000
0001
0010
,
0100
1000
0010
0100
1000
0000
1000
0100
,
0010
0000
1000
0100
0010
0000
0220
0000
,
0330
0000
0000
0000
0100
0000
0010
2000
,
3000
0200
0000
0300
0001
0020
0000
0130
,
0000
0200
0000
0000
0301
0000
0001
0020
,
0030
0200
0300
0001
1000
0100
1000
0002
,
0000
0013
0000
0000
1000
0000
1000
0100
,
0010
0000
0010
0100
1000
0000
0001
0010
,
0100
1000
0010
0100
1000
0000
1000
0100
,
0010
0000
1000
0100
0110
0000
0220
0000
,
0330
0000
1010
0000
1020
0000
0000
0100
,
0000
0000
0001
0000
0000
0100
0000
0000
,
0100
0000
0130
0000
1000
0100
0010
0001
,
0100
0010
1000
0000
0100
0000
0010
0000
,
0001
2002
0000
0000
,
0000
3003
0000
0000
;

//--------------- dance-single - Blood4Fame ----------------
#NOTES:
     dance-single:
     Blood4Fame:
     Hard:
     9:
     0,0,0,0,0:
0000
0000
0000
1000
0001
0000
0000
0000
,
0000
0000
0000
0000
,
0000
0000
0000
0010
0101
0000
0010
1000
,
0000
0100
0000
0010
0001
0010
0001
0100
,
0000
0100
0010
0000
0100
1000
0100
0010
,
0000
0100
1000
0000
1000
0200
0000
2300
,
0000
3020
0030
0000
1000
0000
1000
0100
,
0010
0000
0010
0000
0001
0000
0001
0010
,
0100
1000
0010
0100
1000
0000
1000
0100
,
0010
0000
1000
0100
0110
0000
0220
0000
,
0330
0000
0011
0000
0001
1000
0100
0010
,
0001
0100
0010
1000
0100
0010
0000
0000
,
0100
0010
0110
0000
0022
0033
0000
0011
,
0010
0001
0010
0200
0000
1300
0200
0000
,
0300
1000
0100
0000
1100
0000
1100
0000
,
1000
0010
0100
0001
0000
0010
2000
0000
,
0100
0000
3100
0000
0022
0033
0000
0011
,
0010
0001
0010
0200
0000
1300
0200
0000
,
0300
1000
0100
0000
1100
0000
1100
0000
,
1000
0010
0000
0020
0000
0000
0000
0000
,
0030
0100
0001
0000
0100
1000
0100
1000
,
0001
0000
0100
0010
0001
0020
0030
0000
,
0000
0000
0000
1000
0200
0300
0010
0001
,
0010
0100
0010
0001
0002
0003
0010
0001
,
0100
0100
0000
0100
0002
0003
1000
0010
,
0100
0010
1000
0001
0100
0200
0000
0320
,
0000
0000
1030
0200
0300
0011
0000
0022
,
0000
0000
0000
0033
0100
1000
0100
1000
,
0000
1000
0001
0100
0001
0100
0010
1000
,
0000
1000
0100
0010
0001
0200
0000
0300
,
0000
0000
0000
1000
0100
0100
0010
0001
,
0100
0001
1000
0010
1010
0000
0110
0000
,
0101
1000
0000
0001
0010
0100
1000
0100
,
0010
0100
0010
0001
1000
0200
0300
0020
,
0000
0000
0130
1000
0000
1100
0000
0022
,
0000
0000
0000
0033
2200
0000
3300
2020
,
0000
3030
1001
0000
0010
0100
0000
0200
,
0000
0000
0001
0000
0000
0001
0300
0100
,
0000
0100
0000
0100
0001
1000
0000
0020
,
0000
0000
0100
0000
0000
0100
0000
0030
,
0100
0000
0100
0000
0001
0010
0000
0022
,
0000
0003
0001
0000
0000
0001
0000
0030
,
1000
0000
0000
1000
0100
0010
0001
0002
,
0003
0020
0030
0001
0020
0000
0000
0000
,
0130
0010
0000
0000
1001
0000
0001
0110
,
0000
1100
0000
0022
0000
0000
0000
0000
,
0000
0033
0000
0000
2200
3300
0000
2020
,
3030
0000
1001
0000
0000
0120
0000
0000
,
0200
0000
0000
0330
0101
0000
0010
2000
,
0000
3200
0000
0310
0001
0020
0000
0230
,
0300
0200
0000
0000
1300
0000
0001
0020
,
0000
0230
0000
0300
1000
0100
1000
0002
,
0000
0013
0000
0000
1000
0000
1000
0100
,
0010
0000
0010
0100
1000
0000
0001
0010
,
0100
1000
0010
0100
0001
0000
1000
0100
,
0010
0000
0001
0100
0110
0000
0220
0000
,
0330
0000
0000
0000
0101
0000
0010
2000
,
0000
3200
0000
0300
0001
0200
0000
0320
,
0030
0200
0000
0000
0301
0000
0001
0020
,
0000
0032
0000
1003
0010
0100
0001
2000
,
0000
3010
0000
0000
1000
0000
1000
0100
,
0010
0000
0010
0100
1000
0000
0001
0010
,
0100
0001
0100
0010
1000
0000
1000
0100
,
0010
0000
0001
0100
0110
0000
0220
0000
,
0330
0000
1010
0000
1010
1000
0010
0100
,
1000
0100
0010
1000
0100
0010
0000
0000
,
0100
0010
0110
0000
1000
0100
0010
0001
,
0100
0010
1000
0000
0100
0000
0010
0000
,
0001
0000
1002
2000
0000
0000
0000
0000
,
0000
3003
0000
0000
;
