#TITLE:Sweet Disposition;
#SUBTITLE:;
#ARTIST:The Temper Trap;
#TITLETRANSLIT:;
#SUBTITLETRANSLIT:;
#ARTISTTRANSLIT:;
#GENRE:Rock;
#CREDIT:Blood4Fame;
#MUSIC:music.mp3;
#BANNER:banner.png;
#BACKGROUND:bg.png;
#CDTITLE:;
#SAMPLESTART:66.964;
#SAMPLELENGTH:27.555;
#SELECTABLE:YES;
#OFFSET:-0.375;
#BPMS:0.000=129.000
,24.000=132.000
,28.000=128.000
,40.000=129.000
,76.000=130.000
,80.000=129.000
,100.000=128.000
,108.000=129.000
,112.000=130.000
,116.000=129.000
,172.000=130.000
,192.000=129.000
,200.000=130.000
,204.000=128.000
,208.000=131.000
,212.000=130.000
,216.000=132.000
,220.000=136.000
,222.000=129.000
,236.000=131.000
,240.000=130.000
,248.000=131.000
,252.000=129.000
,260.000=130.000
,268.000=131.000
,276.000=129.000
,288.000=131.000
,292.000=130.000
,300.000=129.000
,308.000=130.000
;
#STOPS:;
#BGCHANGES:-0.375=video.avi=1.000=1=0=1;
#FGCHANGES:;

//--------------- dance-single - Blood4Fame ----------------
#NOTES:
     dance-single:
     Blood4Fame:
     Easy:
     3:
     0,0,0,0,0:
0000
0000
0000
0000
,
0000
0000
0000
0000
,
0000
0000
0000
0000
,
0000
0000
0000
0000
,
0000
0000
0000
0000
,
0000
0000
0000
0000
,
0000
0000
0000
0000
,
0000
0000
0000
0000
,
2000
0000
0000
0000
,
0000
0000
0000
3000
,
0002
0000
0000
0000
,
0000
0000
0000
0003
,
0200
0000
0000
0000
,
0000
0000
0000
0300
,
0020
0000
0000
0000
,
0000
0030
2000
3000
,
0200
0000
0000
0000
,
0000
0000
0000
0300
,
0020
0000
0000
0030
,
0002
0000
0000
0003
,
2000
0000
0000
3001
,
0200
0000
0000
0301
,
0020
0000
0000
0031
,
2000
0000
0000
3100
,
0002
0000
0000
1003
,
0200
0000
0000
1300
,
0020
0000
0000
1030
,
0002
0000
0000
0103
,
2000
0000
3100
0110
,
0002
0000
0103
0110
,
2000
0000
3001
1001
,
0020
0000
0130
0110
,
0002
0000
0103
0101
,
0020
0000
1030
1010
,
2000
0000
3100
1100
,
0020
0000
0031
0011
,
0100
0000
0100
0000
,
0100
0000
0100
0000
,
1000
0000
1000
0000
,
0001
0000
0001
0000
,
0010
0010
0010
0010
,
0010
0010
0010
0010
,
1000
1000
1000
1000
,
1000
1000
1000
1000
,
0001
0000
0100
0001
,
0100
0000
1000
0100
,
1000
0000
0010
0100
,
0010
0000
0001
0010
,
0001
0000
1000
0010
,
1000
0000
0100
1000
,
0100
0000
0010
0001
,
0010
0000
0010
1000
,
0010
0000
0100
0001
,
0100
0000
0010
0100
,
0010
0000
1000
0100
,
1000
0000
0001
0100
,
0001
0000
0001
0010
,
0001
0000
1000
0100
,
1000
0000
0010
0100
,
0010
0000
0001
1000
,
0100
0000
0100
0000
,
0010
0000
0010
0000
,
0100
0000
0100
0000
,
0010
0000
0010
0000
,
0001
0001
0001
0000
,
1000
1000
1000
0000
,
0001
0001
0001
0000
,
0100
0100
0100
0000
,
0010
0010
0010
1000
,
0001
0001
0001
0100
,
1000
1000
1000
0100
,
1000
1000
1000
0010
,
0100
0010
1000
0001
,
0100
0001
1000
0010
,
0100
1000
0001
0010
,
0100
0001
0100
0010
,
1000
0000
0001
0000
,
1000
0000
0001
0000
,
0200
0000
0000
0300
,
0200
0000
0000
0000
,
0310
0000
0000
0000
;

//--------------- dance-single - Blood4Fame ----------------
#NOTES:
     dance-single:
     Blood4Fame:
     Medium:
     6:
     0,0,0,0,0:
0000
0000
0000
0000
,
0000
0000
0000
0000
,
0000
0000
0000
0000
,
0000
0000
0000
0000
,
0000
0000
0000
0000
,
0000
0000
0000
0000
,
0000
0000
0000
0000
,
0000
0000
0000
0000
,
1000
2000
0100
0100
,
0001
3000
0100
0100
,
0001
0000
0100
1000
,
0100
0000
0010
0100
,
2000
0000
0100
0100
,
0010
3000
0001
0001
,
0200
0000
1000
1000
,
0001
0300
0100
0100
,
0020
0000
0100
0001
,
1000
0000
1000
1030
,
0010
0000
0001
0001
,
1000
0000
1000
1000
,
0010
0001
0100
0101
,
1000
0010
0100
0101
,
1000
0010
0100
1100
,
1000
0100
1000
0011
,
0001
0100
0010
1010
,
0100
0010
0100
1001
,
0001
0100
0010
1010
,
0100
0010
0100
1001
,
0110
0000
0000
0001
0000
0000
0100
0000
0010
0000
0000
0000
1010
0000
0000
0000
,
0100
0000
0000
0010
0000
0000
0100
0000
0001
0000
0000
0000
1001
0000
0000
0000
,
0010
0000
0000
0100
0000
0000
0010
0000
1000
0000
0000
0000
1100
0000
0000
0000
,
0001
0000
0000
0100
0000
0000
0010
0000
1000
0000
0000
0000
0101
0000
0000
0000
,
1000
0100
1000
1100
,
0001
0100
0001
0101
,
1000
0001
1000
1001
,
2102
3003
1001
0101
,
1002
1000
1003
1001
,
2100
0100
3100
1100
,
0210
0010
0310
0110
,
0011
0021
0130
0010
,
1100
0000
1000
0100
1000
0100
1000
0000
,
0101
0000
0001
0100
0001
0100
0001
0000
,
1001
0000
1000
0001
1000
0001
1000
0000
,
0110
0000
0010
0100
0010
0100
0010
0000
,
1000
0000
0001
0000
1000
0000
0000
0000
1000
0000
0000
1000
0000
0010
0000
0000
,
0010
0000
0100
0000
0010
0000
0000
0000
0001
0000
0000
0010
0000
0100
0000
0000
,
0100
0000
0010
0000
0100
0000
0000
0000
0001
0000
0000
0001
0000
1000
0000
0000
,
1000
0100
0010
0001
0000
0001
0010
0001
,
0100
0000
0000
0000
0100
0000
0001
0000
0100
0000
0000
0001
0000
1000
0000
0000
,
1000
0000
0000
0000
1000
0000
0010
0000
0100
0000
0000
0100
0000
0001
0000
0000
,
0100
0000
0000
0000
0010
0000
1000
0000
0100
0000
0000
0100
0000
0010
0000
0000
,
0100
0010
0000
0001
0000
0001
0100
0000
,
0001
0000
0000
0000
0010
0000
0001
0000
0010
0000
0000
0010
0000
0001
0000
0000
,
1000
0000
0000
0000
1000
0000
0010
0000
1000
0000
0000
1000
0000
0001
0000
0000
,
0100
0000
0000
0000
0100
0000
0010
0000
1000
0000
0000
1000
0000
0100
0000
0000
,
1000
0000
0010
0100
0010
0000
0010
0000
,
1000
0000
0000
0000
1000
0000
0010
0000
1000
0000
0000
1000
0000
0010
0000
0000
,
0100
0000
0000
0000
0001
0000
0010
0000
0100
0000
0000
0100
0000
0010
0000
0000
,
0100
0000
0000
0000
1000
0000
0100
0000
1000
0000
0000
1000
0000
0100
0000
0000
,
0010
0000
0010
0001
0010
0000
0001
0100
,
0010
1000
0200
0300
,
2000
3000
0002
0003
,
0100
0010
0200
0300
,
0002
0003
0020
0030
,
1000
0000
0000
0000
0100
0000
0000
0000
2000
0000
0000
0001
3000
0001
0000
0000
,
0100
0000
0000
0000
0010
0000
0000
0000
2000
0000
0000
0100
3000
0100
0000
0000
,
1000
0000
0000
0000
0100
0000
0000
0000
0020
0000
0000
0001
0030
0001
0000
0000
,
0100
0000
0000
0000
0010
0000
0000
0000
0020
0000
0000
1000
0030
1000
0000
0000
,
0100
0000
0000
0000
1100
0000
0000
0000
0002
0000
0000
0100
0003
0100
0000
0000
,
0010
0000
0000
0000
1010
0000
0000
0000
0200
0000
0000
0010
0300
0010
0000
0000
,
1000
0000
0000
0000
0110
0000
0000
0000
2000
0000
0000
0001
3000
0001
0000
0000
,
0010
0000
0000
0000
0101
0000
0000
0000
0020
0000
0000
0001
0030
0001
0000
0000
,
0100
0000
0000
0000
1010
0000
0000
0000
2000
0000
0000
0100
3000
0100
0000
0000
,
1000
0000
0000
0000
1001
0000
0000
0000
0020
0000
0000
0001
0030
0001
0000
0000
,
0100
0010
2000
3000
1000
0100
0020
0030
,
0100
0010
0002
0003
0001
0100
0020
0030
,
1000
0000
0001
0000
0100
0000
0010
0000
2000
0000
0000
0100
0000
0100
3000
0000
,
1000
0000
0010
0000
1000
0000
0100
0000
0020
0000
0000
0001
0030
0001
0000
0000
,
0100
0000
0000
0000
0010
0000
0000
0000
1000
0000
0000
0001
0000
0001
0000
0000
,
0100
0000
0000
0000
0010
0000
0000
0000
1000
0000
0000
0100
0000
0100
0000
0000
,
0010
0000
0000
0000
;

//--------------- dance-single - Blood4Fame ----------------
#NOTES:
     dance-single:
     Blood4Fame:
     Hard:
     8:
     0,0,0,0,0:
0000
0000
0000
0000
,
0000
0000
0000
0000
,
0000
0000
0000
0000
,
0000
0000
0000
0000
,
0000
0000
0000
0000
,
0000
0000
0000
0000
,
0000
0000
0000
0000
,
0000
0000
0000
0000
,
0100
0100
0100
0100
,
0100
0000
0100
0000
0100
0000
0100
0002
,
0100
0000
0100
0000
0103
0000
0100
0020
,
0100
0000
0130
0000
0100
0001
0100
0020
,
0000
0000
0100
0000
0100
0000
0100
1000
,
0100
0000
0130
0000
0100
0010
1000
0002
,
0100
0000
0100
0000
0100
0010
0100
0000
,
0100
0100
0023
0100
,
0130
0000
0000
0100
0020
0000
0000
0000
0100
0000
0000
0000
0100
0000
0000
0000
,
0100
0000
0100
0000
0100
0000
0100
1000
,
0130
0000
0100
0000
0100
0010
0100
0000
,
0100
0001
0100
1000
0100
0010
0100
0000
,
0100
0001
0100
0000
0010
0000
1000
0000
0010
0000
0100
0000
0101
0000
0000
0000
,
1000
0100
1000
0000
0010
0000
1000
0000
0100
0000
0010
0000
0011
0000
0000
0000
,
0100
0010
0100
0000
0001
0000
0010
0000
0001
0000
1000
0000
1100
0000
0000
0000
,
1000
0001
1000
0000
0100
0000
0010
0000
0001
0000
1000
0000
1010
0000
0000
0000
,
0001
0100
0001
0000
1000
0000
0010
0000
1000
0000
0100
0000
0110
0000
0000
0000
,
0010
0001
0010
0000
0100
0000
1000
0000
0001
0000
1000
0000
1001
0000
0000
0000
,
0010
0001
0010
0000
0100
0000
0001
0000
0100
0000
0010
0000
0011
0000
0000
0000
,
1000
0100
1000
0000
0010
0000
0100
0000
0001
0000
0010
0000
0011
0000
0000
0000
,
1000
0100
1000
0001
0000
0100
0000
0010
0000
1000
0000
0100
0010
0000
0000
0000
,
0001
0100
0001
1000
0000
0100
0000
0010
0000
0001
0000
0100
0010
0000
0000
0000
,
1000
0010
1000
0001
0000
0010
0000
0100
0000
1000
0000
0010
0100
0000
0000
0000
,
0001
0010
0001
1000
0000
0010
0000
0100
0000
0001
0000
0010
0100
0000
0000
0000
,
0010
0001
0010
0100
0010
0000
0001
0000
0100
0000
0000
0000
1010
0000
0000
0000
,
0010
1000
0010
0100
0010
0000
1000
0000
0100
0000
0000
0000
0011
0000
0000
0000
,
0100
0001
0100
0010
0100
0000
0001
0000
0010
0000
0000
0000
1100
0000
0000
0000
,
0100
1000
0100
0010
0100
0000
1000
0000
0010
0000
0000
0000
0101
0000
1000
0000
,
0001
0000
0000
1000
0000
0000
1000
0000
0100
0000
0010
0000
0001
0000
1000
0000
,
0001
0000
0001
0010
0100
0000
0001
0100
,
0001
0000
0001
1000
0100
0000
0100
1000
,
0001
0000
0001
0100
0001
0010
0000
0010
,
0001
1000
0001
0100
0001
0100
0010
1000
,
0001
0000
0001
1000
0010
0000
0010
1000
,
0100
1000
0001
0100
0001
0100
0010
0100
,
0001
0000
0000
0000
1000
0000
0100
0000
0010
0000
0001
0000
0010
0100
0010
0001
,
0010
0000
0001
0000
1000
0000
0001
0000
0100
0000
0010
1000
0000
1000
0000
0000
,
0100
0000
0001
0000
0100
0000
0010
0000
0001
0000
0100
0001
0000
0001
0000
0000
,
0100
0000
0010
0000
1000
0000
0010
0000
0100
0000
0001
0100
0000
0100
0000
0000
,
0001
0000
0010
0000
0100
0000
1000
0000
0010
0000
0100
0010
0000
0010
0000
0000
,
1000
0000
0100
0000
1000
0000
0001
0000
0010
0000
0001
1000
0000
1000
0000
0000
,
1000
0000
0001
0000
0010
0000
0100
0000
0010
0000
0001
0100
0000
0100
0000
0000
,
0010
0000
0100
0000
0010
0000
1000
0000
0100
0000
1000
0001
0000
0001
0000
0000
,
1000
0000
0001
0000
0010
0000
0001
0000
0100
0000
0010
1000
0100
0000
0100
0010
,
0001
0010
0000
0000
0011
0000
0000
0000
0001
0000
0100
0010
0000
0010
0000
0000
,
1010
0000
0000
0000
1001
0000
0000
0000
0001
0000
1000
0100
0000
0100
0000
0000
,
0010
0000
0001
0000
0100
0000
0010
1000
0010
0000
0100
0001
0000
0001
1000
0000
,
0000
0000
2000
0000
0000
0000
3200
0000
0000
0000
0000
0310
0001
0010
0001
0000
,
1000
0000
0001
0000
0100
0000
0010
0000
1000
0000
1000
0010
0000
0010
0000
0000
,
0100
0000
0010
0000
1000
0000
0001
0000
0010
0000
0100
0010
0000
0010
0000
0000
,
0001
0000
0100
0000
0001
0000
0010
0000
0100
0000
1000
0100
0000
0100
0020
0000
,
0030
0000
0002
0000
0003
0000
0200
0000
0000
0000
0301
0100
0000
0001
0100
0000
,
0010
0000
0100
0000
0010
0000
1000
0000
0100
0000
0010
0001
0000
0001
0000
0000
,
0100
0000
0001
0000
0100
0000
0010
0000
1000
0000
0001
0100
0000
0100
0000
0000
,
0001
0000
1000
0000
0010
0000
1000
0000
0100
0000
0000
0010
0001
0000
1000
0000
,
0000
0000
1100
0000
0000
0000
1010
0000
0000
0000
0100
0001
0000
0001
0010
0000
,
0001
0000
0100
0000
0001
0000
0010
0000
0100
0010
0001
0100
0000
0100
0000
0000
,
0001
0000
1000
0000
0100
0000
1000
0000
0001
0010
0100
1000
0000
1000
0000
0000
,
0100
0000
1000
0000
0010
0000
1000
0000
0100
0010
0001
0100
0000
0000
0001
0000
,
0000
0000
0101
0000
0000
0000
0011
0000
0000
0000
0100
0010
0000
0100
0010
0000
,
0001
0000
0000
0010
0000
0000
0100
0000
1000
0000
0000
1000
0100
1000
0000
0000
,
0010
0000
0000
0100
0000
0000
0010
0000
1000
0000
0000
0001
0100
0001
1000
0000
,
0100
0000
0000
1000
0001
0000
0000
1100
,
0000
0000
0011
0000
0000
0000
0101
0000
0000
0000
0010
1000
0000
0010
1000
0000
,
0100
0000
1000
0000
0010
0000
1000
0000
0100
0000
0010
0001
0000
0100
0001
0000
,
1000
0000
0100
0000
1000
0000
0010
0000
0100
0000
0001
0010
0000
0100
0010
0000
,
0002
0000
1000
0000
1000
0000
0000
0000
0100
0000
0000
0010
0003
0010
0002
0000
,
0000
2003
0000
3020
0000
0000
0230
0301
,
0000
0000
0002
0000
1000
0000
0000
0000
0100
0000
0000
0100
0000
0103
0000
0000
,
2000
0000
0000
0000
0100
0000
0000
0000
0001
0000
0000
0100
0000
3100
0000
0000
,
0010
0000
0000
0000
0001
0000
0000
0000
0100
0000
0000
0010
0100
0010
0000
0000
,
1000
0000
0000
0000
0100
0000
0000
0000
1000
0000
0000
0010
0100
0010
0000
1000
,
0100
0000
0000
0000
;
