#TITLE:Such Great Heights;
#SUBTITLE:;
#ARTIST:The Postal Service;
#TITLETRANSLIT:;
#SUBTITLETRANSLIT:;
#ARTISTTRANSLIT:;
#GENRE:Pop;
#CREDIT:Blood4Fame;
#MUSIC:music.mp3;
#BANNER:banner.png;
#BACKGROUND:bg.png;
#CDTITLE:;
#SAMPLESTART:0.000;
#SAMPLELENGTH:0.000;
#SELECTABLE:YES;
#OFFSET:-0.083;
#BPMS:0.000=87.511;
#STOPS:;
#BGCHANGES:;
#FGCHANGES:;

//--------------- dance-single - Blood4Fame ----------------
#NOTES:
     dance-single:
     Blood4Fame:
     Easy:
     3:
     0,0,0,0,0:
0000
0000
0000
0000
,
0000
0000
0000
0000
,
0000
0000
0000
0000
,
0000
0000
0000
0000
,
0200
0000
0000
0000
0000
0000
0000
0300
,
2000
0000
0000
0000
0000
0000
0000
3000
,
0002
0000
0000
0000
0000
0000
0000
0003
,
0200
0000
0000
0000
0000
0000
0000
0300
,
2000
0000
0000
0000
0000
0000
0000
3000
,
0002
0000
0000
0000
,
0000
0100
0000
0000
0000
0100
0000
0003
,
0000
0100
0000
0100
0000
0100
0000
0010
,
0000
1000
0000
1000
0000
1000
0000
0010
,
0000
0001
0000
0001
0000
0001
0000
0010
,
0000
0100
0000
0100
0000
0010
0000
1000
,
0000
0001
0000
0001
0000
0001
0000
0010
,
0000
0100
0000
0100
0000
0100
0000
0010
,
0000
1000
0000
1000
0000
1000
0000
0010
,
0000
0001
0000
0001
0000
0100
0000
0010
,
0000
1000
0000
1000
0000
1000
0000
0010
,
0000
0100
0000
0100
0000
0100
0000
0010
,
0000
0001
0000
0001
0000
0001
0000
0010
,
0000
1000
0000
1000
0000
1000
0000
0010
,
0000
0100
0000
0100
0000
0100
0000
0010
,
0000
0100
0000
0100
0000
0100
0000
0010
,
0000
1000
0000
1000
0000
1000
0000
0010
,
0000
0001
0000
0001
0000
0001
0000
0010
,
0100
0000
0100
0000
0001
0000
0000
1000
,
0000
0010
0000
0100
0000
0000
0000
0001
,
0000
0100
0000
0000
0000
0000
0010
0000
,
1000
0000
0001
0000
,
0100
0000
0100
0000
0010
0000
0000
0010
,
0000
1000
0000
1000
0000
0001
0000
0001
,
0000
0100
0000
0000
0000
0100
0000
0010
,
0000
1000
0000
1000
0000
0001
0000
0001
,
0000
0100
0000
0100
0000
0100
0100
0100
,
0000
0010
0000
0010
0000
0010
0010
0010
,
0000
1000
0000
1000
0000
1000
1000
1000
,
0000
0001
0000
0001
0000
0001
0001
0001
,
0000
0010
0000
0010
0000
0010
0010
0010
,
0000
0100
0000
0100
0000
0100
0100
0100
,
0000
1001
0000
0100
0010
0000
0010
0000
,
1000
0000
0000
0001
0000
0100
0000
0010
,
0000
0000
0000
1000
0000
0010
0000
0000
,
0000
0100
0001
0000
,
1000
0000
0010
0010
,
0100
0000
0000
0100
0000
0001
0000
0001
,
0000
1000
0000
1000
0000
0010
0000
0000
,
0000
0010
0000
0100
0000
0001
0000
0001
,
0000
1000
0000
1000
0100
0000
0100
0000
,
0100
0000
0000
0010
0000
0001
0000
0010
,
0000
0100
0000
1000
0000
0100
0000
0000
,
0000
0000
0100
0100
,
0100
0000
0000
0010
0000
1000
0000
0010
,
0000
0100
0000
0001
0000
0100
0000
0000
,
0000
0000
0000
0000
0000
0100
0000
0100
,
0000
0100
0100
0100
0000
0000
0000
0000
;

//--------------- dance-single - Blood4Fame ----------------
#NOTES:
     dance-single:
     Blood4Fame:
     Medium:
     5:
     0,0,0,0,0:
1000
1000
0010
0010
,
0100
0000
0000
0000
0100
0000
0000
0000
0100
0000
0000
0000
0100
0000
0001
0010
,
0001
0001
0010
0010
,
0001
0001
0010
0010
,
0200
0000
0000
0000
,
0302
0000
0000
0000
,
2003
0000
0000
0000
,
3200
0010
0000
0010
0000
0010
0000
0310
,
0002
0000
1000
0000
0000
0000
1000
0000
0000
0000
1000
0000
0000
0000
1003
0001
,
2000
0100
0000
0100
0000
0100
0000
0100
,
0000
0000
0100
0000
0000
0000
0010
0000
0000
0000
3010
0000
0000
0110
0000
0010
,
0001
0000
0100
0000
0001
0000
0100
0000
0001
0000
0100
0000
0001
0000
0100
0001
,
0010
0000
0100
0000
0010
0000
0100
0000
0010
0000
0100
0000
0010
0000
0100
0010
,
0001
0000
1000
0000
0001
0000
1000
0000
0001
0000
1000
0000
0001
0000
1000
0010
,
0100
0000
0010
0000
0100
0000
0010
0000
1000
0000
0001
0000
1000
0000
0001
1000
,
0001
0000
0100
0000
0001
0000
0100
0000
0001
0000
0100
0000
0001
0000
0100
0001
,
0010
0000
0100
0000
0010
0000
0100
0000
0010
0000
0100
0000
0010
0000
0100
0010
,
0001
0000
1000
0000
0001
0000
1000
0000
0001
0000
1000
0000
0001
0000
1000
0010
,
0100
0000
0010
0000
0100
0000
0010
0000
1000
0000
0001
0000
1000
0000
0001
1000
,
0001
0010
0100
2000
0000
0100
0000
3100
,
1000
0100
0010
0002
0000
0100
0000
0013
,
0100
0000
0010
0000
0001
0000
2000
0000
0000
0000
0100
0000
0000
0000
3001
0200
,
0000
0010
0000
0010
0000
0001
0000
0301
,
0001
0010
0100
2000
0000
0100
0000
3100
,
1000
0100
0010
0002
0000
0100
0000
0013
,
0100
0000
0010
0000
0001
0000
2000
0000
0000
0000
0100
0000
0000
0000
3001
0200
,
0000
0010
0000
0010
0000
0001
0000
0301
,
1000
0100
0010
0001
0100
0010
1000
0100
,
0000
0000
0010
0000
0000
0000
0002
0000
0003
0000
0200
0000
0000
0300
0020
0000
,
0000
0030
2000
0000
0000
0000
3000
0000
0000
0000
0000
0000
0020
0000
0030
2000
,
0000
0000
0000
0000
3000
0000
0000
1000
,
0001
0100
0010
1000
0100
0010
0001
0200
,
0000
0300
0020
0000
0000
0030
2000
0000
3000
0000
0200
0000
0000
0300
0020
0000
,
0000
0030
0002
0000
0000
0000
0003
0000
0000
0000
0010
0000
0000
0000
0002
0000
,
0000
0003
2000
0000
0000
0000
0000
3100
2000
0000
0000
0000
0000
0000
3000
0000
,
0000
0000
1000
0000
0000
0000
1000
0000
0000
0000
1000
0000
2000
0000
3100
0010
,
0000
0000
0001
0000
0000
0000
0001
0000
0000
0000
0001
0000
0001
0000
0100
0010
,
0000
0000
0010
0000
0000
0000
0010
0000
0000
0000
0010
0000
0020
0000
0130
0001
,
0000
0000
1000
0000
0000
0000
1000
0000
0000
0000
1000
0000
2000
0000
3100
0010
,
0000
0000
0001
0000
0000
0000
0001
0000
0000
0000
0001
0000
0001
0000
0100
0010
,
0000
0000
0010
0000
0000
0000
0010
0000
0000
0000
0010
0000
0020
0000
0130
0001
,
0000
0000
1001
0000
0000
0100
0000
0100
0001
0000
0100
0000
0010
0000
1000
0000
,
0100
0010
0001
0100
0000
0010
0000
2000
,
3000
0000
0200
0000
0000
0300
0020
0000
0000
0030
0002
0000
0000
0000
0003
0000
,
0000
0000
0000
0000
0020
0000
0030
0002
0000
0000
0000
0000
0000
0000
0000
0000
,
0003
0000
0000
0001
1000
0100
0010
0001
,
0100
0000
0010
0000
1000
0000
0200
0000
0000
0300
0020
0000
0000
0030
0002
0000
,
0003
0000
0200
0000
0000
0300
0020
0000
0000
0030
2000
0000
0000
0000
3000
0000
,
0000
0000
0010
0000
0000
0000
2000
0000
0000
3000
0002
0000
0000
0000
0000
0103
,
0002
0000
0000
0003
0100
0000
0100
0000
,
0100
0000
0100
0100
0000
0001
0000
0100
,
0000
0010
0000
1000
0000
1000
0000
0100
,
0000
0010
0001
0001
0010
0000
0010
0000
,
0010
0000
0010
0010
0000
1000
0000
0010
,
0000
0000
0200
0000
0000
0300
0002
0000
0000
0003
0002
0000
0000
0003
0010
0000
,
0000
0100
1000
1000
0000
0001
0000
0001
,
0000
0002
0010
0013
0000
0000
0000
0000
;

//--------------- dance-single - Blood4Fame ----------------
#NOTES:
     dance-single:
     Blood4Fame:
     Hard:
     8:
     0,0,0,0,0:
0100
0100
0100
0100
1000
1000
1000
1000
,
0001
0000
0001
0000
0001
0000
0001
0000
0001
0000
0001
0000
0001
0000
0001
0010
,
0100
0100
0100
0100
1000
1000
1000
1000
,
0100
0100
0100
0100
1000
1000
1000
1000
,
0201
0000
0001
0000
0001
0000
0001
0000
0001
0000
0001
0000
0301
0000
0001
0020
,
0100
0000
0100
0000
0100
0030
0200
0000
1000
0000
1000
0000
1000
0000
1300
0000
,
2100
0100
0100
3100
1000
1001
1000
1001
,
0001
0000
1001
0000
0001
0000
1001
0000
0001
0000
1001
0000
0001
0000
0001
0010
,
0100
0000
0110
0000
1000
0000
1010
0000
0100
0000
1010
0000
0001
1000
0010
0000
,
0100
0000
0000
0000
0101
0000
0000
0000
0001
0000
0000
0000
0110
0000
0000
0000
0100
0000
0000
0000
1010
0000
0000
0000
0100
0000
0000
0000
1010
0000
0000
0100
,
0001
0000
0011
0000
1000
0001
0100
0000
1000
0001
0100
0100
0000
0101
0000
0001
,
0100
0010
0100
0000
0001
0000
0010
0000
0100
0010
0100
0000
0001
0000
1000
0010
,
0000
0000
0100
0000
0110
0000
0110
0000
1000
0000
0100
0000
0010
0001
0010
0100
,
0000
0000
1100
0000
0001
0000
1100
0000
0010
0001
0000
0001
0000
0100
0000
0000
,
0001
1000
0000
0100
0000
0010
0000
0000
0001
0100
0000
0010
0000
1000
0000
0010
,
0100
0000
0110
0000
0001
0000
0110
0000
0001
0000
0100
0000
0010
0000
0010
1000
,
0000
0000
0100
0000
0010
0000
0001
0000
0110
0000
1000
0000
0001
1000
0100
0010
,
0000
0000
0011
0000
1000
0000
1001
0000
1000
0010
0000
0100
0000
0001
0000
0100
,
0000
0000
0100
0000
1000
0100
0000
0000
0010
0000
1000
0100
0000
0010
0000
0100
,
1000
0000
0001
0000
0100
0000
0020
0000
0000
0000
1000
0000
0000
0000
1030
0001
,
0100
0000
0010
0000
1000
0000
0200
0000
0000
0000
0010
0000
0000
0000
0310
0100
,
1000
0000
0100
0000
0001
0000
0200
0000
0000
0000
1000
0000
0000
0000
1300
0100
,
0000
0000
0010
0000
0001
0100
0000
0000
0010
0000
1000
0100
0000
0010
0000
0001
,
1000
0000
0001
0000
0100
0000
0020
0000
0000
0000
1000
0000
0000
0000
1030
0001
,
0100
0000
0010
0000
1000
0000
0200
0000
0000
0000
0010
0000
0000
0000
0310
0100
,
1000
0000
0100
0000
0001
0000
0200
0000
0000
0000
1000
0000
0000
0000
1300
0100
,
0000
0000
0010
0000
0001
0100
0000
0000
0010
0000
1000
0100
0000
0010
0000
0001
,
1000
0100
1000
0001
1000
0100
0010
0000
0010
0000
0001
0000
0010
0001
0100
0000
,
0100
0010
0100
0001
1000
0001
1000
0010
1000
0000
2200
0000
3300
0000
0022
0000
,
0033
0000
2010
0000
0000
0000
0001
0000
0001
0000
3001
0000
1000
0100
0000
0020
,
0000
0000
0001
0030
0000
1000
0001
0000
0000
1000
0001
0100
0000
0100
0000
0100
,
0001
0100
0001
1000
0001
0100
0010
0000
0010
0000
1000
0000
0010
1000
0100
0000
,
0100
0010
0100
1000
0001
1000
0001
0100
0001
0000
0202
0000
0303
0000
2020
0000
,
3030
0000
0202
0000
0300
0000
1000
0000
1003
0000
1001
0000
0000
0100
1000
0020
,
0000
0000
2030
0000
0000
3001
1000
0000
0000
0001
1000
0010
0000
0010
0000
0020
,
0000
0000
1000
0000
1030
0000
1000
0000
1000
0000
1000
0000
1000
0010
0100
0001
,
0000
0000
0001
0000
0001
0000
0001
0000
0001
0000
0001
0000
0001
0010
0100
1000
,
0000
0000
0100
0000
0100
0000
0100
0000
0100
0000
0100
0000
0010
0001
0010
0100
,
0000
0000
1000
0000
1000
0000
1000
0000
1000
0000
1000
0000
1000
0100
0010
0001
,
0000
0000
0001
0000
0001
0000
0001
0000
0001
0000
0001
0000
0001
0100
0010
1000
,
0000
0000
0010
0000
0010
0000
0010
0000
0010
0000
0010
0000
0100
0010
0100
0001
,
0000
0000
1001
0000
0000
1010
0000
1000
0001
0100
0001
1000
0001
0100
0010
0000
,
0010
0000
1000
0000
0010
1000
0100
0000
0100
0010
0100
1000
0001
1000
0001
0100
,
0001
0202
0303
2020
3030
0012
0000
1000
,
1000
0000
1003
0000
0001
0100
0000
0020
0000
0000
1000
0030
0000
0001
1000
0000
,
0000
0001
1000
0010
0000
0010
0000
0010
1000
0100
1000
0001
1000
0100
0010
0000
,
0010
0000
0001
0000
0010
0001
0100
0000
0100
0010
0100
0001
1000
0001
1000
0100
,
1000
2200
3300
0022
0033
2200
0300
0001
,
3001
0000
1001
0000
0000
0100
0001
0020
0000
0000
0032
0000
0000
1003
0001
0000
,
0000
1000
0001
0010
0000
0010
0000
0010
0100
0000
1000
0000
0100
0000
0010
0000
,
0001
0000
0010
0000
0100
0000
1000
0001
0000
0000
0001
0000
0000
0000
0100
0000
,
0000
0000
1010
0000
0000
0000
0010
1000
0000
0000
1100
0000
0000
0000
0110
0000
,
0000
0011
0000
0000
0001
0100
0010
0100
,
0001
0000
1000
0000
0100
0000
0010
0100
0000
0000
1000
0000
0000
0000
0010
0000
,
0000
1000
0000
0001
0000
0020
0000
0100
,
0000
0000
0200
0000
0030
0310
0000
0000
0000
0000
1001
0000
0000
0000
0001
0000
,
0000
0001
1001
1001
0000
0000
0000
0000
;
