#TITLE:Space Age Love Song;
#SUBTITLE:;
#ARTIST:A Flock of Seagulls;
#TITLETRANSLIT:;
#SUBTITLETRANSLIT:;
#ARTISTTRANSLIT:;
#GENRE:Pop;
#CREDIT:Blood4Fame;
#MUSIC:Space Age Love Song.mp3;
#BANNER:Banner.png;
#BACKGROUND:BG.png;
#CDTITLE:;
#SAMPLESTART:0.000;
#SAMPLELENGTH:0.000;
#SELECTABLE:YES;
#OFFSET:-0.079;
#BPMS:0.000=138.942
,28.000=142.971
,36.000=138.902
,52.000=137.156
,68.000=137.221
,84.000=138.236
,192.000=138.362
,200.000=138.070
,208.000=137.228
,212.000=136.519
;
#STOPS:;
#BGCHANGES:-0.079=Space Age Love Song.avi=1.000=1=0=1===CrossFade==,
99999.000=-nosongbg-=1.000=0=0=0=StretchNoLoop====
;
#FGCHANGES:;

//--------------- dance-single - Blood4Fame ----------------
#NOTES:
     dance-single:
     Blood4Fame:
     Easy:
     2:
     0,0,0,0,0:
0000
0000
0000
0000
,
0000
0000
0000
0000
,
0000
0000
0000
0000
,
0000
0000
0000
0000
,
0000
0000
0000
0000
,
1000
0100
0000
0100
,
1000
0100
0000
0100
,
1000
0100
0000
0100
,
1000
0100
0000
0100
,
1000
0010
0000
0010
,
1000
0010
0000
0010
,
1000
0010
0000
0010
,
1000
0010
0000
0010
,
0001
0010
0000
0100
,
0001
0010
0000
0100
,
0001
0010
0000
0100
,
0001
0010
0000
0100
,
0001
0100
0000
0100
,
0001
0100
0000
0100
,
0001
0100
0000
0100
,
0001
0010
0000
0010
,
0001
0100
0000
0001
,
0001
0100
0000
0001
,
0001
0100
0000
0001
,
0001
0100
0000
0001
,
1000
0100
0000
1000
,
1000
0100
0000
1000
,
1000
0100
0000
1000
,
1000
0100
0000
1000
,
0001
0010
0000
0001
,
0001
0010
0000
0001
,
0001
0010
0000
0001
,
0001
0010
0000
0001
,
1000
0100
0000
1000
,
0001
0010
0000
0001
,
0001
0010
0000
0001
,
0001
0010
0000
0001
,
1000
0100
0000
1000
,
1000
0100
0000
1000
,
1000
0100
0000
1000
,
1000
0100
0000
1000
,
1000
0010
0000
1000
,
1000
0010
0000
1000
,
1000
0010
0000
1000
,
1000
0010
0000
1000
,
0001
0010
0000
0001
,
0001
0010
0000
0001
,
0001
0010
0000
0001
,
1000
0100
0000
1000
,
1000
0100
0000
1000
,
1000
0100
0000
1000
,
1000
0100
0000
1000
,
1000
0100
0000
1000
,
0011
0001
0000
0100
,
0100
0000
1000
1000
,
0001
0001
0000
0100
,
0100
0000
1000
1000
,
0001
0001
0000
0100
,
0100
0000
1000
1000
,
0001
0001
0000
0100
,
0100
0000
1000
1000
,
0001
0001
0000
0100
,
0100
0000
1000
1000
,
0001
0001
0000
0100
,
0100
0000
1000
1000
,
2002
0000
0000
0000
,
3003
0000
0000
0000
;

//--------------- dance-single - Blood4Fame ----------------
#NOTES:
     dance-single:
     Blood4Fame:
     Medium:
     7:
     0,0,0,0,0:
0000
0000
0000
0000
,
0000
0000
0000
0000
,
0000
0000
0000
0000
,
0000
0000
0000
0000
,
0000
0000
0000
0000
,
1000
0000
0100
0001
0000
0001
0100
0000
,
1000
0000
0100
0001
0000
0001
0100
0000
,
1000
0000
0100
0001
0000
0001
0100
0000
,
1000
0000
0100
0001
0000
0001
0100
0000
,
1000
0000
0010
0001
0000
0001
0010
0000
,
1000
0000
0010
0001
0000
0001
0010
0000
,
1000
0000
0010
0001
0000
0001
0010
0000
,
1000
0000
0010
0001
0000
0001
0010
0000
,
0001
0000
0010
1000
0000
1000
0100
0000
,
0001
0000
0010
1000
0000
1000
0100
0000
,
0001
0000
0010
1000
0000
1000
0100
0000
,
0001
0000
0010
1000
0000
1000
0100
0000
,
0001
0000
0100
0010
0000
0010
0100
0000
,
0001
0000
0100
0010
0000
0010
0100
0000
,
0001
0000
0100
0010
0000
0010
0100
0000
,
0001
0000
0010
0100
0000
0100
0010
0000
,
0001
0000
0000
1000
0100
0000
0001
0000
0000
1000
0100
0000
0001
0000
0000
0000
,
0001
0000
0000
1000
0100
0000
0001
0000
0000
1000
0100
0000
0001
0000
0000
0000
,
0001
0000
0000
1000
0100
0000
0001
0000
0000
1000
0100
0000
0001
0000
0000
0000
,
0001
0000
0000
1000
0100
0000
0001
0000
0000
1000
0100
0000
0001
0000
0000
0000
,
1000
0000
0000
0001
0100
0000
1000
0000
0000
0001
0100
0000
1000
0000
0000
0000
,
1000
0000
0000
0001
0100
0000
1000
0000
0000
0001
0100
0000
1000
0000
0000
0000
,
1000
0000
0000
0001
0100
0000
1000
0000
0000
0001
0100
0000
1000
0000
0000
0000
,
1000
0000
0000
0001
0100
0000
1000
0000
0000
0001
0100
0000
1000
0000
0000
0000
,
0001
0000
0000
1000
0010
0000
0001
0000
0000
1000
0010
0000
0001
0000
0000
0000
,
0001
0000
0000
1000
0010
0000
0001
0000
0000
1000
0010
0000
0001
0000
0000
0000
,
0001
0000
0000
1000
0010
0000
0001
0000
0000
1000
0010
0000
0001
0000
0000
0000
,
0001
0000
0000
1000
0010
0000
0001
0000
0000
1000
0010
0000
0001
0000
0000
0000
,
1000
0000
0000
0001
0100
0000
1000
0000
0000
0001
0100
0000
1000
0000
0000
0000
,
0001
0000
0000
1000
0010
0000
0001
0000
0000
1000
0010
0000
0001
0000
0000
0000
,
0001
0000
0000
1000
0010
0000
0001
0000
0000
1000
0010
0000
0001
0000
0000
0000
,
0001
0000
0000
1000
0010
0000
0001
0000
0000
1000
0010
0000
0001
0000
0000
0000
,
1000
0100
0100
0010
0000
0100
1000
0000
,
1000
0100
0100
0010
0000
0100
1000
0000
,
1000
0100
0100
0010
0000
0100
1000
0000
,
1000
0100
0100
0010
0000
0100
1000
0000
,
1000
0010
0010
0100
0000
0010
1000
0000
,
1000
0010
0010
0100
0000
0010
1000
0000
,
1000
0010
0010
0100
0000
0010
1000
0000
,
1000
0010
0010
0100
0000
0010
1000
0000
,
0001
0010
0010
0100
0000
0010
0001
0000
,
0001
0010
0010
0100
0000
0010
0001
0000
,
0001
0010
0010
0100
0000
0010
0001
0000
,
1000
0100
0100
0010
0000
0100
1000
0000
,
1000
0100
0100
0010
0000
0100
1000
0000
,
1000
0100
0100
0010
0000
0100
1000
0000
,
1000
0100
0100
0010
0000
0100
1000
0000
,
1000
0100
0100
0010
0000
0100
1000
0000
,
0011
0000
0001
0010
0000
0010
0100
0000
,
0100
1000
0000
1000
0100
0000
0100
0010
,
0001
0000
0001
0010
0000
0010
0100
0000
,
0100
1000
0000
1000
0100
0000
0100
0010
,
0001
0000
0001
0010
0000
0010
0100
0000
,
0100
1000
0000
1000
0100
0000
0100
0010
,
0001
0000
0001
0010
0000
0010
0100
0000
,
0100
1000
0000
1000
0100
0000
0100
0010
,
0001
0000
0001
0010
0000
0010
0100
0000
,
0100
1000
0000
1000
0100
0000
0100
0010
,
0001
0000
0001
0010
0000
0010
0100
0000
,
0100
1000
0000
1000
0100
0000
0100
0000
,
2002
0000
0000
0000
,
3003
0000
0000
0000
;

//--------------- dance-single - Blood4Fame ----------------
#NOTES:
     dance-single:
     Blood4Fame:
     Hard:
     8:
     0,0,0,0,0:
0000
0000
0000
0000
,
0000
0000
0000
0000
,
0000
0000
0000
0000
,
0000
0000
0000
0000
,
0000
0000
0000
0000
,
1000
1000
0200
0001
0000
0301
0100
0100
,
1000
0100
0200
0001
0000
0301
0100
0100
,
1000
0100
0200
0001
0000
0301
0100
0100
,
1000
0100
0200
0001
0000
0301
0100
0100
,
1000
0010
0020
0001
0000
0031
0010
0010
,
1000
0010
0020
0001
0000
0031
0010
0010
,
1000
0010
0020
0001
0000
0031
0010
0010
,
1000
0010
0020
0001
0000
0031
0010
0010
,
0001
0010
0020
0001
0000
0031
0100
0100
,
0001
0010
0020
0001
0000
0031
0100
0100
,
0001
0010
0020
0001
0000
0031
0100
0100
,
0001
0010
0020
0001
0000
0031
0100
0100
,
0001
0001
0200
1000
0000
1300
0100
0100
,
0001
0001
0200
1000
0000
1300
0100
0100
,
0001
0001
0200
1000
0000
1300
0100
0100
,
0001
0010
0020
1000
0000
1030
0010
0010
,
0001
0000
0000
1000
0100
0000
0001
0000
0000
0100
1000
0000
0001
0000
0010
0000
,
0001
0000
0000
1000
0100
0000
0001
0000
0000
0100
1000
0000
0001
0000
0010
0000
,
0001
0000
0000
1000
0100
0000
0001
0000
0000
0100
1000
0000
0001
0000
0010
0000
,
0001
0000
0000
1000
0100
0000
0001
0000
0000
0100
1000
0000
0001
0000
0010
0000
,
1000
0000
0000
0001
0100
0000
1000
0000
0000
0100
0001
0000
1000
0000
0010
0000
,
1000
0000
0000
0001
0100
0000
1000
0000
0000
0100
0001
0000
1000
0000
0010
0000
,
1000
0000
0000
0001
0100
0000
1000
0000
0000
0100
0001
0000
1000
0000
0010
0000
,
1000
0000
0000
0001
0100
0000
1000
0000
0000
0100
0001
0000
1000
0000
0010
0000
,
1000
0000
0000
0010
1000
0000
0100
0000
0000
1000
0010
0000
1000
0000
0100
0000
,
1000
0000
0000
0010
1000
0000
0100
0000
0000
1000
0010
0000
1000
0000
0100
0000
,
1000
0000
0000
0010
1000
0000
0100
0000
0000
1000
0010
0000
1000
0000
0100
0000
,
1000
0000
0000
0010
1000
0000
0100
0000
0000
1000
0010
0000
1000
0000
0100
0000
,
1000
0000
0000
0001
0100
0000
1000
0000
0000
0100
0001
0000
1000
0000
0010
0000
,
0100
0000
0000
0010
1000
0000
0001
0000
0000
1000
0010
0000
0001
0000
0100
0000
,
0001
0000
0000
1000
0010
0000
0100
0000
0000
0001
0010
0000
0001
0000
0100
0000
,
0001
0000
0000
1000
0010
0000
0100
0000
0000
0001
0010
0000
0001
0000
1000
0000
,
2000
0100
0100
3020
0000
0100
1000
1000
,
2030
0100
0100
3020
0000
0100
1000
1000
,
2030
0100
0100
3020
0000
0100
1000
1000
,
2030
0100
0100
3020
0000
0100
1000
1000
,
2030
0010
0010
3200
0000
0010
1000
1000
,
2300
0010
0010
3200
0000
0010
1000
1000
,
2300
0010
0010
3200
0000
0010
1000
1000
,
2300
0010
0010
3200
0000
0010
1000
1000
,
0302
0010
0010
0203
0000
0010
0001
0001
,
0302
0010
0010
0203
0000
0010
0001
0001
,
0302
0010
0010
0203
0000
0010
0001
0001
,
2300
0100
0100
3020
0000
0100
1000
1000
,
2030
0100
0100
3020
0000
0100
1000
1000
,
2030
0100
0100
3020
0000
0100
1000
1000
,
2030
0100
0100
3020
0000
0100
1000
1000
,
2030
0100
0100
3020
0000
0100
1000
1030
,
0021
0000
0032
0010
0000
0023
0100
0000
,
0230
1000
0000
2300
0100
0000
3200
0010
,
0301
0000
0002
0010
0000
0023
0100
0000
,
0230
1000
0000
2300
0100
0000
3200
0010
,
1300
0000
2000
0010
0000
3020
0100
0000
,
0230
0000
0001
0000
0000
0000
0002
0300
0100
0000
0000
0000
0203
0000
0010
0000
,
1300
0000
2000
0010
0000
3020
0100
0000
,
0230
0001
0000
0302
0100
0000
0203
0010
,
1300
0000
0002
0010
0000
0023
0100
0000
,
0230
1000
0000
2300
0100
0000
3200
0010
,
1300
0000
2000
0010
0000
3020
0100
0000
,
0230
0001
0000
0302
0100
0000
0103
0010
,
2002
0000
0000
0000
,
3003
0000
0000
0000
;
