#TITLE:Simple & Clean;
#SUBTITLE:-PLANITb Remix-;
#ARTIST:Utada Hikaru;
#TITLETRANSLIT:;
#SUBTITLETRANSLIT:;
#ARTISTTRANSLIT:;
#GENRE:Dance;
#CREDIT:Blood4Fame;
#MUSIC:Simple & Clean -PLANITb Remix-.mp3;
#BANNER:Banner.png;
#BACKGROUND:BG.png;
#CDTITLE:;
#SAMPLESTART:0.000;
#SAMPLELENGTH:0.000;
#SELECTABLE:YES;
#OFFSET:0.108;
#BPMS:0.000=63.138
,10.000=126.277
,38.000=63.138
,40.000=126.277
,136.000=63.129
,138.000=126.259
,170.000=63.138
,186.000=126.253
,218.000=63.138
,241.000=126.277
,245.000=252.553
,249.000=505.106
,266.000=63.138
;
#STOPS:9.979=0.485;
#DISPLAYBPM:63.000:126.000;
#BGCHANGES:;
#FGCHANGES:;

//--------------- dance-single - Blood4Fame ----------------
#NOTES:
     dance-single:
     Blood4Fame:
     Easy:
     3:
     0,0,0,0,0:
0000
0000
0000
0000
,
0000
0000
0000
0000
,
0000
0000
0010
0110
,
0000
0001
1000
1010
,
0000
1000
0101
0101
,
0000
0010
1100
1100
,
0000
0100
0010
0010
,
0000
0010
0001
0100
,
0000
0010
0010
0010
,
0000
0001
0020
0030
,
1000
1000
0000
0001
,
0010
0010
0000
0001
,
1000
1000
0000
0001
,
0100
0100
0000
0010
,
1000
0010
0000
0010
,
0010
0001
0000
1000
,
0100
0001
0000
0100
,
0100
0000
0100
0000
,
0010
0010
0000
0100
,
0000
0001
0100
0001
,
0100
0000
0000
0010
,
0000
0001
0010
0001
,
0020
0000
0000
0030
0000
0000
0000
0000
,
0010
0000
0020
0030
0020
0030
0200
0300
,
0020
0030
0000
0000
0000
0000
0000
0000
,
0010
0000
1000
0020
,
1030
0000
0000
0001
,
0001
0000
0000
1000
,
2002
0000
3003
1000
,
0000
0000
0000
0010
,
0201
0000
0000
0000
0010
0000
0000
0300
,
2100
0000
0000
0000
0100
0000
0000
3000
,
0022
0000
0000
0000
0000
0000
0000
0000
0000
0000
0030
0003
0000
0000
0000
0000
0000
0000
0000
0000
0000
0000
0000
0000
0000
0000
0000
0000
0000
0000
0000
0000
,
0002
0000
0000
0003
0000
0000
0000
0000
,
0100
0000
0100
0000
2020
0000
0000
0030
,
3002
0003
0100
0000
,
1000
1000
0200
0000
,
0301
0001
0001
0000
,
0200
0300
0000
0000
0020
0000
0000
0000
,
1000
0000
0000
0030
0001
0000
0100
0000
,
0001
0000
0000
0000
0100
0000
0000
0000
0020
0000
0000
0000
0000
0030
0000
0000
,
0000
0000
0000
0000
2000
3000
0200
0300
,
2002
0000
3003
0000
0000
0000
0000
0000
0202
0000
0000
0300
2003
0000
3000
0000
,
0010
0001
0020
1030
,
1000
0000
0000
0000
0020
0030
0000
0000
0200
0000
0000
0000
0001
0000
0000
0300
,
1000
0000
0000
0000
0000
0000
0000
0000
1000
0000
0000
0000
0000
0000
0000
0000
0200
0000
0000
0000
0000
0300
0000
0000
0000
0000
0000
0000
0000
0000
0000
0000
,
0202
0303
0000
0000
2002
3003
0000
0000
0100
0000
0000
0000
0110
0000
0000
0000
,
0000
1000
0001
0101
,
0000
0001
1010
1010
,
0000
0100
0011
0011
,
0000
0010
0100
0100
,
0000
0100
1000
0010
,
0000
0100
0100
0100
,
0000
1000
0200
0000
,
0000
0000
0020
0030
0310
0000
0010
0000
,
0010
0110
0010
0010
,
2010
0010
0010
0010
,
0010
0010
0010
0010
,
0010
0010
0010
0010
,
0010
0000
0000
0000
,
0000
0000
0000
0200
,
0000
0000
0000
0000
,
0000
0000
0000
0000
,
0000
0000
0000
0000
,
0000
0000
0000
0000
,
0000
0000
0000
0000
,
0000
0000
0000
0000
0000
0000
0000
0000
0000
0000
0000
0000
0000
0000
0000
0000
3320
0000
0000
0030
0000
0000
0000
0000
0000
0000
0000
0000
0000
0000
0000
0000
;

//--------------- dance-single - Blood4Fame ----------------
#NOTES:
     dance-single:
     Blood4Fame:
     Medium:
     5:
     0,0,0,0,0:
0000
0010
0000
0010
0000
0010
0000
0010
,
0000
0010
0000
0010
0000
0010
0000
0010
,
0000
0010
0000
0010
0010
0000
0110
0000
,
0000
0010
1000
0010
0001
0000
0011
0000
,
0000
0010
0001
0010
1100
0000
1100
0000
,
0000
0010
0010
0100
0101
0000
0101
0000
,
0000
0010
0100
2000
0010
3000
0010
0000
,
0000
0001
0010
0001
1000
0000
0100
0000
,
0000
1000
0010
0100
0010
0000
0010
0000
,
0000
0001
1000
0100
0020
0000
0030
0000
,
0001
0000
0001
0000
0000
0100
1000
0100
,
0010
0000
0010
0000
0000
0001
1000
0010
,
0001
0000
0001
0000
0000
0100
1000
0001
,
0100
0000
0100
0000
0000
1000
0010
0100
,
0001
0000
0010
0000
0000
0100
0010
0001
,
0010
0000
1000
0000
0000
0100
0001
0010
,
0100
0000
1000
0000
0000
0002
0000
1000
,
0000
0010
0000
0200
0000
0003
0000
0300
,
0010
0100
0010
1000
0000
0001
0100
0010
,
0000
0010
1000
0010
0100
0001
1000
0010
,
0100
0000
0000
1000
0000
0001
0010
0100
,
0000
0100
1000
0100
0010
0001
1000
0100
,
0020
0000
0000
1030
0000
0001
0000
0000
,
0010
0000
0220
0330
2020
3030
0202
0303
,
0220
0330
0000
0001
0000
0100
0000
1000
,
0010
0000
0000
0100
0001
0000
1020
0000
,
0031
0000
0000
0100
0000
0000
1000
0001
,
1000
0000
0000
0010
0000
0000
0001
0010
,
2002
0000
0000
0000
3003
0000
0001
0020
,
0000
1030
0000
0000
0000
0010
0010
0000
,
1200
0000
0000
0010
0010
0000
0000
1300
,
0102
0000
0000
0010
0100
0000
0000
1003
,
2020
0000
0000
0000
0000
0000
0000
0000
0000
0000
0030
3000
0001
0000
0000
0000
0000
0000
0000
0000
0000
0000
0000
0000
0000
0000
0000
0000
0100
0000
0000
0000
,
2000
0000
0000
0000
0000
0000
3010
0000
0000
0000
0002
0000
0000
0003
0000
0000
,
0100
0000
0100
0000
0022
0000
0000
0030
,
2003
0000
3000
0000
0100
0000
0000
0100
,
0001
1000
0001
0010
0200
0000
0000
1000
,
1300
0000
1000
0010
1000
0000
0000
0000
,
0200
0300
0000
1000
0020
0000
0000
0100
,
0001
0000
0000
1030
1000
0010
0100
0001
,
1000
0000
0010
0000
0100
0000
0100
0000
0020
0000
0000
0000
0000
0030
0200
0000
,
0000
0000
0300
0000
0022
0033
2200
3300
,
2002
0000
3003
0000
0000
0000
1000
0000
2200
0000
0000
0300
3002
0000
0003
0000
,
0010
0000
1000
1000
0020
0000
0031
0001
,
0001
0000
0000
0000
0020
0030
0000
0000
0200
0000
0000
0000
1000
0000
0000
0300
,
0001
0000
0000
0000
0010
0000
0000
0000
0001
0000
0000
0000
0010
0000
0000
0000
0200
0000
0000
0000
0000
0300
0000
0000
0000
0000
0000
0000
0000
0000
0000
0000
,
2200
3300
0022
0033
2002
3003
0000
0000
0100
0000
0000
0000
0110
0000
0000
0000
,
0000
0100
0001
0100
1000
0000
1100
0000
,
0000
0100
1000
0100
0011
0000
0011
0000
,
0000
0100
0100
0010
1010
0000
1010
0000
,
0000
0100
0010
0002
0100
0003
0100
0000
,
0000
1000
0100
1000
0001
0000
0010
0000
,
0000
0001
0100
0010
0100
0000
0100
0000
,
0000
1000
0001
0010
0200
0000
0000
0000
,
0000
0000
0020
0030
0310
0000
0010
0000
,
0010
0100
0110
0100
0010
0000
0010
0000
,
0012
0010
0010
0010
,
0010
0010
0010
0010
,
0010
0010
0010
0010
,
0010
0000
0000
0000
,
0000
0000
0000
0200
,
0000
0000
0000
0000
,
0000
0000
0000
0000
,
0000
0000
0000
0000
,
0000
0000
0000
0000
,
0000
0000
0000
0000
,
0000
0000
0000
0000
0000
0000
0000
0000
0000
0000
0000
0000
0000
0000
0000
0000
0323
0000
0000
0030
0000
0000
0000
0000
0000
0000
0000
0000
0000
0000
0000
0000
;

//--------------- dance-single - Blood4Fame ----------------
#NOTES:
     dance-single:
     Blood4Fame:
     Hard:
     7:
     0,0,0,0,0:
0000
0100
0100
0000
0000
0100
0100
0000
0000
0100
0100
0000
0000
0100
0100
0000
,
0000
0100
0100
0000
0000
0100
0100
0000
0000
2100
0100
0000
0000
0100
0100
0000
,
0000
0100
0100
0000
0000
0100
0100
3000
0100
0001
0000
0000
0110
0000
0000
1000
,
0000
0010
0100
0000
0001
0000
0100
0000
0001
1000
0000
0000
1100
0000
0000
0010
,
0000
1000
0100
0000
1000
0000
0100
0000
0011
0000
0000
0000
0011
0000
0000
0001
,
0000
0000
0100
0000
0100
0000
0010
0000
1010
0000
0000
0000
1010
0000
0000
1000
,
0000
0000
0100
0000
0010
0000
0002
0000
0100
0000
0003
0000
0100
0000
0000
0010
,
0000
1000
0001
0000
0100
0000
0010
0000
1000
0100
0000
0000
0010
0000
0000
0001
,
0000
0000
0001
0000
0100
0000
0010
0000
0100
0000
0000
0000
0100
0000
0000
0010
,
0000
1000
0001
0010
0200
0000
0300
0000
,
1000
0000
0000
0000
1000
0000
0000
0100
0000
0000
0010
0000
0001
0000
0010
0000
,
0100
1000
0000
0000
0100
0000
0000
1000
0000
0001
1000
0000
0001
0000
0100
0000
,
0010
0000
0000
0000
1000
0000
0000
0100
0000
0000
0010
0000
0001
0000
1000
0000
,
0010
0100
0000
0000
0010
0000
0000
1000
0000
1000
0001
0000
0100
0000
0010
0000
,
1000
0000
0000
0000
0100
0000
0000
0001
0000
0100
0010
0000
0001
0000
1000
0000
,
0100
0010
0000
0000
0001
0000
0000
0100
0000
0000
0010
0000
1000
0000
0100
0000
,
0010
0000
0000
0000
0001
0000
0000
0001
0000
0000
2000
0000
0000
0000
0001
0000
,
0000
0100
0000
0020
0000
3000
0000
0030
,
0100
0000
0010
0000
0100
0000
0001
0100
0000
0001
1000
0000
0010
0000
0100
0000
,
0000
0100
0001
0100
0010
1000
0001
0100
,
0010
0000
0000
0000
0000
0000
0001
0020
0000
0000
0001
0000
0130
0000
0010
0000
,
0000
0010
0001
0010
0100
1000
0001
0010
,
0200
0000
0000
0000
0000
0000
0301
0200
0000
0000
1300
0000
0000
0100
0000
0000
,
0100
0000
0220
0330
0202
0303
2020
3030
,
0220
0000
0330
0000
0000
0000
1000
0100
0000
0000
0010
0000
0000
0000
0001
0000
,
0100
0000
0000
0010
0000
0000
0010
0000
1000
0000
0000
0000
0201
0000
0000
0000
,
1300
0000
0000
0100
0000
0000
0010
0000
0000
1000
0000
0000
0001
0000
1000
0000
,
0001
0000
0000
0010
0000
0000
0100
0000
0000
1000
0000
0001
1000
0000
0100
0000
,
2002
0000
0000
0000
3003
0000
1000
0200
,
0000
0000
1300
0002
0000
0000
0000
0000
0000
0000
0103
0000
0100
0000
0000
0000
,
0021
0000
0000
0001
0000
0000
0100
0000
0100
0000
0000
0001
0000
0000
0031
0000
,
0020
0000
0000
0100
0000
0000
0100
0000
1000
0000
0000
1030
0000
0000
0001
0000
,
0202
0000
0000
0000
0000
0000
0000
0000
0000
0000
0300
0003
1000
0000
0200
0000
0000
0000
0000
0000
0000
0000
0000
0000
0000
0000
0300
0000
0010
0000
0000
0000
,
2000
0000
0000
0000
0000
0000
3100
0020
0000
0000
0032
0000
0000
0203
0000
0300
,
0010
0001
0000
0000
0010
0001
0000
0000
2200
0000
0000
0000
0000
0000
0300
0000
,
3002
0000
0000
0000
0003
0000
0000
0000
0010
0000
0000
0100
0000
0000
0010
0000
,
0001
1000
0001
0100
0020
0000
0000
1000
,
1030
0000
0000
0000
0001
0000
0100
0000
0001
0010
0000
0100
0000
1000
0000
0100
,
0020
0000
0030
0000
0000
0000
0001
0000
0200
0000
0000
0001
0000
0000
0010
0000
,
1000
0000
0000
0010
0000
0000
0301
0000
0001
0000
0100
0000
0010
0000
1000
0000
,
0001
0000
0100
0000
0010
0000
0010
0000
0200
0000
0000
0000
0000
0301
0020
0000
,
0000
0000
0030
0000
2200
3300
0022
0033
,
2002
0000
3003
0200
0000
0000
0301
0000
0022
0000
0000
0030
2003
0001
3000
0000
,
0100
0000
0000
0010
0000
0000
0100
0000
1000
0000
0001
0000
0001
0000
0010
0000
0200
0000
0000
0000
0000
0000
1000
0000
1300
0000
0000
0000
1000
0000
0010
0000
,
1000
0100
0000
0010
0000
0001
0000
0010
0200
0000
0300
0000
0000
0000
1000
0000
0020
0000
0000
1000
0000
0000
0100
0000
0001
0000
0000
0100
0000
0000
1030
0000
,
1000
0000
0010
0000
0100
0000
0001
0000
1000
0000
0010
0000
0100
0000
0100
0000
0020
0000
0000
0000
0000
1030
0200
0000
0000
0000
0000
0000
0300
0000
0000
0000
,
0022
0000
0033
0000
2200
0000
3300
0000
2002
0000
3003
0020
0030
0000
2000
0000
3010
0000
1000
0000
0000
0000
0000
0000
0110
0000
0000
0000
0000
0000
0001
0000
,
0000
1000
0010
0000
1000
0000
0010
0000
1000
0100
0000
0000
0011
0000
0000
0100
,
0000
0100
0010
0000
0001
0000
0010
0000
1100
0000
0000
0000
1100
0000
0000
1000
,
0000
0001
0010
0000
0010
0000
0100
0000
0110
0000
0000
0000
1100
0000
0000
0001
,
0000
1000
0010
0000
1000
0000
0002
0000
0010
0003
0000
0000
0010
0000
0000
0100
,
0000
0010
0001
0000
0010
0000
0001
0000
1000
0010
0000
0000
0100
0000
0000
0001
,
0000
1000
0010
0000
0010
0000
0100
0000
1000
0000
0000
0000
0010
0000
0000
0100
,
0000
0001
1000
0100
0020
0000
0000
0000
,
0000
0000
0000
0000
0200
0000
0300
0000
0130
0100
0000
0000
0100
0101
0000
0000
,
0100
0100
0010
0000
0110
0100
0010
0000
0100
0100
0000
0000
0100
0100
0000
0000
,
2100
0100
0000
0000
0100
0100
0000
0000
0100
0100
0000
0000
0100
0100
0000
0000
,
0100
0100
0000
0000
0100
0100
0000
0000
0100
0100
0000
0000
0100
0100
0000
0000
,
0100
0100
0000
0000
0100
0100
0000
0000
0100
0100
0000
0000
0100
0100
0000
0000
,
0100
0100
0000
0000
0000
0000
0000
0000
0000
0000
0000
0000
0000
0000
0000
0000
,
0000
0000
0000
0020
,
0000
0000
0000
0000
,
0000
0000
0000
0000
,
0000
0000
0000
0000
,
0000
0000
0000
0000
,
0000
0000
0000
0000
,
0000
0000
0000
0000
0000
0000
0000
0000
0000
0000
0000
0000
0000
0000
0000
0000
3230
0000
0000
0300
0000
0000
0000
0000
0000
0000
0000
0000
0000
0000
0000
0000
;
