#TITLE:Sanctuary;
#SUBTITLE:~Intro Cinematic~;
#ARTIST:Utada Hikaru;
#TITLETRANSLIT:;
#SUBTITLETRANSLIT:;
#ARTISTTRANSLIT:;
#GENRE:;
#CREDIT:Blood4Fame;
#MUSIC:music.mp3;
#BANNER:banner.png;
#BACKGROUND:bg.png;
#CDTITLE:;
#SAMPLESTART:51.254;
#SAMPLELENGTH:22.867;
#SELECTABLE:YES;
#OFFSET:0.763;
#BPMS:0.000=109.000;
#STOPS:;
#BGCHANGES:;
#FGCHANGES:;

//--------------- dance-single - Blood4Fame ----------------
#NOTES:
     dance-single:
     Blood4Fame:
     Beginner:
     3:
     0,0,0,0,0:
0000
0000
0000
0000
,
0020
0000
0000
0000
,
0030
0000
0000
0000
,
0200
0000
0000
0000
,
0300
0000
0000
0000
,
0020
0000
0000
0000
,
0030
0000
0000
0000
,
2000
0000
0000
0000
,
3000
0000
0000
0000
,
0100
0000
1000
0000
,
0100
0000
1000
0000
,
0100
0000
1000
0000
,
0100
0000
1000
0000
,
0000
0000
0000
0000
,
0000
0000
0000
0000
,
0000
0000
0010
0000
,
0010
0010
0010
0000
,
0100
0100
0100
0000
,
0001
0000
1000
0000
,
0001
0000
0010
0010
,
0010
0000
0100
0100
,
0100
0000
0001
0000
,
0100
0000
0001
0000
,
1000
0000
0100
0100
,
0100
0000
0010
0010
,
0010
0000
0001
0000
,
0100
0000
0001
0000
,
1000
0000
0100
0100
,
0100
0000
0010
0010
,
0010
0000
0001
0000
,
0010
0000
0001
0000
,
0100
0000
0010
0000
,
0000
0000
1000
0000
,
0000
0000
0010
0000
,
0000
0000
0001
0000
,
0000
0000
0100
0000
,
0100
0000
0010
0000
,
0010
0000
1000
0000
,
1000
0000
0001
0000
,
0001
0000
0100
0000
,
0001
0000
1000
0000
,
0010
0000
1000
0000
,
0100
0000
1000
0000
,
0010
0000
0100
0100
,
0100
0000
0010
0010
,
0010
0000
0001
0000
,
1000
0000
0001
0000
,
0100
0000
0010
0010
,
0010
0000
0100
0100
,
0100
0000
1000
0000
,
0001
0000
1000
0000
,
0100
0000
0010
0010
,
0010
0000
0100
0100
,
0100
0000
0001
0000
,
0100
0000
0001
0000
,
0010
0000
1000
1000
,
1000
0000
0001
0001
,
0001
0000
0100
0000
,
0010
0000
0100
0000
,
0010
0000
1000
1000
,
1000
1000
0100
0100
,
0100
0100
0010
0010
,
0010
0010
0001
0001
,
0001
0001
0100
0100
,
0100
0100
0010
0010
,
0010
0010
1000
1000
,
1000
1000
0100
0100
,
0100
0100
0010
0000
,
0000
0000
0100
0000
,
0000
0000
0010
0000
,
0000
0000
0100
0000
,
0000
0000
1000
0000
,
1000
0000
0001
0000
,
0001
0000
0010
0000
,
0010
0000
0100
0000
,
0100
0000
0001
0000
,
0100
0000
0010
0000
,
1000
0000
0010
0000
,
0100
0000
0001
0000
,
0100
0000
0010
0010
,
0010
0000
0100
0000
,
1000
0000
0001
0001
,
0001
0000
1000
1000
,
1000
0000
0100
0000
,
0010
0000
0100
0000
,
0001
0000
0100
0100
,
0100
0000
0010
0010
,
0010
0000
1000
1000
,
1000
0000
0001
0001
,
0001
0000
0100
0000
,
0010
0000
0100
0000
,
0001
0000
1000
1000
,
1000
0000
0001
0001
,
0001
0000
0100
0000
,
0010
0000
1000
0000
,
0010
0000
0100
0000
,
0100
0000
0000
0000
,
0100
0000
0000
0100
,
0010
0000
0000
0010
,
1000
0000
0000
1000
,
0001
0000
0000
0001
,
0100
0000
0000
0010
,
1000
0000
0000
1000
,
0100
0000
0000
0010
,
0001
0000
0000
0100
,
0010
0000
0000
0010
,
1000
0000
0000
0100
,
1000
0000
0000
0010
,
0100
0000
0000
0001
,
0010
0000
0000
0010
,
0100
0000
0000
0001
,
1000
0000
0000
0100
,
0100
0000
0010
0000
,
0100
0000
0010
0000
,
0100
0000
0010
0000
,
0100
0000
0010
0000
;

//--------------- dance-single - Blood4Fame ----------------
#NOTES:
     dance-single:
     Blood4Fame:
     Medium:
     6:
     0,0,0,0,0:
0000
0000
0100
1000
,
0002
0000
0000
0000
,
0003
0001
0100
0010
,
2000
0000
0000
0200
0000
0000
0000
0000
,
3000
0300
0010
0001
,
1000
0000
0000
0200
0000
0000
0000
0000
,
0300
1000
0010
1000
,
0002
0000
0000
0000
,
2000
0000
0000
0003
,
3100
0000
0000
0100
0000
0000
0100
0000
0020
0000
0000
0000
0000
0000
0000
0000
,
0130
0000
0000
0100
0000
0000
0100
0000
0020
0000
0000
0000
0000
0000
0000
0000
,
0130
0000
0000
0100
0000
0000
0100
0000
0020
0000
0000
0000
0000
0000
0000
0000
,
0130
0000
0000
0100
0000
0000
0100
0000
0020
0000
0000
0000
0030
0000
0000
0000
,
0000
0000
0000
0000
,
0000
0000
0000
0000
,
0000
0000
0000
0000
0000
0000
0000
0000
1000
0000
0100
0000
0010
0000
0000
0010
,
0000
0001
0100
0010
1000
0000
0001
0100
,
0010
0000
0000
0010
0000
0000
1000
0000
0001
0000
0100
0000
0010
0000
0000
0010
,
0000
0000
0100
0000
1000
0000
0100
0000
0010
0000
1000
0000
0100
0000
0000
0100
,
0000
0000
1000
0000
0100
0000
0010
0000
0001
0000
0100
0000
0010
0000
0000
0010
,
0000
0000
1000
0000
0100
0000
0010
0000
0001
0000
0010
0000
0001
0000
0000
0001
,
0000
0000
0100
0000
0010
0000
1000
0000
0001
0000
0100
0000
0010
0000
0000
0010
,
0000
0000
1000
0000
0100
0000
0010
0000
0001
0000
0100
0000
0001
0000
0000
0001
,
0000
0000
0010
0000
0100
0000
1000
0000
0001
0000
1000
0000
0010
0000
0000
0010
,
0000
0000
1000
0000
0100
0000
0001
0000
0100
0000
0010
0000
0001
0000
0000
0001
,
0000
0000
1000
0000
0100
0000
0010
0000
0001
0000
0100
0000
0001
0000
0000
0001
,
0000
0000
1000
0000
0010
0000
1000
0000
0010
0000
0100
0000
0010
0000
0000
0010
,
0000
0000
1000
0000
0100
0000
0010
0000
0001
0000
0100
0000
0001
0000
0000
0001
,
0000
0000
1000
0000
0100
0000
0010
0000
0100
0000
1000
0000
0010
0000
0000
0010
,
0000
0000
1000
0000
0100
0000
1000
0000
0001
0000
0100
0000
0010
0000
0000
0010
,
0000
0000
0100
0000
0010
0000
1000
0000
0001
0000
0010
0000
0100
0000
0000
0100
,
0000
1000
0001
0100
0002
0000
0000
0000
,
0000
0000
0000
0000
0000
0000
0000
0000
0103
0000
0000
0100
0000
0000
0100
0000
,
0020
0000
0000
0000
0000
0000
0000
0000
0130
0000
0000
0100
0000
0000
0100
0000
,
0020
0000
0000
0000
0000
0000
0000
0000
0130
0000
0000
0100
0000
0000
0100
0000
,
0020
0000
0000
0000
0130
0000
0100
0010
,
0000
0010
1000
0000
0100
0000
0100
0010
,
0000
0010
0001
0000
0001
0000
0001
0100
,
0000
0100
0010
0000
1000
0000
1000
0100
,
0000
0100
1000
0000
0001
0000
0001
0100
,
0000
0100
0001
0000
1000
0000
1000
0010
,
0000
0010
1000
0100
0010
0000
0010
0001
,
0000
0001
0100
0000
0010
0000
1000
0100
,
0000
0000
1000
0000
0100
0000
0010
0000
0001
0000
0100
0000
0010
0000
0000
0010
,
0000
1000
0100
0010
0001
0000
1000
0100
,
0010
0000
0000
0010
0000
0000
0001
0000
1000
0000
0100
0000
0010
0000
0000
0010
,
0000
0000
0100
0000
0001
0000
0100
0000
0010
0000
0001
0000
0100
0000
0000
0100
,
0000
0000
0001
0000
0100
0000
0010
0000
1000
0000
0100
0000
0010
0000
0000
0010
,
0000
0000
0001
0000
0100
0000
0010
0000
1000
0000
0010
0000
1000
0000
0000
1000
,
0000
0000
0100
0000
0010
0000
0001
0000
1000
0000
0100
0000
0010
0000
0000
0010
,
0000
0000
0001
0000
0100
0000
0010
0000
1000
0000
0100
0000
1000
0000
0000
1000
,
0000
0000
0010
0000
0100
0000
0001
0000
1000
0000
0001
0000
0010
0000
0000
0010
,
0000
0000
0001
0000
0100
0000
1000
0000
0100
0000
0010
0000
1000
0000
0000
1000
,
0000
0000
0001
0000
0100
0000
0010
0000
1000
0000
0100
0000
1000
0000
0000
1000
,
0000
0000
0001
0000
0010
0000
0001
0000
0010
0000
0100
0000
0010
0000
0000
0010
,
0000
0000
0001
0000
0100
0000
0010
0000
1000
0000
0100
0000
1000
0000
0000
1000
,
0000
0000
0001
0000
0100
0000
0010
0000
0100
0000
0001
0000
0010
0000
0000
0010
,
0000
0000
0001
0000
0100
0000
0001
0000
1000
0000
0100
0000
0010
0000
0000
0010
,
0000
0000
0100
0000
0010
0000
0001
0000
1000
0000
0010
0000
0100
0000
0000
0100
,
0000
0001
1000
0000
0100
0000
0100
0000
,
0100
0000
0010
0001
0000
0010
0001
0000
0100
0000
0000
0000
0100
0000
0000
0000
,
0100
0000
0000
0000
0010
1000
0000
0000
0100
0000
0000
0000
0100
0000
0000
0000
,
0100
0000
0010
0001
0000
0010
0001
0000
0100
0000
0000
0000
0100
0000
0000
0000
,
0100
0000
0000
0000
0010
1000
0000
0000
0100
0000
0000
0000
0100
0000
0000
0000
,
0100
0000
0010
0001
0000
0010
0001
0000
0100
0000
0000
0000
0100
0000
0000
0000
,
0100
0000
0000
0000
0010
1000
0000
0000
0100
0000
0000
0000
0100
0000
0000
0000
,
0100
0000
0010
0001
0000
0010
0001
0000
0100
0000
0000
0000
0100
0000
0000
0000
,
0100
0000
0000
0000
0010
1000
0000
0000
0100
0000
0000
0100
0000
0000
0100
0000
,
0020
0000
0000
0000
0000
0000
0000
0000
0130
0000
0000
0100
0000
0000
0100
0000
,
0020
0000
0000
0000
0000
0000
0000
0000
0130
0000
0000
0100
0000
0000
0100
0000
,
0020
0000
0000
0000
0000
0000
0000
0000
0130
0000
0000
0100
0000
0000
0100
0000
,
0020
0000
0000
0030
0010
0000
0010
0100
,
0000
0100
0001
0000
0010
0000
0010
0100
,
0000
0100
1000
0000
1000
0000
1000
0010
,
0000
0010
0100
0000
0001
0000
0001
0010
,
0000
0010
0001
0000
1000
0000
1000
0010
,
0000
0010
1000
0000
0001
0000
0001
0100
,
0000
0100
0001
0010
0100
0000
0100
1000
,
0000
1000
0010
0000
0100
0000
0001
0010
,
0000
0000
0001
0000
0010
0000
0100
0000
1000
0000
0010
0000
0100
0000
0000
0100
,
0000
0001
0010
0100
1000
0000
0001
0010
,
0100
0000
0000
0100
0000
0000
1000
0000
0001
0000
0010
0000
0100
0000
0000
0100
,
0000
0000
0010
0000
1000
0000
0010
0000
0100
0000
1000
0000
0010
0000
0000
0010
,
0000
0000
1000
0000
0010
0000
0100
0000
0001
0000
0010
0000
0100
0000
0000
0100
,
0000
0000
1000
0000
0010
0000
0100
0000
0001
0000
0100
0000
0001
0000
0000
0001
,
0000
0000
0010
0000
0100
0000
1000
0000
0001
0000
0010
0000
0100
0000
0000
0100
,
0000
0000
1000
0000
0010
0000
0100
0000
0001
0000
0010
0000
0001
0000
0000
0001
,
0000
0000
0100
0000
0010
0000
1000
0000
0001
0000
1000
0000
0100
0000
0000
0100
,
0000
0000
1000
0000
0010
0000
0001
0000
0010
0000
0100
0000
0001
0000
0000
0001
,
0000
0000
1000
0000
0010
0000
0100
0000
0001
0000
0010
0000
0001
0000
0000
0001
,
0000
0000
1000
0000
0100
0000
1000
0000
0100
0000
0010
0000
0100
0000
0000
0100
,
0000
0000
1000
0000
0010
0000
0100
0000
0001
0000
0010
0000
0001
0000
0000
0001
,
0000
0000
1000
0000
0010
0000
0100
0000
0010
0000
1000
0000
0100
0000
0000
0100
,
0000
0000
1000
0000
0010
0000
1000
0000
0001
0000
0010
0000
0100
0000
0000
0100
,
0000
0000
0010
0000
0100
0000
1000
0000
0001
0000
0100
0000
0010
0000
0000
0010
,
0000
1000
0002
0000
0003
0000
0000
0000
,
0010
0000
0010
0100
0000
0100
0010
0000
,
0002
0000
0000
2003
,
3002
0000
0000
0203
0000
0000
0000
0000
,
0000
0000
0010
0301
,
0020
0000
0000
2030
0000
0000
0200
0000
,
0300
3002
2003
3020
,
0100
0000
0000
2030
0000
0000
3002
0000
,
0023
0000
0000
0032
,
0203
0000
0000
0320
0000
0000
2030
0000
,
0100
0000
0000
0010
,
3002
0000
0000
0023
0000
0000
0000
0000
,
0000
0030
0010
0002
,
0200
0000
0300
0020
0000
0030
2003
0000
,
0000
3000
0000
0100
,
0010
0000
0000
2000
0000
0000
0000
0000
,
0000
0000
0000
0000
,
3100
0000
0000
0100
0000
0000
0100
0000
0020
0000
0000
0000
0000
0000
0000
0000
,
0130
0000
0000
0100
0000
0000
0100
0000
0020
0000
0000
0000
0000
0000
0000
0000
,
0130
0000
0000
0100
0000
0000
0100
0000
0020
0000
0000
0000
0000
0000
0000
0000
,
0130
0000
0000
0100
0000
0000
0100
0000
0020
0000
0000
0000
0000
0000
0000
0000
,
0000
0030
0000
0000
0000
0000
0000
0000
;

//--------------- dance-single - Blood4Fame ----------------
#NOTES:
     dance-single:
     Blood4Fame:
     Hard:
     8:
     0,0,0,0,0:
0000
0000
0000
0000
,
0000
0000
0000
0000
,
0000
0000
0000
0000
,
0000
0000
0000
0000
,
0000
0000
0000
0000
,
0000
0000
0000
0000
,
0000
0000
0000
0000
,
0000
0000
0000
0020
,
2030
0000
0000
3200
,
0320
0000
0000
0000
,
0000
0000
0000
0000
,
0000
0000
0000
0000
,
0000
0000
0000
0030
,
0000
0000
0000
0000
,
0000
0020
2030
0000
,
0000
0000
0000
0000
3200
0000
0300
0000
1100
0000
0000
0100
0010
0000
0001
0100
,
0000
1000
0100
0000
2100
0000
0000
0000
3100
0000
0000
0000
0101
0000
0000
0010
,
1000
0000
0100
0000
0010
0000
0100
0000
1100
0000
0000
1000
0001
0000
0000
1000
,
0000
1000
0010
0000
1000
0000
0001
0010
0100
0000
0000
0100
0010
0000
0000
0001
,
0000
1000
0100
0000
1000
0000
0100
0010
0001
0000
0000
0000
0011
0000
0000
1000
,
0000
1000
0010
0000
0000
0100
0010
0000
0101
0000
0000
0010
0200
0000
0000
1300
,
0000
0002
0000
0203
0000
0000
0310
2000
3000
0000
0000
0100
0010
0000
0000
0011
,
0000
0000
0000
0000
0000
0000
0000
0000
0000
0000
0000
0000
0000
0000
0000
0000
0000
0000
0000
0000
0000
0000
0000
0000
0202
0000
0000
0000
0000
0000
0000
0000
0000
0000
0000
0000
0000
0000
0000
0000
0000
0000
0000
0000
0000
0000
0000
0000
0000
0000
0000
0000
0000
0000
0000
0000
0000
0000
0000
0000
0000
0000
0000
0000
0000
0000
0000
0000
0000
0000
0000
0000
0000
0303
0000
0000
0000
0000
0000
0000
0000
0000
0000
0000
0000
0000
0000
0000
0000
0000
0000
0000
0000
0000
0000
0000
0000
0000
0000
0000
0000
0000
0000
0000
0000
0000
0000
0000
0000
0000
0000
0000
0000
0000
0000
0000
0000
0000
0000
0000
0010
0000
0000
0000
0000
0000
0000
0000
0000
0000
0000
0000
1000
0000
0000
0000
0000
0000
0000
0000
0000
0000
0000
0000
0010
0000
0000
0000
0000
0000
0000
0000
0000
0000
0000
0000
0000
0000
0000
0000
0000
0000
0000
0000
0000
0000
0000
0000
0000
0000
0000
0000
0000
0000
0000
0000
0000
0000
0000
0000
2200
0000
0000
0000
0000
0000
0000
0000
0000
0000
0000
0000
,
3300
0000
2020
0000
3030
0000
0220
0000
0330
0000
0000
1000
0001
0000
0000
0010
,
0000
0001
0200
0000
0310
0000
1000
1000
,
1000
0000
0000
0100
0000
0000
0010
0000
0010
0200
0000
0000
0000
0000
0000
0000
,
0000
0000
0000
0000
0000
0000
0000
0310
0002
0000
0000
0000
0000
0000
0000
0000
,
0000
0000
0000
1003
0020
0000
0030
0000
1100
0000
0000
1001
0000
0000
1010
0000
,
0000
2020
0000
0000
0000
3000
0000
1030
0020
0000
0030
0010
2000
0000
3200
0000
,
0300
0200
0000
0302
0000
0003
0001
2000
3000
0000
0000
0000
1100
0000
0000
0010
,
0100
0000
0000
0202
0000
0000
0000
0303
0000
0000
0100
0000
0011
0000
0000
1000
,
0010
1010
2200
0000
,
0000
0000
0000
0000
3300
0000
0000
0000
0100
0000
0000
0100
0000
0000
0100
0000
,
0000
0002
0000
0000
0000
0000
0003
0000
0100
0000
0000
0100
0000
0000
0100
0000
,
0000
2000
0000
0000
0000
0000
3000
0000
0100
0000
0000
0100
0000
0000
0100
0000
,
0000
0002
0000
0000
0000
0000
0003
0000
1000
0000
1000
0000
1000
0000
0000
0000
,
0010
0000
0010
0000
0100
0100
0100
0001
,
0000
0001
0010
0000
0100
0100
0100
0000
,
1000
0000
1000
0000
0001
0001
0001
0010
,
0000
0000
0010
0000
0000
0000
0001
0000
0100
0000
0000
0010
1000
0000
0100
0000
,
0000
0010
0002
0000
0100
0000
0000
0000
0013
0000
0010
0000
0010
0000
0002
0000
,
0000
1003
0000
0010
2000
0000
0100
0002
,
0000
0000
3003
0000
2020
0000
3030
2200
0000
0000
0000
0000
0000
0000
0000
0000
,
0000
0000
0000
3300
0022
0000
0000
0033
0110
0000
0001
0100
0010
0000
1000
0100
,
0000
0010
0001
0000
0001
0000
0001
0000
0010
0000
0000
0100
1000
0000
0010
0000
,
0000
0100
0001
0000
0010
0000
0001
0010
0100
0000
0000
0100
0010
0000
0000
0001
,
0000
1000
0010
0000
0000
1000
0010
0000
0100
0000
0000
0100
0001
0000
0000
1000
,
0000
0001
0100
0000
0000
0001
0100
0000
1010
0000
0000
1100
0000
0000
0011
0000
,
0101
0000
0000
0000
1000
0010
0000
0000
0100
0000
0000
0100
0020
0000
0000
1030
,
0000
1000
0001
0000
1000
0000
0010
1000
0100
0000
0000
0000
1001
0000
0000
0000
,
1010
0000
0000
2002
0000
0000
0000
3003
0000
0000
0001
0000
0100
0000
0000
0011
,
0000
0000
1001
0000
0000
0000
0000
2020
0000
3030
0000
0001
0100
0000
0010
1000
,
0000
0000
0100
0000
0010
0000
0010
0000
0100
0000
0000
1000
0001
0000
0001
0000
,
0001
0000
0100
0000
0010
0000
1000
0100
1000
0000
0000
1000
0001
0000
0000
0100
,
0000
0000
0010
0000
0010
0000
0010
0000
1000
0000
0000
0100
0010
0000
0000
0001
,
0000
0000
0100
0000
0100
0000
0100
0000
0020
0000
0000
0200
0030
0000
0302
0000
,
2003
0000
0000
0000
0000
0000
0000
0000
3100
0000
0000
0100
1000
0000
0010
0000
,
0100
0000
0000
0100
0000
0000
0100
0001
0000
0000
0000
0001
0100
0000
0010
1000
,
0000
0000
0100
0000
0022
0000
0000
0033
0202
0000
0303
0010
1000
0000
0100
0010
,
0000
0022
0000
0033
0100
0000
0100
0000
,
0100
0000
0010
0001
0000
0010
0001
0000
0100
0000
0000
0000
0100
0000
0000
0000
,
0100
0000
0000
0000
0010
0001
0000
0000
0100
0000
0000
0000
0100
0000
0000
0000
,
0100
0000
0010
0001
0000
0010
0001
0000
0100
0000
0000
0000
0100
0000
0000
0000
,
0100
0000
0000
0000
0010
0001
0000
0000
0100
0000
0000
0000
0100
0000
0000
0000
,
0100
0000
0010
0001
0000
0010
0001
0000
0100
0000
0000
0000
0100
0000
0000
0000
,
0100
0000
0000
0000
0010
0001
0000
0000
0100
0000
0000
0000
0100
0000
0000
0000
,
0100
0000
0010
0001
0000
0010
0001
0000
0100
0000
0000
0000
0100
0000
0000
0000
,
0100
0000
0000
0000
0010
0000
0001
0000
0010
0000
0000
0010
0000
0000
0010
0000
,
0002
0000
0000
0000
0000
0000
0003
0000
0010
0000
0000
0010
0000
0000
0010
0000
,
2000
0000
0000
0000
0000
0000
3000
0000
0010
0000
0000
0010
0000
0000
0010
0000
,
0002
0000
0000
0000
0000
0000
0003
0000
0010
0000
0000
0010
0000
0000
0010
0000
,
2000
0000
0000
3000
0001
0000
0001
0100
,
0000
0100
0010
0010
0010
0000
0010
1000
,
0000
1000
0100
0100
0100
0000
0010
0001
,
0000
0001
0100
0000
1000
1000
1000
0100
,
0000
0000
0100
0000
1000
0000
0000
0000
0010
0000
0000
0100
0001
0000
0010
0000
,
0000
0100
2000
0000
0010
0000
0000
0000
3100
0000
0100
0000
0100
0000
2000
0000
,
0000
3001
0000
0100
0002
0000
0010
2000
,
0000
0000
3003
0000
0202
0000
0303
0022
0000
0000
0000
0000
0000
0000
0000
0000
,
0000
0000
0000
0033
2200
0000
0000
3300
0110
0000
0001
0100
0010
0000
1000
0100
,
0000
0010
0001
0000
0001
0000
0001
0000
0010
0000
0000
0100
1000
0000
0010
0000
,
0000
0100
0001
0000
0010
0000
0001
0010
0100
0000
0000
0100
0010
0000
0000
0001
,
0000
1000
0010
0000
0000
1000
0010
0000
0100
0000
0000
0100
0001
0000
0000
1000
,
0000
0001
0100
0000
0000
0001
0100
0000
1010
0000
0000
1100
0000
0000
0011
0000
,
0101
0000
0000
0000
1000
0010
0000
0000
0100
0000
0000
0100
0020
0000
0000
1030
,
0000
1000
0001
0000
1000
0000
0010
1000
0100
0000
0000
0000
1001
0000
0000
0000
,
1010
0000
0000
2002
0000
0000
0000
3003
0000
0000
0001
0000
0100
0000
0000
0011
,
0000
0000
1001
0000
0000
0000
0000
2020
0000
3030
0000
0001
0100
0000
0010
1000
,
0000
0000
0100
0000
0010
0000
0010
0000
0100
0000
0000
1000
0001
0000
0001
0000
,
0001
0000
0100
0000
0010
0000
1000
0100
1000
0000
0000
1000
0001
0000
0000
0100
,
0000
0000
0010
0000
0010
0000
0010
0000
1000
0000
0000
0100
0010
0000
0000
0001
,
0000
0000
0100
0000
0100
0000
0100
0000
0020
0000
0000
0200
0030
0000
0302
0000
,
2003
0000
0000
0000
0000
0000
0000
0000
3100
0000
0000
0100
1000
0000
0010
0000
,
0100
0000
0000
0100
0000
0000
0100
0001
0000
0000
0000
0001
0100
0000
0010
1000
,
0000
0000
0100
0000
0022
0000
0000
0033
0202
0000
0303
0010
1000
0000
0100
0010
,
0000
0022
0000
0033
0202
0000
0303
0000
,
1010
0000
0000
0010
1000
0000
0100
0000
0000
1000
0100
0000
0010
0000
0100
0000
,
1000
0010
2000
0000
3020
0000
0130
0001
,
1000
0000
0000
0100
0010
0000
0001
0000
0000
0100
0010
0000
0100
0000
0001
0000
,
1000
0000
0000
0100
0010
0000
0001
0000
0000
0100
0010
0000
1000
0000
0100
0000
,
0020
0000
0000
0032
0000
0000
2003
0000
,
0200
0000
3000
0000
0000
0300
0200
0000
,
0020
0000
0300
0002
0030
0000
0000
0000
,
0003
1000
0010
0100
0000
0010
1000
0000
,
0022
0000
0000
0000
0033
0000
0202
0000
0000
0000
0303
0000
2020
0000
0000
3030
,
2200
0000
0000
0000
0000
0000
0000
0000
0000
0000
0000
0300
3200
0000
0000
0300
,
0220
0000
0000
0000
0000
0330
0022
0000
0000
0000
0000
0000
0000
0000
0000
0000
,
0000
0000
0033
0000
0200
0000
0310
1000
,
1020
1000
1030
2100
0100
3100
0210
0010
,
0321
0000
0001
0000
0031
0000
0011
0000
0022
0000
0033
2000
0000
3000
1000
0200
,
0020
0000
0330
0000
0000
0000
2002
0000
3003
0000
0010
1000
0000
0100
0010
0001
,
0100
0000
0000
0100
0010
0000
1000
0000
1000
0000
1000
0000
0000
1000
0100
0000
,
1200
0000
0000
1000
0000
0000
1000
0000
0020
0000
0000
0000
0000
0000
0030
0000
,
1000
0000
0000
1000
0000
0000
1000
0000
0020
0000
0000
0000
0000
0000
0030
0000
,
1000
0000
0000
1000
0000
0000
1000
0000
0020
0000
0000
0000
0000
0000
0030
0000
,
1000
0000
0000
1000
0000
0000
1000
0000
0020
0000
0000
0000
0330
0000
0000
0000
;
